osu file format v14

[General]
AudioFilename: audio.mp3
AudioLeadIn: 0
PreviewTime: 64813
Countdown: 0
SampleSet: Soft
StackLeniency: 0.7
Mode: 0
LetterboxInBreaks: 0
WidescreenStoryboard: 1

[Editor]
DistanceSpacing: 1
BeatDivisor: 4
GridSize: 8
TimelineZoom: 1.4

[Metadata]
Title:Shunkan Spline
TitleUnicode:瞬間スプライン
Artist:Kicco
ArtistUnicode:Kicco
Creator:Natsume Shizuku
Version:Normal
Source:タユタマ -Kiss on my Deity-
Tags:ギャル video game visual novel vn eroge tayutama lump of sugar chiyomaru shikura female vocals opening short ver version japanese pop jpop j-pop kennethbbg iredi
BeatmapID:4329152
BeatmapSetID:2069001

[Difficulty]
HPDrainRate:3
CircleSize:3.2
OverallDifficulty:4.5
ApproachRate:5.5
SliderMultiplier:0.999999999999999
SliderTickRate:1

[Events]
//Background and Video events
0,0,"skeelu.jpg",0,0
//Break Periods
//Storyboard Layer 0 (Background)
//Storyboard Layer 1 (Fail)
//Storyboard Layer 2 (Pass)
//Storyboard Layer 3 (Foreground)
//Storyboard Layer 4 (Overlay)
//Storyboard Sound Samples

[TimingPoints]
366,348.837209302326,4,2,31,60,1,0
10133,-100,4,2,31,70,0,0
11528,-100,4,2,31,80,0,0
22778,-100,4,2,31,45,0,0
24959,-100,4,2,31,55,0,0
25831,-100,4,2,31,60,0,0
36645,-100,4,2,31,70,0,0
46586,-100,4,2,31,55,0,0
47807,-100,4,2,31,70,0,0
51993,-100,4,2,31,60,0,0
53389,-100,4,2,31,70,0,0
56179,-100,4,2,31,80,0,0
63156,-100,4,2,31,60,0,0
63505,-100,4,2,31,70,0,0
63854,-100,4,2,31,80,0,0
65947,-90.9090909090909,4,2,31,90,0,0
85482,-100,4,2,31,90,0,0
88621,-100,4,2,31,80,0,0
91761,-100,4,2,31,65,0,0
92284,-100,4,2,31,80,0,0
107110,-100,4,2,31,70,0,0
107807,-100,4,2,31,60,0,0
108505,-100,4,2,31,55,0,0
109203,-100,4,2,31,40,0,0
109900,-100,4,2,31,25,0,0
110598,-100,4,2,31,5,0,0

[Colours]
Combo1 : 248,182,122
Combo2 : 157,157,206

[HitObjects]
23,103,11528,6,0,P|79:90|134:77,1,99.9999999999999,6|10,1:0|0:0,0:0:0:0:
152,41,12052,2,0,P|204:57|261:72,1,99.9999999999999,2|0,0:0|3:0,0:0:0:0:
290,42,12575,1,10,0:0:0:0:
369,102,12924,2,0,P|381:154|395:219,1,99.9999999999999,0|10,3:0|0:0,0:0:0:0:
380,251,13447,1,0,3:0:0:0:
380,251,13621,2,0,L|439:267,1,50,2|0,0:0|3:0,0:0:0:0:
467,295,13970,1,10,0:0:0:0:
392,362,14319,6,0,P|343:370|278:386,1,99.9999999999999,2|10,3:2|0:0,0:0:0:0:
254,350,14842,2,0,P|203:325|152:304,1,99.9999999999999,2|0,0:0|3:0,0:0:0:0:
114,320,15366,1,10,0:0:0:0:
39,253,15714,2,0,P|17:182|4:140,1,99.9999999999999,0|10,3:0|0:0,0:0:0:0:
39,117,16238,1,0,3:0:0:0:
130,78,16586,1,0,3:0:0:0:
130,78,16761,1,10,0:0:0:0:
220,121,17110,6,0,P|240:170|223:230,1,99.9999999999999,2|10,3:2|0:0,0:0:0:0:
182,225,17633,2,0,P|190:274|198:325,1,99.9999999999999,2|0,0:0|3:0,0:0:0:0:
238,352,18156,1,10,0:0:0:0:
333,321,18505,2,0,P|381:314|435:289,1,99.9999999999999,2|10,3:2|0:0,0:0:0:0:
464,259,19028,1,2,3:2:0:0:
464,259,19203,2,0,L|476:201,1,50,2|0,0:0|3:0,0:0:0:0:
460,161,19552,1,10,0:2:0:0:
393,85,19900,6,0,P|344:98|279:113,1,99.9999999999999,2|10,3:2|0:0,0:0:0:0:
266,150,20424,2,0,P|260:207|240:258,1,99.9999999999999,2|0,0:0|3:0,0:0:0:0:
201,269,20947,2,0,L|149:282,1,50,10|0,0:0|0:0,0:0:0:0:
108,305,21296,1,2,3:2:0:0:
24,249,21645,1,10,0:0:0:0:
64,157,21993,1,10,0:0:0:0:
163,169,22342,2,0,L|227:151,1,50,8|8,0:0|0:0,0:0:0:0:
259,141,22691,1,6,1:0:0:0:
486,341,25482,5,4,3:0:0:0:
408,278,25831,2,0,L|396:215,2,50,8|0|0,0:0|3:0|3:0,0:0:0:0:
340,351,26528,1,4,3:0:0:0:
246,315,26877,2,0,P|195:296|134:278,1,99.9999999999999,0|4,3:0|3:0,0:0:0:0:
101,284,27400,2,0,P|83:229|65:175,1,99.9999999999999,8|0,3:0|3:0,0:0:0:0:
96,146,27924,1,8,3:0:0:0:
166,74,28272,6,0,P|217:68|262:103,1,99.9999999999999,4|8,3:0|0:0,0:0:0:0:
254,144,28796,1,8,3:0:0:0:
347,179,29145,2,0,P|360:228|378:285,1,99.9999999999999,8|2,3:0|0:0,0:0:0:0:
338,309,29668,2,0,P|403:328|494:366,1,150,2|8,3:2|3:0,0:0:0:0:
510,320,30366,1,2,3:2:0:0:
473,227,30714,2,0,L|485:163,1,50,8|12,3:0|3:0,0:0:0:0:
460,132,31063,5,4,1:0:0:0:
377,75,31412,2,0,L|363:11,2,50,10|8|0,0:0|3:0|3:0,0:0:0:0:
312,151,32109,1,2,3:2:0:0:
227,97,32458,2,0,P|172:102|131:143,1,99.9999999999999,2|8,3:2|3:0,0:0:0:0:
98,159,32982,2,0,P|120:209|136:262,1,99.9999999999999,4|0,3:0|3:0,0:0:0:0:
85,341,33679,1,0,0:0:0:0:
85,341,33854,6,0,P|137:363|191:385,1,99.9999999999999,2|8,3:2|0:0,0:0:0:0:
247,308,34552,1,0,3:0:0:0:
185,229,34900,2,0,L|161:168,1,50,8|2,3:0|3:2,0:0:0:0:
181,134,35249,1,2,3:2:0:0:
244,56,35598,2,0,P|300:39|347:18,1,99.9999999999999,2|4,1:0|3:0,0:0:0:0:
384,40,36121,1,4,3:0:0:0:
458,114,36470,1,8,0:0:0:0:
458,114,36645,6,0,P|464:187|393:240,1,150,4|2,1:0|0:0,0:0:0:0:
362,225,37342,1,2,3:2:0:0:
237,307,37866,1,2,0:0:0:0:
237,307,38040,2,0,P|223:247|208:192,1,99.9999999999999,2|10,3:2|0:0,0:0:0:0:
250,116,38738,1,2,3:2:0:0:
250,116,38912,2,0,P|182:98|133:77,1,99.9999999999999,2|2,3:2|0:0,0:0:0:0:
121,49,39435,6,0,P|55:85|75:159,1,150,2|2,3:2|0:0,0:0:0:0:
63,199,40133,1,2,3:2:0:0:
116,344,40656,1,2,0:0:0:0:
116,344,40831,2,0,P|166:329|224:307,1,99.9999999999999,2|10,3:2|2:2,0:0:0:0:
259,323,41354,2,0,P|272:262|285:205,1,99.9999999999999,2|2,3:2|3:2,0:0:0:0:
237,134,42052,1,2,0:0:0:0:
237,134,42226,6,0,P|223:64|286:23,1,150,2|0,3:2|0:0,0:0:0:0:
319,54,42924,1,2,3:2:0:0:
472,63,43447,1,2,0:0:0:0:
472,63,43621,2,0,P|460:112|446:167,1,99.9999999999999,2|8,3:2|0:0,0:0:0:0:
493,249,44319,1,2,3:2:0:0:
408,303,44668,2,0,L|349:316,1,50,8|0,0:0|0:0,0:0:0:0:
318,343,45017,6,0,P|286:309|291:252,1,99.9999999999999,2|10,3:2|2:2,0:0:0:0:
327,166,45714,2,0,L|275:148,1,50,2|0,3:2|0:0,0:0:0:0:
239,180,46063,2,0,L|185:193,1,50,8|2,2:2|0:0,0:0:0:0:
153,224,46412,1,8,2:0:0:0:
153,224,46586,1,0,3:0:0:0:
62,180,46935,1,0,3:0:0:0:
108,93,47284,1,0,3:0:0:0:
108,93,47459,2,0,L|160:76,1,50,0|4,3:0|3:0,0:0:0:0:
190,41,47807,6,0,P|247:89|322:80,1,150,4|2,1:0|0:0,0:0:0:0:
353,47,48505,1,2,3:2:0:0:
461,150,49028,1,2,0:0:0:0:
461,150,49203,2,0,P|454:197|440:264,1,99.9999999999999,2|10,3:2|0:0,0:0:0:0:
462,346,49900,2,0,P|407:358|351:374,1,99.9999999999999,2|10,3:2|2:2,0:0:0:0:
277,319,50598,6,0,P|196:305|129:346,1,150,2|0,3:2|0:0,0:0:0:0:
107,375,51296,1,2,3:2:0:0:
20,324,51645,2,0,L|6:266,1,50,8|2,2:2|2:2,0:0:0:0:
38,235,51993,6,0,L|108:260,2,66.6666666666666,2|2|2,3:2|3:2|3:2,0:0:0:0:
53,170,52691,2,0,L|121:139,2,66.6666666666666,2|2|2,3:2|3:2|3:2,0:0:0:0:
6,122,53389,6,0,P|-1:63|40:27,1,99.9999999999999,4|8,1:0|0:0,0:0:0:0:
72,43,53912,2,0,P|137:23|182:6,1,99.9999999999999,2|0,0:2|3:2,0:0:0:0:
213,31,54435,1,8,0:2:0:0:
275,108,54784,2,0,L|331:87,2,50,2|0|8,3:2|0:0|0:2,0:0:0:0:
245,148,55307,2,0,P|232:195|254:246,1,99.9999999999999,2|0,0:2|3:2,0:0:0:0:
300,241,55831,1,8,0:2:0:0:
369,312,56179,6,0,P|417:296|466:281,1,99.9999999999999,4|10,1:0|2:0,0:0:0:0:
494,185,56877,2,0,L|505:130,2,50,10|0|10,2:0|3:0|2:0,0:0:0:0:
395,204,57575,1,10,2:0:0:0:
316,142,57924,1,10,2:0:0:0:
219,166,58272,2,0,L|181:220,1,50,10|0,0:0|3:0,0:0:0:0:
169,252,58621,2,0,L|187:315,1,50,10|10,2:0|3:0,0:0:0:0:
158,343,58970,6,0,P|99:326|41:311,1,99.9999999999999,4|10,1:0|0:0,0:0:0:0:
14,227,59668,2,0,P|12:179|50:142,1,99.9999999999999,2|8,3:2|2:2,0:0:0:0:
94,157,60191,2,0,P|169:137|248:109,1,150,2|8,2:2|0:2,0:0:0:0:
300,35,61063,1,2,3:2:0:0:
381,93,61412,2,0,L|370:153,1,50,10|2,2:2|2:2,0:0:0:0:
335,176,61761,5,10,2:2:0:0:
385,262,62110,1,8,2:2:0:0:
314,333,62459,1,8,2:2:0:0:
225,287,62807,2,0,L|209:231,1,50,8|0,2:2|3:2,0:0:0:0:
217,189,63156,1,4,1:2:0:0:
140,124,63505,2,0,L|79:105,2,50,0|0|4,3:0|3:0|3:0,0:0:0:0:
178,91,64028,1,4,3:0:0:0:
178,91,64203,2,0,L|237:71,1,50,12|12,3:0|3:0,0:0:0:0:
273,61,64552,1,4,1:0:0:0:
458,149,65947,6,0,L|466:94,2,55.0000016784668,4|2|10,1:0|0:0|0:0,0:0:0:0:
489,195,66470,1,2,3:2:0:0:
407,268,66819,1,2,3:2:0:0:
407,268,66993,2,0,P|371:278|337:289,1,55.0000016784668,10|0,2:2|0:0,0:0:0:0:
304,306,67342,2,0,P|249:286|189:268,1,110.000003356934,2|10,3:2|2:2,0:0:0:0:
181,218,67866,2,0,P|157:160|140:110,1,110.000003356934,2|2,3:2|2:2,0:0:0:0:
158,62,68389,1,8,2:2:0:0:
262,26,68738,5,2,3:2:0:0:
322,117,69086,1,10,2:2:0:0:
230,177,69435,2,0,L|171:192,1,55.0000016784668,2|2,3:2|3:2,0:0:0:0:
128,164,69784,1,10,2:2:0:0:
128,164,69959,2,0,P|63:148|9:124,1,110.000003356934,2|0,3:2|3:2,0:0:0:0:
9,84,70482,1,10,2:2:0:0:
87,6,70831,2,0,L|154:25,1,55.0000016784668,2|0,2:2|3:2,0:0:0:0:
178,59,71179,1,10,2:2:0:0:
249,142,71528,6,0,P|258:191|273:259,1,110.000003356934,2|8,3:2|2:0,0:0:0:0:
327,344,72226,2,0,L|388:360,1,55.0000016784668,2|0,3:2|3:2,0:0:0:0:
431,338,72575,1,10,2:2:0:0:
484,241,72924,1,2,3:2:0:0:
404,165,73272,1,10,2:2:0:0:
308,219,73621,1,2,3:2:0:0:
308,219,73796,2,0,P|247:201|183:184,1,110.000003356934,2|2,3:2|2:2,0:0:0:0:
164,148,74319,6,0,P|134:91|156:32,1,110.000003356934,2|8,3:2|2:2,0:0:0:0:
185,13,74842,1,2,2:2:0:0:
292,55,75191,1,0,3:2:0:0:
292,55,75366,2,0,L|355:71,1,55.0000016784668,8|0,2:2|0:0,0:0:0:0:
394,43,75714,1,8,2:2:0:0:
468,123,76063,1,10,2:2:0:0:
407,214,76412,1,10,2:2:0:0:
315,152,76761,2,0,L|256:169,1,55.0000016784668,10|8,2:2|3:0,0:0:0:0:
210,187,77110,6,0,P|148:170|84:153,1,110.000003356934,4|10,1:0|0:0,0:0:0:0:
54,183,77633,1,2,3:2:0:0:
5,283,77982,1,2,3:2:0:0:
5,283,78156,2,0,P|12:309|20:335,1,55.0000016784668,10|0,2:2|0:0,0:0:0:0:
64,369,78505,2,0,P|120:365|173:335,1,110.000003356934,2|10,3:2|2:2,0:0:0:0:
186,288,79029,2,0,P|202:224|212:161,1,110.000003356934,2|2,3:2|2:2,0:0:0:0:
183,131,79552,1,8,2:2:0:0:
248,42,79901,5,2,3:2:0:0:
350,81,80249,1,10,2:2:0:0:
332,189,80598,2,0,L|347:248,1,55.0000016784668,2|2,3:2|3:2,0:0:0:0:
326,296,80947,1,10,2:2:0:0:
326,296,81122,2,0,P|384:313|445:336,1,110.000003356934,2|0,3:2|3:2,0:0:0:0:
474,294,81645,1,10,2:2:0:0:
495,186,81993,2,0,L|476:119,1,55.0000016784668,2|2,2:2|3:2,0:0:0:0:
486,78,82342,1,10,2:2:0:0:
393,19,82691,5,14,2:2:0:0:
325,105,83040,1,10,2:2:0:0:
396,188,83389,1,10,2:2:0:0:
316,264,83738,2,0,L|329:323,1,55.0000016784668,10|0,2:2|3:0,0:0:0:0:
293,360,84086,5,10,2:2:0:0:
184,340,84435,1,10,2:2:0:0:
133,242,84784,1,10,2:2:0:0:
207,161,85133,2,0,L|192:95,1,55.0000016784668,10|8,2:2|3:0,0:0:0:0:
157,66,85482,6,0,P|99:50|40:31,1,99.9999999999999,4|8,1:0|2:0,0:0:0:0:
18,63,86005,2,0,P|5:120|41:163,1,99.9999999999999,2|2,3:2|3:2,0:0:0:0:
72,168,86528,1,10,0:0:0:0:
148,232,86877,2,0,P|201:209|258:202,1,99.9999999999999,0|8,3:0|2:0,0:0:0:0:
332,245,87575,1,8,2:0:0:0:
410,182,87924,2,0,L|425:119,1,50,8|8,0:0|0:0,0:0:0:0:
400,88,88272,6,0,P|349:58|306:25,1,99.9999999999999,4|2,1:0|0:0,0:0:0:0:
225,76,88970,2,0,P|180:98|125:120,1,99.9999999999999,10|0,2:2|0:0,0:0:0:0:
87,123,89493,1,10,2:2:0:0:
87,123,89668,1,2,3:2:0:0:
25,201,90017,1,0,0:0:0:0:
98,268,90366,2,0,L|152:282,1,50,8|0,2:2|3:2,0:0:0:0:
193,263,90714,2,0,L|247:277,1,50,0|0,3:2|3:2,0:0:0:0:
283,302,91063,1,4,1:0:0:0:
417,38,92284,6,0,P|429:97|438:140,1,99.9999999999999,4|2,1:0|3:2,0:0:0:0:
479,163,92807,1,10,2:0:0:0:
409,234,93156,2,0,L|353:257,1,50,2|0,3:2|3:2,0:0:0:0:
328,289,93505,1,8,0:0:0:0:
328,289,93679,2,0,P|259:255|181:259,1,150,2|8,0:0|0:0,0:0:0:0:
104,200,94552,2,0,L|92:130,1,50,2|8,0:0|0:0,0:0:0:0:
62,113,94900,1,10,2:2:0:0:
147,60,95249,6,0,P|204:57|258:86,1,99.9999999999999,4|10,1:2|0:0,0:0:0:0:
253,122,95772,2,0,P|297:108|359:87,1,99.9999999999999,2|0,0:0|3:0,0:0:0:0:
392,114,96296,1,10,0:0:0:0:
485,149,96645,2,0,P|509:96|495:40,1,99.9999999999999,0|10,3:0|0:0,0:0:0:0:
461,38,97168,1,0,3:0:0:0:
461,38,97342,2,0,L|405:19,1,50,2|0,0:0|3:0,0:0:0:0:
364,32,97691,1,10,0:0:0:0:
297,106,98040,6,0,P|309:154|323:220,1,99.9999999999999,2|10,3:2|0:0,0:0:0:0:
326,254,98563,2,0,P|325:311|289:349,1,99.9999999999999,2|0,0:0|3:0,0:0:0:0:
249,353,99087,1,10,0:0:0:0:
164,300,99435,2,0,P|120:319|51:335,1,99.9999999999999,0|10,3:0|0:0,0:0:0:0:
20,319,99959,2,0,P|-4:265|16:220,1,99.9999999999999,0|8,3:0|2:0,0:0:0:0:
46,195,100482,2,0,L|30:137,1,50,10|8,0:0|2:0,0:0:0:0:
53,101,100831,5,6,1:0:0:0:
147,63,101179,1,10,0:0:0:0:
147,63,101354,2,0,P|199:82|251:95,1,99.9999999999999,2|0,0:0|3:0,0:0:0:0:
278,127,101877,1,10,0:0:0:0:
374,101,102226,2,0,P|405:145|394:195,1,99.9999999999999,2|10,3:2|0:0,0:0:0:0:
355,209,102749,1,2,3:2:0:0:
355,209,102924,2,0,L|343:267,1,50,2|0,0:0|3:0,0:0:0:0:
378,295,103273,1,10,0:2:0:0:
299,356,103621,6,0,P|250:343|185:328,1,99.9999999999999,2|10,3:2|0:0,0:0:0:0:
170,292,104145,2,0,P|154:234|145:184,1,99.9999999999999,2|0,0:0|3:0,0:0:0:0:
183,160,104668,2,0,L|196:108,1,50,10|0,0:0|0:0,0:0:0:0:
236,82,105017,1,2,3:2:0:0:
303,8,105366,1,10,0:0:0:0:
388,64,105714,1,10,0:0:0:0:
323,140,106063,2,0,L|333:205,1,50,8|8,0:0|0:0,0:0:0:0:
341,238,106412,1,6,1:0:0:0:
256,192,106586,12,0,110598,0:0:0:0:
