osu file format v14

[General]
AudioFilename: audio.mp3
AudioLeadIn: 0
PreviewTime: 64726
Countdown: 0
SampleSet: Soft
StackLeniency: 0.7
Mode: 0
LetterboxInBreaks: 0
WidescreenStoryboard: 0

[Editor]
DistanceSpacing: 1
BeatDivisor: 4
GridSize: 4
TimelineZoom: 1.9

[Metadata]
Title:Shunkan Spline
TitleUnicode:瞬間スプライン
Artist:Kicco
ArtistUnicode:Kicco
Creator:-karUpA-
Version:Insane
Source:タユタマ -Kiss on my Deity-
Tags:FreezingAnimenz tayutama jpop pop japanese video game eroge vn visual novel ギャル galgame Lump of Sugar op opening short game version
BeatmapID:4427787
BeatmapSetID:2109476

[Difficulty]
HPDrainRate:5
CircleSize:4
OverallDifficulty:8
ApproachRate:9
SliderMultiplier:1.8
SliderTickRate:1

[Events]
//Background and Video events
0,0,"003_waifu2x_noise0_scale2x (1).png",0,0
//Break Periods
//Storyboard Layer 0 (Background)
//Storyboard Layer 1 (Fail)
//Storyboard Layer 2 (Pass)
//Storyboard Layer 3 (Foreground)
//Storyboard Layer 4 (Overlay)
//Storyboard Sound Samples

[TimingPoints]
366,348.837209302326,4,2,1,50,1,0
366,-133.333333333333,4,2,1,50,0,0
10133,-133.333333333333,4,2,1,60,0,0
10831,-133.333333333333,4,2,1,70,0,0
11528,-100,4,2,1,80,0,0
22691,-200,4,2,1,80,0,0
23214,-200,4,2,1,60,0,0
25482,-133.333333333333,4,2,1,60,0,0
35598,-100,4,2,1,60,0,0
36645,-100,4,2,1,70,0,0
51993,-100,4,2,1,70,0,0
65947,-100,4,2,1,85,0,1
88272,-133.333333333333,4,2,1,85,0,1
90366,-100,4,2,1,85,0,1
91063,-100,4,2,1,85,0,0
92284,-100,4,2,1,80,0,0
111993,-100,4,2,1,5,0,0

[Colours]
Combo1 : 255,128,255
Combo2 : 128,255,255
Combo3 : 128,128,255
Combo4 : 255,0,0

[HitObjects]
113,135,366,6,0,P|125:101|123:55,2,67.5000025749208,2|0|2,0:0|0:0|0:0,0:0:0:0:
41,196,889,2,0,P|38:232|43:264,1,67.5000025749208,2|0,0:0|0:0,0:0:0:0:
102,339,1238,1,2,0:0:0:0:
102,339,1412,2,0,P|136:307|223:323,1,135.000005149842,2|2,0:0|0:0,0:0:0:0:
322,384,1935,2,0,P|343:345|330:258,1,135.000005149842,2|2,0:0|0:0,0:0:0:0:
218,188,2459,5,2,0:0:0:0:
311,116,2633,1,2,0:0:0:0:
330,258,2807,1,2,0:0:0:0:
94,237,3156,6,0,P|70:180|105:100,1,135.000005149842,2|2,0:0|0:0,0:0:0:0:
204,215,3679,2,0,P|196:270|187:291,1,67.5000025749208,2|0,0:0|0:0,0:0:0:0:
130,337,4028,1,2,0:0:0:0:
259,337,4203,2,0,P|296:326|327:324,1,67.5000025749208,2|0,0:0|0:0,0:0:0:0:
408,360,4552,5,2,0:0:0:0:
493,272,4726,2,0,P|512:213|489:142,1,135.000005149842,2|2,0:0|0:0,0:0:0:0:
384,108,5249,5,2,0:0:0:0:
305,165,5424,1,2,0:0:0:0:
426,205,5598,1,2,0:0:0:0:
305,165,5772,5,2,0:0:0:0:
305,165,5860,1,2,0:0:0:0:
305,165,5947,2,0,P|260:137|179:154,1,135.000005149842,2|2,0:0|0:0,0:0:0:0:
88,101,6470,2,0,P|72:147|103:226,1,135.000005149842,2|2,0:0|0:0,0:0:0:0:
182,282,6993,2,0,P|178:325|167:351,1,67.5000025749208,2|0,0:0|0:0,0:0:0:0:
286,286,7342,5,2,0:0:0:0:
187,377,7517,2,0,P|135:339|61:357,1,135.000005149842,2|2,0:0|0:0,0:0:0:0:
18,277,8040,5,2,0:0:0:0:
89,211,8214,1,2,0:0:0:0:
36,134,8389,1,2,0:0:0:0:
202,36,8738,6,0,B|277:37|251:75|349:81,1,135.000005149842,2|2,0:0|0:0,0:0:0:0:
425,39,9261,2,0,P|421:84|407:126,1,67.5000025749208,2|0,0:0|0:0,0:0:0:0:
325,170,9610,1,2,0:0:0:0:
325,170,9784,2,0,P|329:215|343:257,1,67.5000025749208,2|0,0:0|0:0,0:0:0:0:
430,257,10133,5,2,1:2:0:0:
430,257,10307,1,2,1:2:0:0:
464,173,10482,1,0,1:2:0:0:
319,250,10656,1,2,1:2:0:0:
450,353,10831,1,10,0:0:0:0:
380,161,11005,5,10,0:0:0:0:
243,275,11179,1,10,0:0:0:0:
436,376,11354,1,8,0:0:0:0:
153,310,11528,6,0,P|172:239|146:129,1,180,6|8,1:2|0:0,0:0:0:0:
61,275,12052,2,0,P|66:328|78:363,1,90,2|0,0:0|1:2,0:0:0:0:
17,191,12400,1,2,1:2:0:0:
160,307,12575,2,0,P|236:293|301:377,1,180,10|2,0:0|1:2,0:0:0:0:
353,204,13098,5,2,0:0:0:0:
479,257,13272,1,8,0:0:0:0:
402,84,13447,1,2,1:2:0:0:
311,192,13621,2,0,P|376:181|418:178,1,90,2|2,0:0|1:2,0:0:0:0:
199,239,13970,2,0,P|188:174|202:132,1,90,10|0,0:0|0:0,0:0:0:0:
319,314,14319,6,0,P|258:272|146:308,1,180,2|8,1:2|0:0,0:0:0:0:
23,173,14842,2,0,L|39:353,1,180,2|2,1:2|1:2,0:0:0:0:
125,378,15278,1,0,1:2:0:0:
125,378,15366,2,0,P|172:364|226:359,1,90,10|0,0:0|0:0,0:0:0:0:
332,222,15714,5,2,1:2:0:0:
422,219,15889,1,2,0:0:0:0:
490,276,16063,1,8,0:0:0:0:
506,364,16238,1,2,0:0:0:0:
322,311,16412,6,0,P|329:263|331:212,1,90,2|0,1:2|1:2,0:0:0:0:
199,71,16760,2,0,P|192:119|190:170,1,90,10|0,0:0|0:0,0:0:0:0:
427,166,17110,6,0,P|381:110|258:122,1,180,2|10,1:2|0:0,0:0:0:0:
174,47,17633,1,2,0:0:0:0:
127,229,17807,2,0,P|169:252|222:248,1,90,0|2,1:2|1:2,0:0:0:0:
112,340,18156,1,10,0:0:0:0:
36,173,18331,5,0,1:2:0:0:
36,173,18418,1,0,1:2:0:0:
36,173,18505,2,0,P|28:239|38:272,2,90,2|2|8,1:2|0:0|0:0,0:0:0:0:
174,47,19028,1,2,0:0:0:0:
210,251,19203,1,2,1:2:0:0:
153,142,19377,5,2,1:2:0:0:
319,233,19552,1,10,0:0:0:0:
189,357,19726,1,0,1:2:0:0:
189,357,19813,1,0,1:2:0:0:
189,357,19900,2,0,P|184:287|196:166,1,180,2|10,1:2|0:0,0:0:0:0:
309,252,20424,1,2,1:2:0:0:
390,122,20598,2,0,P|336:134|293:136,1,90,0|2,0:0|1:2,0:0:0:0:
363,318,20947,2,0,P|352:274|349:230,1,90,10|0,0:0|0:0,0:0:0:0:
163,99,21296,5,2,1:2:0:0:
301,136,21470,1,0,1:2:0:0:
125,213,21645,5,8,0:0:0:0:
313,223,21819,1,2,0:0:0:0:
96,322,21993,5,8,0:0:0:0:
357,302,22168,1,0,1:2:0:0:
163,99,22342,5,10,0:0:0:0:
163,99,22429,1,8,0:0:0:0:
163,99,22517,1,8,3:0:0:0:
225,227,22691,2,0,P|281:202|325:212,1,90,6|0,1:2|0:0,0:0:0:0:
405,177,23214,2,0,P|410:138|409:80,2,90,2|2|2,0:0|0:0|0:0,0:0:0:0:
225,227,24435,5,2,0:0:0:0:
225,227,24784,1,2,0:0:0:0:
168,135,24959,1,0,1:2:0:0:
72,307,25133,1,8,0:0:0:0:
254,207,25482,6,0,P|328:212|390:253,1,135.000005149842,4|10,1:2|0:0,0:0:0:0:
455,171,26005,2,0,P|470:126|468:92,1,67.5000025749208,10|6,3:0|3:0,0:0:0:0:
390,32,26354,1,8,3:0:0:0:
302,112,26528,2,0,P|340:121|373:123,1,67.5000025749208,6|0,3:0|0:0,0:0:0:0:
212,162,26877,2,0,P|203:129|200:95,2,67.5000025749208,2|2|6,1:2|0:0|3:0,0:0:0:0:
47,227,27400,5,10,3:0:0:0:
55,136,27575,1,4,3:0:0:0:
131,182,27749,1,4,3:0:0:0:
106,332,27924,6,0,P|66:328|38:314,1,67.5000025749208,4|2,3:0|0:0,0:0:0:0:
189,268,28272,2,0,P|243:270|312:335,1,135.000005149842,2|10,1:2|0:0,0:0:0:0:
400,284,28796,2,0,P|406:251|416:213,1,67.5000025749208,10|4,3:0|3:0,0:0:0:0:
327,138,29145,2,0,P|320:171|312:203,1,67.5000025749208,10|4,3:0|3:0,0:0:0:0:
221,136,29493,1,2,0:0:0:0:
328,31,29668,6,0,P|366:34|423:125,1,135.000005149842,2|4,1:2|3:0,0:0:0:0:
493,174,30191,1,10,3:0:0:0:
346,115,30366,1,6,3:0:0:0:
414,225,30540,1,4,3:0:0:0:
347,297,30714,1,4,3:0:0:0:
401,365,30889,5,8,0:0:0:0:
401,365,30976,1,8,0:0:0:0:
401,365,31063,2,0,P|357:336|257:358,1,135.000005149842,4|10,1:2|0:0,0:0:0:0:
186,293,31586,2,0,P|175:332|169:363,2,67.5000025749208,10|6|8,3:0|3:0|3:0,0:0:0:0:
154,190,32110,2,0,P|118:209|92:227,1,67.5000025749208,6|0,3:0|0:0,0:0:0:0:
194,90,32459,5,2,1:2:0:0:
269,144,32633,1,2,0:0:0:0:
154,190,32807,1,6,3:0:0:0:
294,247,32982,2,0,P|288:288|272:314,2,67.5000025749208,10|4|4,3:0|3:0|3:0,0:0:0:0:
204,371,33505,2,0,P|286:347|341:377,1,135.000005149842,4|2,3:0|1:2,0:0:0:0:
436,383,34028,5,2,0:0:0:0:
436,383,34203,2,0,P|447:339|446:312,1,67.5000025749208,10|8,0:0|3:0,0:0:0:0:
359,168,34552,5,6,3:0:0:0:
442,148,34726,1,8,3:0:0:0:
461,227,34900,1,4,3:0:0:0:
377,247,35074,1,2,0:0:0:0:
442,148,35249,6,0,P|454:103|448:43,1,101.250003862381,0|0,1:2|0:0,0:0:0:0:
363,86,35598,6,0,P|288:73|218:156,1,180,6|10,3:0|0:0,0:0:0:0:
313,349,36121,1,10,0:0:0:0:
313,349,36470,5,10,0:0:0:0:
313,349,36557,1,8,0:0:0:0:
313,349,36645,2,0,P|276:301|145:319,1,180,6|8,1:2|0:0,0:0:0:0:
0,260,37168,1,2,0:0:0:0:
100,202,37342,2,0,P|114:148|112:110,1,90,2|0,1:2|1:2,0:0:0:0:
229,45,37691,5,8,0:0:0:0:
112,114,37866,1,2,0:0:0:0:
286,210,38040,2,0,P|337:164|452:187,2,180,2|10|2,1:2|0:0|1:2,0:0:0:0:
207,134,38912,5,2,1:2:0:0:
171,275,39086,1,8,0:0:0:0:
376,241,39261,1,2,0:0:0:0:
286,210,39435,2,0,P|283:262|278:308,1,90,2|0,1:2|0:0,0:0:0:0:
144,370,39784,2,0,P|139:325|137:280,1,90,8|2,0:0|0:0,0:0:0:0:
45,176,40133,5,2,1:2:0:0:
77,85,40307,1,0,1:2:0:0:
156,197,40482,1,8,0:0:0:0:
0,262,40656,1,2,0:0:0:0:
156,197,40831,6,0,P|206:180|305:260,1,180,2|10,1:2|0:0,0:0:0:0:
415,176,41354,2,0,P|427:129|430:86,1,90,2|0,1:2|0:0,0:0:0:0:
289,6,41703,2,0,P|292:50|304:94,1,90,2|8,1:2|0:0,0:0:0:0:
302,247,42052,5,2,1:2:0:0:
302,247,42139,1,0,1:2:0:0:
302,247,42226,2,0,B|400:245|372:288|478:287,2,180,2|8|2,1:2|0:0|1:2,0:0:0:0:
350,356,43098,1,0,1:2:0:0:
177,293,43272,2,0,P|168:248|176:197,1,90,8|2,0:0|0:0,0:0:0:0:
323,107,43621,6,0,P|274:97|231:83,1,90,2|0,1:2|0:0,0:0:0:0:
345,19,43970,2,0,P|335:68|321:111,1,90,10|0,0:0|0:0,0:0:0:0:
272,273,44319,2,0,P|262:224|248:181,1,90,2|0,1:2|0:0,0:0:0:0:
126,74,44668,2,0,P|84:67|20:143,1,135,10|0,0:0|0:0,0:0:0:0:
95,173,45017,6,0,P|103:233|41:340,1,180,2|8,1:2|0:0,0:0:0:0:
0,228,45540,1,0,0:0:0:0:
150,363,45714,2,0,P|200:353|249:332,1,90,2|2,1:2|0:0,0:0:0:0:
362,256,46063,2,0,P|412:266|461:287,1,90,10|2,0:0|0:0,0:0:0:0:
294,154,46412,5,8,0:0:0:0:
448,280,46586,1,0,1:2:0:0:
448,280,46935,1,0,1:2:0:0:
448,280,47284,1,10,3:0:0:0:
490,182,47459,1,10,3:0:0:0:
490,182,47546,1,4,3:0:0:0:
490,182,47633,1,6,3:0:0:0:
326,227,47807,6,0,P|272:242|181:163,1,180,6|8,1:2|0:0,0:0:0:0:
113,245,48331,1,2,0:0:0:0:
21,137,48505,2,0,P|9:190|6:227,1,90,2|0,1:2|1:2,0:0:0:0:
123,334,48854,2,0,P|135:281|138:244,1,90,8|2,0:0|0:0,0:0:0:0:
276,144,49203,1,2,1:2:0:0:
276,144,49552,6,0,P|339:133|386:109,1,90,10|0,0:0|0:0,0:0:0:0:
315,260,49900,2,0,P|297:301|289:346,1,90,2|0,1:2|1:2,0:0:0:0:
137,245,50249,2,0,P|150:202|154:157,1,90,10|0,0:0|0:0,0:0:0:0:
276,53,50598,6,0,B|220:39|220:39|174:83|98:64,1,180,2|8,1:2|0:0,0:0:0:0:
29,15,51121,1,2,0:0:0:0:
154,157,51296,2,0,P|150:204|131:253,2,90,2|0|8,1:2|1:2|0:0,0:0:0:0:
16,184,51819,1,2,0:0:0:0:
142,337,51993,6,0,P|198:328|239:358,1,60,6|0,3:0|0:0,0:0:0:0:
180,144,52226,2,0,P|145:189|95:197,1,60,6|0,3:0|0:0,0:0:0:0:
326,250,52459,2,0,P|280:215|272:165,1,60,6|0,3:0|0:0,0:0:0:0:
197,338,52691,6,0,P|167:335|139:345,1,60,6|0,3:0|0:0,0:0:0:0:
139,186,52924,2,0,P|161:166|174:139,1,60,6|0,3:0|0:0,0:0:0:0:
288,212,53157,2,0,P|307:234|334:247,1,60,6|0,3:0|0:0,0:0:0:0:
502,115,53389,6,0,P|441:91|361:159,1,180,6|8,1:2|0:0,0:0:0:0:
296,42,53912,1,2,0:0:0:0:
174,139,54086,2,0,P|174:188|190:242,1,90,0|0,1:2|1:2,0:0:0:0:
324,335,54435,2,0,P|334:291|333:246,1,90,8|0,0:0|0:0,0:0:0:0:
185,348,54784,6,0,P|129:366|64:264,1,180,2|8,1:2|0:0,0:0:0:0:
12,166,55307,1,2,0:0:0:0:
102,83,55482,1,0,1:2:0:0:
138,281,55656,1,0,1:2:0:0:
266,194,55831,2,0,P|201:182|173:178,1,90,8|0,0:0|0:0,0:0:0:0:
392,157,56179,6,0,P|382:227|373:259,1,90,14|0,0:0|0:0,0:0:0:0:
177,178,56528,2,0,P|181:133|191:89,1,90,10|0,0:0|1:2,0:0:0:0:
311,43,56877,1,10,0:0:0:0:
377,245,57052,1,2,1:2:0:0:
144,187,57226,1,10,0:0:0:0:
276,128,57400,1,2,1:2:0:0:
304,330,57575,5,8,0:0:0:0:
67,275,57749,1,2,1:2:0:0:
304,330,57924,1,8,0:0:0:0:
67,275,58098,1,2,1:2:0:0:
174,196,58272,6,0,P|175:248|181:292,1,90,8|4,0:0|3:0,0:0:0:0:
323,182,58621,1,8,0:0:0:0:
323,182,58709,1,8,0:0:0:0:
323,182,58796,1,6,3:0:0:0:
291,364,58970,2,0,P|242:320|126:335,1,180,6|10,1:2|0:0,0:0:0:0:
134,329,59493,1,2,0:0:0:0:
1,179,59668,5,2,1:2:0:0:
89,159,59842,1,2,1:2:0:0:
139,234,60017,1,10,0:0:0:0:
51,245,60191,1,2,0:0:0:0:
220,122,60366,5,2,1:2:0:0:
220,122,60714,2,0,P|232:74|232:24,1,90,8|2,0:0|0:0,0:0:0:0:
139,234,61063,2,0,B|138:275|147:294|150:323,1,90,2|2,1:2|1:2,0:0:0:0:
262,249,61412,2,0,L|324:237,1,45,10|0,0:0|1:2,0:0:0:0:
390,312,61586,2,0,L|452:324,1,45,2|0,1:2|1:2,0:0:0:0:
501,185,61761,6,0,P|429:197|402:206,1,90,10|0,0:0|1:2,0:0:0:0:
220,153,62110,2,0,P|225:108|237:64,1,90,8|0,0:0|1:2,0:0:0:0:
379,289,62459,2,0,P|373:333|361:377,1,90,8|0,0:0|1:2,0:0:0:0:
131,275,62807,2,0,P|203:263|230:254,1,90,10|0,0:0|1:2,0:0:0:0:
321,149,63156,5,6,1:2:0:0:
245,98,63331,1,2,1:2:0:0:
156,113,63505,1,0,1:2:0:0:
106,187,63679,1,2,1:2:0:0:
353,261,63854,5,8,0:0:0:0:
216,188,64028,1,10,0:0:0:0:
432,177,64203,1,10,0:0:0:0:
144,274,64377,1,10,0:0:0:0:
432,177,64552,1,4,1:2:0:0:
205,216,65772,5,8,0:0:0:0:
205,216,65860,1,8,0:0:0:0:
205,216,65947,1,6,1:2:0:0:
132,50,66121,1,2,0:0:0:0:
266,124,66296,1,10,0:0:0:0:
121,269,66470,2,0,P|156:308|275:286,1,180,2|2,1:2|1:2,0:0:0:0:
438,181,66993,2,0,P|433:232|426:270,1,90,10|0,0:0|0:0,0:0:0:0:
203,233,67342,5,2,1:2:0:0:
140,155,67517,1,2,0:0:0:0:
166,59,67691,1,10,0:0:0:0:
257,20,67866,2,0,B|327:27|313:58|422:57,1,135,2|0,1:2|0:0,0:0:0:0:
456,12,68214,1,2,1:2:0:0:
323,221,68389,2,0,P|310:178|310:131,1,90,8|0,0:0|0:0,0:0:0:0:
134,36,68738,6,0,P|75:36|45:161,1,180,2|10,1:2|0:0,0:0:0:0:
29,134,69435,1,2,1:2:0:0:
210,214,69610,1,2,1:2:0:0:
119,126,69784,1,10,0:0:0:0:
27,314,69959,1,2,1:2:0:0:
131,258,70133,2,0,P|191:249|276:332,1,180,2|8,0:0|0:0,0:0:0:0:
384,251,70656,5,0,1:2:0:0:
384,251,70743,1,0,1:2:0:0:
384,251,70831,1,2,1:2:0:0:
292,138,71005,1,0,1:2:0:0:
179,329,71179,1,10,0:0:0:0:
415,369,71354,1,0,0:0:0:0:
274,323,71528,6,0,P|309:246|278:144,1,180,2|8,1:2|0:0,0:0:0:0:
163,105,72052,1,0,0:0:0:0:
95,257,72226,2,0,P|153:240|190:236,1,90,2|0,1:2|1:2,0:0:0:0:
374,135,72575,2,0,P|316:152|279:156,1,90,10|0,0:0|0:0,0:0:0:0:
133,74,72924,6,0,P|142:128|146:166,1,90,2|0,1:2|0:0,0:0:0:0:
194,351,73272,2,0,B|162:344|141:331|141:331|74:374|13:329,1,180,10|2,0:0|1:2,0:0:0:0:
78,217,73796,5,2,1:2:0:0:
260,260,73970,1,8,0:0:0:0:
199,92,74145,1,2,0:0:0:0:
179,338,74319,2,0,P|246:297|346:316,1,180,2|8,1:2|0:0,0:0:0:0:
441,157,74842,5,2,1:2:0:0:
441,157,74929,1,0,1:2:0:0:
441,157,75017,1,0,1:2:0:0:
254,257,75191,1,0,1:2:0:0:
212,81,75366,1,8,0:0:0:0:
336,168,75540,1,0,0:0:0:0:
153,283,75714,5,8,0:0:0:0:
417,240,75889,1,0,1:2:0:0:
206,163,76063,1,10,0:0:0:0:
347,25,76238,2,0,L|334:86,1,45,2|8,1:2|0:0,0:0:0:0:
277,261,76412,5,10,0:0:0:0:
309,291,76499,1,4,3:0:0:0:
353,298,76586,1,6,3:0:0:0:
394,279,76674,1,4,3:0:0:0:
417,240,76761,2,0,L|407:180,1,45,10|4,0:0|3:0,0:0:0:0:
262,43,76935,2,0,L|254:87,1,45,4|4,3:0|3:0,0:0:0:0:
171,245,77110,5,6,1:2:0:0:
98,122,77284,1,2,0:0:0:0:
30,302,77459,1,10,0:0:0:0:
264,295,77633,2,0,B|337:312|337:312|364:345|364:345|441:361,1,180,2|2,1:2|1:2,0:0:0:0:
160,331,78156,2,0,P|163:258|182:231,1,90,10|0,0:0|0:0,0:0:0:0:
226,93,78505,5,2,1:2:0:0:
102,167,78679,1,2,0:0:0:0:
287,227,78854,1,10,0:0:0:0:
62,257,79028,2,0,P|50:305|58:351,1,90,2|0,1:2|0:0,0:0:0:0:
170,244,79377,1,2,1:2:0:0:
304,377,79552,2,0,P|239:364|210:362,1,90,8|2,0:0|0:0,0:0:0:0:
428,324,79900,6,0,P|464:255|420:174,1,135,2|0,1:2|0:0,0:0:0:0:
424,184,80249,2,0,P|376:197|323:202,1,90,10|0,0:0|0:0,0:0:0:0:
353,20,80598,2,0,P|358:69|370:112,1,90,2|0,1:2|1:2,0:0:0:0:
226,262,80947,2,0,P|221:213|209:170,1,90,10|2,0:0|1:2,0:0:0:0:
62,56,81296,5,2,0:0:0:0:
210,173,81470,1,0,1:2:0:0:
0,260,81645,1,10,0:0:0:0:
122,156,81819,1,0,0:0:0:0:
159,370,81993,1,2,0:0:0:0:
76,327,82168,1,2,1:2:0:0:
149,280,82342,1,8,0:0:0:0:
324,376,82517,5,0,1:2:0:0:
324,376,82604,1,0,1:2:0:0:
324,376,82691,2,0,P|378:364|423:359,1,90,10|0,0:0|1:2,0:0:0:0:
151,180,83040,2,0,P|97:192|52:197,1,90,8|2,0:0|1:2,0:0:0:0:
220,261,83389,1,10,0:0:0:0:
295,53,83563,1,0,1:2:0:0:
413,181,83738,1,8,0:0:0:0:
512,85,83912,1,2,1:2:0:0:
383,99,84086,5,10,0:0:0:0:
512,214,84261,1,0,1:2:0:0:
263,269,84435,1,8,0:0:0:0:
413,181,84610,1,2,1:2:0:0:
251,93,84784,5,10,0:0:0:0:
357,239,84959,1,2,1:2:0:0:
153,274,85133,1,10,0:0:0:0:
402,345,85307,2,0,P|409:307|411:289,1,45,10|8,0:0|0:0,0:0:0:0:
326,152,85482,6,0,P|276:127|163:188,1,180,6|8,1:2|0:0,0:0:0:0:
389,270,86005,1,2,1:2:0:0:
254,209,86179,2,0,P|260:261|271:300,1,90,2|0,0:0|1:2,0:0:0:0:
68,280,86528,2,0,P|121:273|161:261,1,90,8|0,0:0|0:0,0:0:0:0:
80,75,86877,5,0,1:2:0:0:
12,153,87052,1,0,1:2:0:0:
254,209,87226,1,8,0:0:0:0:
161,19,87400,1,0,0:0:0:0:
315,109,87575,1,4,1:2:0:0:
155,262,87749,2,0,L|170:325,1,45,10|8,0:0|0:0,0:0:0:0:
263,372,87924,2,0,L|331:350,1,45,8|8,0:0|0:0,0:0:0:0:
372,256,88098,2,0,L|440:278,1,45,10|8,0:0|0:0,0:0:0:0:
505,216,88272,6,0,P|496:149|483:57,1,135.000005149842,6|0,1:2|0:0,0:0:0:0:
403,33,88796,1,2,1:2:0:0:
294,137,88970,5,10,0:0:0:0:
221,81,89145,1,0,1:2:0:0:
303,46,89319,1,0,0:0:0:0:
363,230,89493,5,10,0:0:0:0:
363,230,89581,1,8,0:0:0:0:
363,230,89668,1,6,1:2:0:0:
208,171,89842,1,8,0:0:0:0:
132,237,90017,5,0,0:0:0:0:
27,288,90191,1,0,1:2:0:0:
209,368,90366,6,0,P|216:338|221:315,1,45,8|8,0:0|3:0,0:0:0:0:
251,160,90540,2,0,P|229:164|207:170,1,45,8|8,3:0|3:0,0:0:0:0:
91,122,90714,2,0,L|98:77,1,45,4|4,3:0|3:0,0:0:0:0:
222,0,90889,2,0,L|229:44,1,45,4|4,3:0|3:0,0:0:0:0:
132,237,91063,5,8,0:0:0:0:
125,206,92284,6,0,P|173:257|278:229,1,180,6|2,1:2|1:2,0:0:0:0:
405,82,92807,2,0,B|382:116|382:116|323:56|234:86,1,180,10|0,0:0|1:2,0:0:0:0:
397,207,93331,1,0,1:2:0:0:
272,235,93505,2,0,P|269:292|283:335,1,90,8|0,0:0|0:0,0:0:0:0:
471,256,93854,2,0,P|411:250|371:241,1,90,2|0,1:2|0:0,0:0:0:0:
253,147,94203,2,0,P|208:155|163:159,1,90,8|0,0:0|0:0,0:0:0:0:
51,244,94552,5,0,1:2:0:0:
291,322,94726,1,14,0:0:0:0:
51,244,94900,1,10,0:0:0:0:
291,322,95074,1,6,3:0:0:0:
163,159,95249,6,0,P|136:217|168:333,1,180,6|8,1:2|0:0,0:0:0:0:
316,345,95772,2,0,L|325:255,1,90,2|0,0:0|1:2,0:0:0:0:
282,139,96121,1,2,1:2:0:0:
462,212,96296,2,0,L|471:302,1,90,10|0,0:0|0:0,0:0:0:0:
366,166,96645,5,2,1:2:0:0:
399,61,96819,1,2,0:0:0:0:
498,237,96993,1,8,0:0:0:0:
281,220,97168,1,2,1:2:0:0:
376,143,97342,5,2,0:0:0:0:
242,76,97517,1,2,1:2:0:0:
216,292,97691,2,0,P|272:325|318:315,1,90,14|0,0:0|0:0,0:0:0:0:
173,165,98040,6,0,P|107:147|13:221,1,180,6|8,1:2|0:0,0:0:0:0:
101,344,98563,2,0,P|110:291|112:254,1,90,2|0,1:2|0:0,0:0:0:0:
11,317,98912,1,2,1:2:0:0:
185,189,99086,2,0,P|237:207|302:212,1,90,10|0,0:0|0:0,0:0:0:0:
363,136,99435,5,6,1:2:0:0:
326,35,99610,1,2,0:0:0:0:
466,131,99784,1,8,0:0:0:0:
341,266,99959,2,0,P|332:311|341:361,2,90,6|2|8,1:2|0:0|0:0,0:0:0:0:
378,239,100395,1,8,0:0:0:0:
400,200,100482,1,10,0:0:0:0:
396,155,100569,1,8,0:0:0:0:
371,117,100656,1,8,0:0:0:0:
326,109,100743,1,8,0:0:0:0:
284,127,100831,6,0,P|212:119|87:103,1,180,6|8,1:2|0:0,0:0:0:0:
26,208,101354,1,2,0:0:0:0:
166,308,101528,2,0,P|175:252|176:212,1,90,0|2,1:2|1:2,0:0:0:0:
13,188,101877,2,0,P|4:244|3:284,1,90,10|0,0:0|0:0,0:0:0:0:
215,384,102226,6,0,P|302:329|397:368,1,180,2|8,1:2|0:0,0:0:0:0:
479,170,102749,2,0,P|392:225|297:186,1,180,2|2,0:0|1:2,0:0:0:0:
121,140,103272,2,0,P|173:124|222:123,1,90,14|0,0:0|0:0,0:0:0:0:
338,28,103621,1,6,1:2:0:0:
338,28,103970,5,8,0:0:0:0:
208,122,104145,2,0,P|211:185|219:224,1,90,2|0,1:2|0:0,0:0:0:0:
327,133,104493,1,2,1:2:0:0:
269,329,104668,2,0,P|197:317|169:307,1,90,10|0,0:0|0:0,0:0:0:0:
32,193,105017,5,10,0:0:0:0:
75,332,105191,1,0,1:2:0:0:
173,149,105366,5,8,0:0:0:0:
177,340,105540,1,2,1:2:0:0:
315,128,105714,5,8,0:0:0:0:
278,360,105889,1,0,1:2:0:0:
32,193,106063,5,10,0:0:0:0:
32,193,106150,1,8,0:0:0:0:
32,193,106238,1,8,3:0:0:0:
188,248,106412,1,6,1:2:0:0:
256,192,106499,12,0,111993,0:0:0:0:
