osu file format v14

[General]
AudioFilename: audio.mp3
AudioLeadIn: 0
PreviewTime: 74283
Countdown: 0
SampleSet: Normal
StackLeniency: 0.7
Mode: 1
LetterboxInBreaks: 0
WidescreenStoryboard: 0

[Editor]
Bookmarks: 11983,31183,50383,107983,117583
DistanceSpacing: 0.7
BeatDivisor: 3
GridSize: 32
TimelineZoom: 1.2

[Metadata]
Title:Shinryoku no Cinderella
TitleUnicode:新緑のシンデレラ
Artist:Kicco
ArtistUnicode:Kicco
Creator:[R]
Version:Muzukashii
Source:若葉色のカルテット
Tags:ron Wakaba-iro no Quartet Lump of Sugar eroge visual novel ending ed kemonomimi video game japanese 水野大輔 daisuke mizuno 住田リョータ sumita ryota
BeatmapID:2163950
BeatmapSetID:1030360

[Difficulty]
HPDrainRate:6
CircleSize:5
OverallDifficulty:5
ApproachRate:5
SliderMultiplier:1.4
SliderTickRate:1

[Events]
//Background and Video events
0,0,"BG3.jpg",0,70
//Break Periods
//Storyboard Layer 0 (Background)
//Storyboard Layer 1 (Fail)
//Storyboard Layer 2 (Pass)
//Storyboard Layer 3 (Foreground)
//Storyboard Layer 4 (Overlay)
//Storyboard Sound Samples

[TimingPoints]
1183,300,4,1,0,70,1,0
1183,-100,4,1,0,70,0,0
2383,300,4,1,0,70,1,0
2383.1761066142,-100,4,1,0,70,0,0
11983,-100,4,1,0,80,0,0
30483,-100,4,1,0,70,0,0
31183,-100,4,1,0,80,0,0
74383,-100,4,1,0,90,0,1
94783,-100,4,1,0,90,0,0
94883,-100,4,1,0,80,0,0
119983,-100,4,1,0,70,0,0
122383,-100,4,1,0,60,0,0

[HitObjects]
224,160,2383,5,0,0:0:0:0:
224,160,2683,1,0,0:0:0:0:
224,160,2983,1,8,0:0:0:0:
224,160,3283,1,0,0:0:0:0:
224,160,3583,1,8,0:0:0:0:
224,160,4083,1,8,0:0:0:0:
224,160,4183,1,8,0:0:0:0:
224,160,4783,1,0,0:0:0:0:
224,160,5083,1,8,0:0:0:0:
224,160,5383,1,8,0:0:0:0:
224,160,5683,1,0,0:0:0:0:
224,160,5983,1,8,0:0:0:0:
224,160,6483,1,0,0:0:0:0:
224,160,6583,1,0,0:0:0:0:
224,160,7183,1,0,0:0:0:0:
224,160,7483,1,0,0:0:0:0:
224,160,7783,1,8,0:0:0:0:
224,160,8083,1,0,0:0:0:0:
224,160,8383,1,8,0:0:0:0:
224,160,8883,1,8,0:0:0:0:
224,160,8983,1,8,0:0:0:0:
224,160,9583,1,0,0:0:0:0:
224,160,9883,1,8,0:0:0:0:
224,160,10183,1,8,0:0:0:0:
224,160,10783,1,8,0:0:0:0:
224,160,10983,1,8,0:0:0:0:
224,160,11083,1,8,0:0:0:0:
224,160,11283,1,0,0:0:0:0:
224,160,11383,1,0,0:0:0:0:
224,160,11683,1,8,0:0:0:0:
224,160,11983,1,4,0:0:0:0:
224,160,12283,1,8,0:0:0:0:
224,160,12583,1,8,0:0:0:0:
224,160,13083,1,0,0:0:0:0:
224,160,13383,1,0,0:0:0:0:
224,160,13483,1,0,0:0:0:0:
224,160,13783,1,8,0:0:0:0:
224,160,14083,1,8,0:0:0:0:
224,160,14383,1,0,0:0:0:0:
224,160,14683,1,8,0:0:0:0:
224,160,14983,1,8,0:0:0:0:
224,160,15483,1,0,0:0:0:0:
224,160,15783,1,8,0:0:0:0:
224,160,15883,1,8,0:0:0:0:
224,160,16183,1,0,0:0:0:0:
224,160,16483,1,0,0:0:0:0:
224,160,16783,1,12,0:0:0:0:
224,160,17383,1,0,0:0:0:0:
224,160,17683,1,8,0:0:0:0:
224,160,17883,1,0,0:0:0:0:
224,160,17983,1,0,0:0:0:0:
224,160,18283,1,8,0:0:0:0:
224,160,18583,1,0,0:0:0:0:
224,160,18783,1,8,0:0:0:0:
224,160,18883,1,8,0:0:0:0:
224,160,19183,1,0,0:0:0:0:
224,160,19483,1,0,0:0:0:0:
224,160,19783,1,8,0:0:0:0:
224,160,20283,1,0,0:0:0:0:
224,160,20583,1,8,0:0:0:0:
224,160,20683,1,8,0:0:0:0:
224,160,20983,1,8,0:0:0:0:
224,160,21283,1,8,0:0:0:0:
224,160,21583,1,4,0:0:0:0:
224,160,21883,1,8,0:0:0:0:
224,160,22183,1,8,0:0:0:0:
224,160,22683,1,0,0:0:0:0:
224,160,22983,1,0,0:0:0:0:
224,160,23083,1,0,0:0:0:0:
224,160,23383,1,8,0:0:0:0:
224,160,23683,1,8,0:0:0:0:
224,160,23983,1,0,0:0:0:0:
224,160,24283,1,8,0:0:0:0:
224,160,24583,1,8,0:0:0:0:
224,160,25083,1,0,0:0:0:0:
224,160,25383,1,8,0:0:0:0:
224,160,25483,1,8,0:0:0:0:
224,160,25783,1,0,0:0:0:0:
224,160,26083,1,0,0:0:0:0:
224,160,26383,1,12,0:0:0:0:
224,160,26983,1,0,0:0:0:0:
224,160,27283,1,8,0:0:0:0:
224,160,27483,1,0,0:0:0:0:
224,160,27583,1,0,0:0:0:0:
224,160,27883,1,8,0:0:0:0:
224,160,28183,1,0,0:0:0:0:
224,160,28383,1,8,0:0:0:0:
224,160,28483,1,8,0:0:0:0:
224,160,28783,1,0,0:0:0:0:
224,160,29083,1,0,0:0:0:0:
224,160,29383,1,8,0:0:0:0:
224,160,29883,1,8,0:0:0:0:
224,160,30283,1,4,0:0:0:0:
224,160,30583,1,12,0:0:0:0:
224,160,31183,1,4,0:0:0:0:
224,160,31483,1,8,0:0:0:0:
224,160,31783,1,0,0:0:0:0:
224,160,32083,1,8,0:0:0:0:
224,160,32583,1,8,0:0:0:0:
224,160,32683,1,8,0:0:0:0:
224,160,32983,1,0,0:0:0:0:
224,160,33283,1,8,0:0:0:0:
224,160,33583,1,0,0:0:0:0:
224,160,34183,1,0,0:0:0:0:
224,160,34483,1,8,0:0:0:0:
224,160,34783,1,0,0:0:0:0:
224,160,34983,1,8,0:0:0:0:
224,160,35083,1,8,0:0:0:0:
224,160,35383,1,0,0:0:0:0:
224,160,35683,1,8,0:0:0:0:
224,160,35983,1,0,0:0:0:0:
224,160,36283,1,8,0:0:0:0:
224,160,36583,1,8,0:0:0:0:
224,160,36883,1,0,0:0:0:0:
224,160,37383,1,0,0:0:0:0:
224,160,37483,1,0,0:0:0:0:
224,160,37783,1,8,0:0:0:0:
224,160,38083,1,8,0:0:0:0:
224,160,38383,1,0,0:0:0:0:
224,160,38683,1,8,0:0:0:0:
224,160,39283,1,8,0:0:0:0:
224,160,39583,1,12,0:0:0:0:
224,160,40083,1,12,0:0:0:0:
224,160,40483,1,8,0:0:0:0:
224,160,40783,1,4,0:0:0:0:
224,160,41083,1,8,0:0:0:0:
224,160,41383,1,0,0:0:0:0:
224,160,41683,1,8,0:0:0:0:
224,160,42183,1,8,0:0:0:0:
224,160,42283,1,8,0:0:0:0:
224,160,42583,1,0,0:0:0:0:
224,160,42883,1,8,0:0:0:0:
224,160,43183,1,0,0:0:0:0:
224,160,43783,1,0,0:0:0:0:
224,160,44083,1,8,0:0:0:0:
224,160,44383,1,0,0:0:0:0:
224,160,44583,1,8,0:0:0:0:
224,160,44683,1,8,0:0:0:0:
224,160,44983,1,0,0:0:0:0:
224,160,45283,1,8,0:0:0:0:
224,160,45583,1,0,0:0:0:0:
224,160,46183,1,0,0:0:0:0:
224,160,46483,1,8,0:0:0:0:
224,160,46783,1,0,0:0:0:0:
224,160,46983,1,8,0:0:0:0:
224,160,47083,1,8,0:0:0:0:
224,160,47383,1,8,0:0:0:0:
224,160,47683,1,0,0:0:0:0:
224,160,47983,1,12,0:0:0:0:
224,160,48583,1,12,0:0:0:0:
224,160,49083,1,12,0:0:0:0:
224,160,49483,1,0,0:0:0:0:
224,160,49783,1,8,0:0:0:0:
224,160,50383,1,4,0:0:0:0:
224,160,50683,1,4,0:0:0:0:
224,160,50983,1,8,0:0:0:0:
224,160,51483,1,4,0:0:0:0:
224,160,52183,1,0,0:0:0:0:
224,160,52483,1,0,0:0:0:0:
224,160,52783,1,12,0:0:0:0:
224,160,53083,1,12,0:0:0:0:
224,160,53383,1,0,0:0:0:0:
224,160,53883,1,12,0:0:0:0:
224,160,54583,1,8,0:0:0:0:
224,160,54883,1,8,0:0:0:0:
224,160,55183,1,4,0:0:0:0:
224,160,55483,1,8,0:0:0:0:
224,160,55783,1,0,0:0:0:0:
224,160,56083,1,8,0:0:0:0:
224,160,56283,1,0,0:0:0:0:
224,160,56383,1,0,0:0:0:0:
224,160,56683,1,8,0:0:0:0:
224,160,56983,1,0,0:0:0:0:
224,160,57283,1,8,0:0:0:0:
224,160,57583,1,0,0:0:0:0:
224,160,58183,1,0,0:0:0:0:
224,160,58483,1,8,0:0:0:0:
224,160,58783,1,0,0:0:0:0:
224,160,59083,1,8,0:0:0:0:
224,160,59383,1,8,0:0:0:0:
224,160,59583,1,8,0:0:0:0:
224,160,59683,1,8,0:0:0:0:
224,160,59983,1,4,0:0:0:0:
224,160,60583,1,8,0:0:0:0:
224,160,60883,1,8,0:0:0:0:
224,160,61183,1,0,0:0:0:0:
224,160,61483,1,8,0:0:0:0:
224,160,61783,1,0,0:0:0:0:
224,160,62383,1,8,0:0:0:0:
224,160,62983,1,0,0:0:0:0:
224,160,63283,1,0,0:0:0:0:
224,160,63583,1,8,0:0:0:0:
224,160,63883,1,0,0:0:0:0:
224,160,64183,1,8,0:0:0:0:
224,160,64783,1,4,0:0:0:0:
224,160,65383,1,0,0:0:0:0:
224,160,65683,1,8,0:0:0:0:
224,160,65883,1,0,0:0:0:0:
224,160,65983,1,0,0:0:0:0:
224,160,66283,1,8,0:0:0:0:
224,160,66583,1,0,0:0:0:0:
224,160,66883,1,8,0:0:0:0:
224,160,67183,1,0,0:0:0:0:
224,160,67783,1,0,0:0:0:0:
224,160,68083,1,8,0:0:0:0:
224,160,68383,1,0,0:0:0:0:
224,160,68583,1,8,0:0:0:0:
224,160,68683,1,8,0:0:0:0:
224,160,68983,1,0,0:0:0:0:
224,160,69283,1,8,0:0:0:0:
224,160,69583,1,4,0:0:0:0:
224,160,70083,1,8,0:0:0:0:
224,160,70483,1,8,0:0:0:0:
224,160,70783,1,4,0:0:0:0:
224,160,71283,1,8,0:0:0:0:
224,160,71683,1,8,0:0:0:0:
224,160,71983,1,4,0:0:0:0:
224,160,72483,1,8,0:0:0:0:
224,160,72883,1,0,0:0:0:0:
224,160,73183,1,0,0:0:0:0:
224,160,73783,1,12,0:0:0:0:
224,160,74083,1,0,0:0:0:0:
224,160,74383,1,4,0:0:0:0:
224,160,74883,1,8,0:0:0:0:
224,160,75183,1,0,0:0:0:0:
224,160,75283,1,0,0:0:0:0:
224,160,75583,1,8,0:0:0:0:
224,160,75883,1,0,0:0:0:0:
224,160,76183,1,8,0:0:0:0:
224,160,76383,1,8,0:0:0:0:
224,160,76483,1,8,0:0:0:0:
224,160,76783,1,0,0:0:0:0:
224,160,77283,1,8,0:0:0:0:
224,160,77583,1,0,0:0:0:0:
224,160,77683,1,0,0:0:0:0:
224,160,77983,1,0,0:0:0:0:
224,160,78283,1,12,0:0:0:0:
224,160,78583,1,0,0:0:0:0:
224,160,78883,1,8,0:0:0:0:
224,160,79183,1,0,0:0:0:0:
224,160,79483,1,8,0:0:0:0:
224,160,79683,1,8,0:0:0:0:
224,160,79783,1,8,0:0:0:0:
224,160,80083,1,0,0:0:0:0:
224,160,80683,1,0,0:0:0:0:
224,160,80983,1,8,0:0:0:0:
224,160,81283,1,8,0:0:0:0:
224,160,81583,1,0,0:0:0:0:
224,160,81883,1,0,0:0:0:0:
224,160,82083,1,8,0:0:0:0:
224,160,82183,1,8,0:0:0:0:
224,160,82483,1,0,0:0:0:0:
224,160,82783,1,8,0:0:0:0:
224,160,83083,1,8,0:0:0:0:
224,160,83383,1,8,0:0:0:0:
224,160,83683,1,8,0:0:0:0:
224,160,83983,1,4,0:0:0:0:
224,160,84483,1,8,0:0:0:0:
224,160,84783,1,0,0:0:0:0:
224,160,84883,1,0,0:0:0:0:
224,160,85183,1,8,0:0:0:0:
224,160,85483,1,0,0:0:0:0:
224,160,85783,1,8,0:0:0:0:
224,160,85983,1,8,0:0:0:0:
224,160,86083,1,8,0:0:0:0:
224,160,86383,1,0,0:0:0:0:
224,160,86883,1,8,0:0:0:0:
224,160,87183,1,0,0:0:0:0:
224,160,87283,1,0,0:0:0:0:
224,160,87583,1,12,0:0:0:0:
224,160,88183,1,12,0:0:0:0:
224,160,88783,1,0,0:0:0:0:
224,160,89083,1,0,0:0:0:0:
224,160,89383,1,8,0:0:0:0:
224,160,89683,1,0,0:0:0:0:
224,160,89983,1,8,0:0:0:0:
224,160,90583,1,0,0:0:0:0:
224,160,91183,1,8,0:0:0:0:
224,160,91483,1,8,0:0:0:0:
224,160,91783,1,0,0:0:0:0:
224,160,92083,1,8,0:0:0:0:
224,160,92383,1,0,0:0:0:0:
224,160,92883,1,8,0:0:0:0:
224,160,93283,1,8,0:0:0:0:
224,160,93583,1,0,0:0:0:0:
224,160,93883,1,12,0:0:0:0:
224,160,94483,1,8,0:0:0:0:
224,160,94783,1,4,0:0:0:0:
224,160,97183,1,8,0:0:0:0:
224,160,97383,1,8,0:0:0:0:
224,160,97483,1,8,0:0:0:0:
224,160,97683,1,0,0:0:0:0:
224,160,97783,1,0,0:0:0:0:
224,160,98083,1,8,0:0:0:0:
224,160,98383,1,4,0:0:0:0:
224,160,98883,1,8,0:0:0:0:
224,160,99283,1,0,0:0:0:0:
224,160,99583,1,8,0:0:0:0:
224,160,99883,1,0,0:0:0:0:
224,160,100183,1,8,0:0:0:0:
224,160,100383,1,0,0:0:0:0:
224,160,100483,1,0,0:0:0:0:
224,160,100783,1,0,0:0:0:0:
224,160,101283,1,0,0:0:0:0:
224,160,101683,1,8,0:0:0:0:
224,160,101983,1,0,0:0:0:0:
224,160,102283,1,0,0:0:0:0:
224,160,102383,1,0,0:0:0:0:
224,160,102483,1,0,0:0:0:0:
224,160,102583,1,0,0:0:0:0:
224,160,102883,1,8,0:0:0:0:
224,160,103183,1,8,0:0:0:0:
224,160,103683,1,8,0:0:0:0:
224,160,103983,1,8,0:0:0:0:
224,160,104083,1,8,0:0:0:0:
224,160,104383,1,0,0:0:0:0:
224,160,104883,1,0,0:0:0:0:
224,160,105183,1,0,0:0:0:0:
224,160,105283,1,0,0:0:0:0:
224,160,105583,1,8,0:0:0:0:
224,160,106183,1,0,0:0:0:0:
224,160,106483,1,0,0:0:0:0:
224,160,106783,1,8,0:0:0:0:
224,160,107083,1,8,0:0:0:0:
224,160,107383,1,8,0:0:0:0:
224,160,107683,1,8,0:0:0:0:
224,160,107983,1,4,0:0:0:0:
224,160,108483,1,8,0:0:0:0:
224,160,108883,1,0,0:0:0:0:
224,160,109183,1,8,0:0:0:0:
224,160,109483,1,0,0:0:0:0:
224,160,109783,1,8,0:0:0:0:
224,160,109983,1,0,0:0:0:0:
224,160,110083,1,0,0:0:0:0:
224,160,110383,1,0,0:0:0:0:
224,160,110883,1,0,0:0:0:0:
224,160,111283,1,8,0:0:0:0:
224,160,111583,1,0,0:0:0:0:
224,160,111883,1,0,0:0:0:0:
224,160,111983,1,0,0:0:0:0:
224,160,112083,1,0,0:0:0:0:
224,160,112183,1,0,0:0:0:0:
224,160,112483,1,8,0:0:0:0:
224,160,112783,1,8,0:0:0:0:
224,160,113283,1,8,0:0:0:0:
224,160,113583,1,8,0:0:0:0:
224,160,113683,1,8,0:0:0:0:
224,160,113983,1,0,0:0:0:0:
224,160,114483,1,0,0:0:0:0:
224,160,114783,1,0,0:0:0:0:
224,160,114883,1,0,0:0:0:0:
224,160,115183,1,8,0:0:0:0:
224,160,115783,1,0,0:0:0:0:
224,160,116083,1,0,0:0:0:0:
224,160,116383,1,8,0:0:0:0:
224,160,116683,1,8,0:0:0:0:
224,160,116983,1,8,0:0:0:0:
224,160,117283,1,8,0:0:0:0:
224,160,117583,1,4,0:0:0:0:
256,192,117883,8,0,122383,0:0:0:0:
