osu file format v14

[General]
AudioFilename: audio.mp3
AudioLeadIn: 0
PreviewTime: 74283
Countdown: 0
SampleSet: Normal
StackLeniency: 0.7
Mode: 1
LetterboxInBreaks: 0
WidescreenStoryboard: 0

[Editor]
Bookmarks: 11983,31183,50383,107983,117583
DistanceSpacing: 0.7
BeatDivisor: 3
GridSize: 32
TimelineZoom: 0.9

[Metadata]
Title:Shinryoku no Cinderella
TitleUnicode:新緑のシンデレラ
Artist:Kicco
ArtistUnicode:Kicco
Creator:[R]
Version:Kantan
Source:若葉色のカルテット
Tags:ron Wakaba-iro no Quartet Lump of Sugar eroge visual novel ending ed kemonomimi video game japanese 水野大輔 daisuke mizuno 住田リョータ sumita ryota
BeatmapID:2154730
BeatmapSetID:1030360

[Difficulty]
HPDrainRate:8
CircleSize:5
OverallDifficulty:3
ApproachRate:5
SliderMultiplier:1.4
SliderTickRate:1

[Events]
//Background and Video events
0,0,"BG1.jpg",0,80
//Break Periods
//Storyboard Layer 0 (Background)
//Storyboard Layer 1 (Fail)
//Storyboard Layer 2 (Pass)
//Storyboard Layer 3 (Foreground)
//Storyboard Layer 4 (Overlay)
//Storyboard Sound Samples

[TimingPoints]
1183,300,4,1,0,70,1,0
1183,-111.111111111111,4,1,0,70,0,0
2383,300,4,1,0,70,1,0
2383,-111.111111111111,4,1,0,70,0,0
11983,-111.111111111111,4,1,0,80,0,0
30483,-111.111111111111,4,1,0,70,0,0
31183,-111.111111111111,4,1,0,80,0,0
74383,-111.111111111111,4,1,0,90,0,1
94783,-111.111111111111,4,1,0,90,0,0
94883,-111.111111111111,4,1,0,80,0,0
119983,-111.111111111111,4,1,0,70,0,0
122383,-111.111111111111,4,1,0,60,0,0

[HitObjects]
224,160,2383,5,0,0:0:0:0:
224,160,3583,1,8,0:0:0:0:
224,160,4783,1,0,0:0:0:0:
224,160,5383,1,0,0:0:0:0:
224,160,5983,1,8,0:0:0:0:
224,160,7183,1,0,0:0:0:0:
224,160,8383,1,8,0:0:0:0:
224,160,9583,1,0,0:0:0:0:
224,160,10183,1,0,0:0:0:0:
224,160,10783,1,8,0:0:0:0:
224,160,11983,1,4,0:0:0:0:
224,160,12583,1,8,0:0:0:0:
224,160,13783,1,8,0:0:0:0:
224,160,14383,1,0,0:0:0:0:
224,160,14983,1,8,0:0:0:0:
224,160,16183,1,0,0:0:0:0:
224,160,16783,1,12,0:0:0:0:
224,160,17383,1,0,0:0:0:0:
224,160,17983,1,0,0:0:0:0:
224,160,18283,1,8,0:0:0:0:
224,160,18883,1,8,0:0:0:0:
224,160,19183,1,0,0:0:0:0:
224,160,19783,1,8,0:0:0:0:
224,160,20983,1,8,0:0:0:0:
224,160,21583,1,4,0:0:0:0:
224,160,22183,1,8,0:0:0:0:
224,160,23383,1,8,0:0:0:0:
224,160,23983,1,0,0:0:0:0:
224,160,24583,1,8,0:0:0:0:
224,160,25783,1,0,0:0:0:0:
224,160,26383,1,12,0:0:0:0:
224,160,26983,1,0,0:0:0:0:
224,160,27583,1,0,0:0:0:0:
224,160,27883,1,8,0:0:0:0:
224,160,28483,1,8,0:0:0:0:
224,160,28783,1,0,0:0:0:0:
224,160,29383,1,8,0:0:0:0:
224,160,30583,1,12,0:0:0:0:
224,160,31183,1,4,0:0:0:0:
224,160,31783,1,0,0:0:0:0:
224,160,32383,1,8,0:0:0:0:
224,160,32983,1,0,0:0:0:0:
224,160,33283,1,8,0:0:0:0:
224,160,33583,1,0,0:0:0:0:
224,160,34183,1,0,0:0:0:0:
224,160,34783,1,8,0:0:0:0:
224,160,35983,1,0,0:0:0:0:
224,160,36583,1,8,0:0:0:0:
224,160,37183,1,0,0:0:0:0:
224,160,37783,1,8,0:0:0:0:
224,160,38083,1,8,0:0:0:0:
224,160,38383,1,0,0:0:0:0:
224,160,39583,1,12,0:0:0:0:
224,160,40083,1,12,0:0:0:0:
224,160,40783,1,4,0:0:0:0:
224,160,41383,1,0,0:0:0:0:
224,160,41983,1,8,0:0:0:0:
224,160,42583,1,0,0:0:0:0:
224,160,42883,1,8,0:0:0:0:
224,160,43183,1,0,0:0:0:0:
224,160,43783,1,0,0:0:0:0:
224,160,44383,1,8,0:0:0:0:
224,160,45583,1,0,0:0:0:0:
224,160,46183,1,8,0:0:0:0:
224,160,46783,1,0,0:0:0:0:
224,160,47383,1,8,0:0:0:0:
224,160,47683,1,0,0:0:0:0:
224,160,47983,1,12,0:0:0:0:
224,160,48583,1,12,0:0:0:0:
224,160,49083,1,12,0:0:0:0:
224,160,50383,1,4,0:0:0:0:
224,160,50683,1,4,0:0:0:0:
224,160,51483,1,4,0:0:0:0:
224,160,52783,1,12,0:0:0:0:
224,160,53083,1,12,0:0:0:0:
224,160,53883,1,12,0:0:0:0:
224,160,55183,1,4,0:0:0:0:
224,160,55783,1,8,0:0:0:0:
224,160,56383,1,0,0:0:0:0:
224,160,56983,1,0,0:0:0:0:
224,160,57283,1,8,0:0:0:0:
224,160,57583,1,0,0:0:0:0:
224,160,58183,1,0,0:0:0:0:
224,160,58783,1,8,0:0:0:0:
224,160,59983,1,4,0:0:0:0:
224,160,61183,1,0,0:0:0:0:
224,160,61783,1,0,0:0:0:0:
224,160,62383,1,8,0:0:0:0:
224,160,63583,1,8,0:0:0:0:
224,160,64183,1,8,0:0:0:0:
224,160,64783,1,4,0:0:0:0:
224,160,65383,1,0,0:0:0:0:
224,160,65683,1,8,0:0:0:0:
224,160,65983,1,0,0:0:0:0:
224,160,66583,1,0,0:0:0:0:
224,160,67183,1,8,0:0:0:0:
224,160,67783,1,8,0:0:0:0:
224,160,68083,1,0,0:0:0:0:
224,160,68383,1,8,0:0:0:0:
224,160,68983,1,8,0:0:0:0:
224,160,69583,1,4,0:0:0:0:
224,160,70783,1,4,0:0:0:0:
224,160,71983,1,4,0:0:0:0:
224,160,73183,1,0,0:0:0:0:
224,160,73783,1,12,0:0:0:0:
224,160,74383,1,4,0:0:0:0:
224,160,75283,1,0,0:0:0:0:
224,160,75583,1,8,0:0:0:0:
224,160,76183,1,8,0:0:0:0:
224,160,76783,1,0,0:0:0:0:
224,160,77683,1,0,0:0:0:0:
224,160,77983,1,0,0:0:0:0:
224,160,78283,1,12,0:0:0:0:
224,160,78883,1,8,0:0:0:0:
224,160,79183,1,0,0:0:0:0:
224,160,79783,1,8,0:0:0:0:
224,160,80983,1,8,0:0:0:0:
224,160,81583,1,0,0:0:0:0:
224,160,82183,1,8,0:0:0:0:
224,160,82783,1,8,0:0:0:0:
224,160,83083,1,8,0:0:0:0:
224,160,83383,1,8,0:0:0:0:
224,160,83683,1,8,0:0:0:0:
224,160,83983,1,4,0:0:0:0:
224,160,84883,1,0,0:0:0:0:
224,160,85183,1,8,0:0:0:0:
224,160,85783,1,8,0:0:0:0:
224,160,86383,1,0,0:0:0:0:
224,160,87283,1,0,0:0:0:0:
224,160,87583,1,12,0:0:0:0:
224,160,88183,1,12,0:0:0:0:
224,160,88783,1,0,0:0:0:0:
224,160,89983,1,8,0:0:0:0:
224,160,90583,1,0,0:0:0:0:
224,160,91183,1,8,0:0:0:0:
224,160,92383,1,0,0:0:0:0:
224,160,93583,1,0,0:0:0:0:
224,160,93883,1,12,0:0:0:0:
224,160,94483,1,8,0:0:0:0:
224,160,94783,1,4,0:0:0:0:
256,192,97183,8,0,98083,0:0:0:0:
224,160,98383,5,4,0:0:0:0:
224,160,99283,1,0,0:0:0:0:
224,160,99583,1,8,0:0:0:0:
224,160,100183,1,8,0:0:0:0:
224,160,100783,1,0,0:0:0:0:
224,160,101683,1,8,0:0:0:0:
224,160,101983,1,0,0:0:0:0:
224,160,102583,1,0,0:0:0:0:
224,160,103183,1,8,0:0:0:0:
224,160,104083,1,8,0:0:0:0:
224,160,104383,1,0,0:0:0:0:
224,160,105283,1,0,0:0:0:0:
224,160,105583,1,8,0:0:0:0:
224,160,106183,1,0,0:0:0:0:
224,160,106783,1,8,0:0:0:0:
224,160,107083,1,8,0:0:0:0:
224,160,107383,1,8,0:0:0:0:
224,160,107683,1,8,0:0:0:0:
224,160,107983,1,4,0:0:0:0:
224,160,108883,1,0,0:0:0:0:
224,160,109183,1,8,0:0:0:0:
224,160,109783,1,8,0:0:0:0:
224,160,110383,1,0,0:0:0:0:
224,160,111283,1,8,0:0:0:0:
224,160,111583,1,0,0:0:0:0:
224,160,112183,1,0,0:0:0:0:
224,160,112783,1,8,0:0:0:0:
224,160,113683,1,8,0:0:0:0:
224,160,113983,1,0,0:0:0:0:
224,160,114883,1,0,0:0:0:0:
224,160,115183,1,8,0:0:0:0:
224,160,115783,1,0,0:0:0:0:
224,160,116383,1,8,0:0:0:0:
224,160,116683,1,8,0:0:0:0:
224,160,116983,1,8,0:0:0:0:
224,160,117283,1,8,0:0:0:0:
224,160,117583,1,4,0:0:0:0:
256,192,117883,8,0,122383,0:0:0:0:
