osu file format v14

[General]
AudioFilename: audio.mp3
AudioLeadIn: 2000
PreviewTime: 65890
Countdown: 1
SampleSet: Soft
StackLeniency: 0.7
Mode: 0
LetterboxInBreaks: 0
WidescreenStoryboard: 0

[Editor]
Bookmarks: 47448,149743,287939,293349,295316
DistanceSpacing: 1.3
BeatDivisor: 4
GridSize: 4
TimelineZoom: 1

[Metadata]
Title:Owaranai Kirameki o
TitleUnicode:終わらない煌めきを
Artist:Kicco
ArtistUnicode:Kicco
Creator:sodarose
Version:You're the only one
Source:タユタマ2 -you're the only one-
Tags:tayutama2 lump of sugar full version ED ending 泉戸 こはく 西条绯文 汤ノ花 菜乃 泉戸 ましろ galgame 水野大輔 mizuno daisuke
BeatmapID:1466950
BeatmapSetID:693265

[Difficulty]
HPDrainRate:6
CircleSize:4
OverallDifficulty:7
ApproachRate:8
SliderMultiplier:1.6
SliderTickRate:1

[Events]
//Background and Video events
0,0,"1231.png",0,0
//Break Periods
//Storyboard Layer 0 (Background)
//Storyboard Layer 1 (Fail)
//Storyboard Layer 2 (Pass)
//Storyboard Layer 3 (Foreground)
//Storyboard Sound Samples

[TimingPoints]
235,491.803278688525,4,2,1,60,1,0
16587,-100,4,2,1,30,0,0
17448,-100,4,2,1,50,0,0
17694,-100,4,2,1,30,0,0
18431,-100,4,2,1,50,0,0
18554,-100,4,2,1,30,0,0
19415,-100,4,2,1,50,0,0
19661,-100,4,2,1,30,0,0
20398,-100,4,2,1,50,0,0
20521,-100,4,2,1,30,0,0
21382,-100,4,2,1,50,0,0
21628,-100,4,2,1,30,0,0
22366,-100,4,2,1,50,0,0
22489,-100,4,2,1,30,0,0
23103,-100,4,2,1,50,0,0
23595,-100,4,2,1,30,0,0
24333,-100,4,2,1,50,0,0
24456,-100,4,2,1,30,0,0
25316,-100,4,2,1,50,0,0
25562,-100,4,2,1,30,0,0
26300,-100,4,2,1,50,0,0
26423,-100,4,2,1,30,0,0
27284,-100,4,2,1,50,0,0
27530,-100,4,2,1,30,0,0
28267,-100,4,2,1,50,0,0
28390,-100,4,2,1,30,0,0
29251,-100,4,2,1,50,0,0
29497,-100,4,2,1,30,0,0
30235,-100,4,2,1,50,0,0
30357,-100,4,2,1,30,0,0
31218,-100,4,2,1,50,0,0
31464,-100,4,2,1,30,0,0
32202,-100,4,2,1,50,0,0
32325,-100,4,2,1,30,0,0
33185,-100,4,2,1,50,0,0
33431,-100,4,2,1,30,0,0
34169,-100,4,2,1,50,0,0
34292,-100,4,2,1,30,0,0
35153,-100,4,2,1,50,0,0
35398,-100,4,2,1,30,0,0
36136,-100,4,2,1,50,0,0
36259,-100,4,2,1,30,0,0
36874,-100,4,2,1,50,0,0
37243,-100,4,2,1,30,0,0
38103,-100,4,2,1,50,0,0
38226,-100,4,2,1,30,0,0
39087,-100,4,2,1,50,0,0
39210,-100,4,2,1,30,0,0
40071,-100,4,2,1,50,0,0
40194,-100,4,2,1,30,0,0
41054,-100,4,2,1,50,0,0
41300,-100,4,2,1,30,0,0
42038,-100,4,2,1,50,0,0
42161,-100,4,2,1,30,0,0
42775,-100,4,2,1,50,0,0
43267,-100,4,2,1,30,0,0
44005,-100,4,2,1,50,0,0
44128,-100,4,2,1,30,0,0
44989,-100,4,2,1,50,0,0
45235,-100,4,2,1,30,0,0
45972,-100,4,2,1,50,0,0
46095,-100,4,2,1,30,0,0
46464,-100,4,2,1,50,0,0
47448,-111.111111111111,4,2,1,50,0,0
59251,-100,4,2,1,50,0,0
65644,-100,4,2,1,55,0,0
65890,-100,4,2,1,60,0,0
67120,-90.9090909090909,4,2,1,60,0,1
102530,-100,4,2,1,60,0,0
118267,-100,4,2,1,50,0,0
118882,-100,4,2,1,30,0,0
119743,-100,4,2,1,50,0,0
119989,-100,4,2,1,30,0,0
120726,-100,4,2,1,50,0,0
120849,-100,4,2,1,30,0,0
121710,-100,4,2,1,50,0,0
121956,-100,4,2,1,30,0,0
122694,-100,4,2,1,50,0,0
122816,-100,4,2,1,30,0,0
123677,-100,4,2,1,50,0,0
123923,-100,4,2,1,30,0,0
124661,-100,4,2,1,50,0,0
124784,-100,4,2,1,30,0,0
125644,-100,4,2,1,50,0,0
125890,-100,4,2,1,30,0,0
126628,-100,4,2,1,50,0,0
126751,-100,4,2,1,30,0,0
127612,-100,4,2,1,50,0,0
127857,-100,4,2,1,30,0,0
128595,-100,4,2,1,50,0,0
128718,-100,4,2,1,30,0,0
129579,-100,4,2,1,50,0,0
129825,-100,4,2,1,30,0,0
130562,-100,4,2,1,50,0,0
130685,-100,4,2,1,30,0,0
131546,-100,4,2,1,50,0,0
131792,-100,4,2,1,30,0,0
132530,-100,4,2,1,50,0,0
132653,-100,4,2,1,30,0,0
133513,-100,4,2,1,50,0,0
133759,-100,4,2,1,30,0,0
134497,-100,4,2,1,50,0,0
134620,-100,4,2,1,30,0,0
135480,-100,4,2,1,50,0,0
135726,-100,4,2,1,30,0,0
136464,-100,4,2,1,50,0,0
136587,-100,4,2,1,30,0,0
137448,-100,4,2,1,50,0,0
137694,-100,4,2,1,30,0,0
138431,-100,4,2,1,50,0,0
138554,-100,4,2,1,30,0,0
139415,-100,4,2,1,50,0,0
139538,-100,4,2,1,30,0,0
140398,-100,4,2,1,50,0,0
140521,-100,4,2,1,30,0,0
141382,-100,4,2,1,50,0,0
141505,-100,4,2,1,30,0,0
142366,-100,4,2,1,50,0,0
142489,-100,4,2,1,30,0,0
143349,-100,4,2,1,50,0,0
143595,-100,4,2,1,30,0,0
144333,-100,4,2,1,50,0,0
144456,-100,4,2,1,30,0,0
145316,-100,4,2,1,50,0,0
145562,-100,4,2,1,30,0,0
146300,-100,4,2,1,50,0,0
146423,-100,4,2,1,30,0,0
147284,-100,4,2,1,50,0,0
147530,-100,4,2,1,30,0,0
148267,-100,4,2,1,50,0,0
148390,-100,4,2,1,30,0,0
148759,-100,4,2,1,50,0,0
149743,-111.111111111111,4,2,1,50,0,0
161546,-100,4,2,1,50,0,0
167939,-100,4,2,1,55,0,0
168185,-100,4,2,1,60,0,0
169415,-90.9090909090908,4,2,1,60,0,1
204825,-100,4,2,1,50,0,0
236300,-90.9090909090909,4,2,1,70,0,1
271218,-90.9090909090909,4,2,1,70,0,0
271710,-100,4,2,1,50,0,1
271833,-100,4,2,1,50,0,0
272448,-100,4,2,0,60,0,0
272571,-100,4,2,1,50,0,0
273923,-100,4,2,0,60,0,0
274046,-100,4,2,1,50,0,0
275398,-100,4,2,0,60,0,0
275521,-100,4,2,1,50,0,0
276874,-100,4,2,0,60,0,0
276997,-100,4,2,1,50,0,0
280316,-100,4,2,0,60,0,0
280439,-100,4,2,1,50,0,0
285480,-90.9090909090909,4,2,1,50,0,0
287448,-90.9090909090909,4,2,1,30,0,0
287939,-90.9090909090909,4,2,1,50,0,0
291382,-90.9090909090909,4,2,1,10,0,0

[Colours]
Combo1 : 181,73,203
Combo2 : 240,28,198
Combo3 : 38,136,255
Combo4 : 242,24,57

[HitObjects]
76,128,235,6,0,P|140:72|228:108,1,160,0|8,1:0|0:0,0:0:0:0:
88,220,972,2,0,B|60:256|60:256|52:320|96:372,1,160,2|0,0:0|0:0,0:0:0:0:
180,228,1710,2,0,P|180:192|152:148,1,80,8|0,0:0|0:0,0:0:0:0:
332,48,2202,6,0,B|288:44|252:64|252:64|248:104|296:160,1,160,2|8,0:0|0:0,0:0:0:0:
296,300,2939,2,0,P|376:276|476:276,1,160,2|0,0:0|0:0,0:0:0:0:
416,68,3677,1,8,0:0:0:0:
276,135,3923,1,0,0:0:0:0:
296,300,4169,6,0,P|244:264|160:224,1,120,2|0,0:0|0:0,0:0:0:0:
140,244,4661,2,0,P|140:200|120:148,1,80,8|0,0:0|0:0,0:0:0:0:
104,360,5153,2,0,P|65:339|9:332,1,80,2|0,0:0|0:0,0:0:0:0:
193,237,5644,1,8,0:0:0:0:
208,376,5890,1,0,0:0:0:0:
276,164,6136,6,0,P|332:212|412:164,1,160,2|8,0:0|0:0,0:0:0:0:
332,24,6874,1,0,0:0:0:0:
216,52,7120,1,8,0:0:0:0:
216,52,7243,2,0,P|156:44|100:32,1,80,8|0,0:0|0:0,0:0:0:0:
108,84,7612,2,0,P|68:88|28:95,1,80,8|0,0:0|0:0,0:0:0:0:
36,284,8103,6,0,P|96:264|184:316,1,160,2|8,0:0|0:0,0:0:0:0:
252,192,8841,1,0,0:0:0:0:
412,307,9087,2,0,P|356:319|288:291,1,120,2|0,0:0|0:0,0:0:0:0:
256,271,9579,2,0,P|252:211|252:171,1,80,8|0,0:0|0:0,0:0:0:0:
352,40,10071,6,0,P|280:36|184:20,2,160,2|8|2,0:0|0:0|0:0,0:0:0:0:
408,196,11300,1,0,0:0:0:0:
484,104,11546,2,0,P|476:52|460:20,1,80,8|0,0:0|0:0,0:0:0:0:
296,152,12038,5,8,0:0:0:0:
408,196,12284,1,8,0:0:0:0:
300,140,12530,1,8,0:0:0:0:
256,252,12776,1,8,0:0:0:0:
316,148,13021,1,8,0:0:0:0:
204,104,13267,1,8,0:0:0:0:
312,164,13513,1,8,0:0:0:0:
356,52,13759,1,8,0:0:0:0:
160,28,14005,5,8,0:0:0:0:
140,41,14127,1,8,0:0:0:0:
125,60,14250,1,8,0:0:0:0:
116,82,14373,1,8,0:0:0:0:
113,106,14496,1,8,0:0:0:0:
117,130,14619,1,8,0:0:0:0:
127,151,14742,1,8,0:0:0:0:
142,169,14865,1,8,0:0:0:0:
164,184,14989,6,0,P|192:184|216:176,3,40,8|8|8|8,0:0|0:0|0:0|0:0,0:0:0:0:
244,212,15480,2,0,P|272:212|296:220,3,40,8|8|8|8,0:0|0:0|0:0|0:0,0:0:0:0:
324,252,15972,6,0,L|336:164,2,80,2|0|8,0:0|0:0|0:3,0:0:0:0:
304,300,16587,2,0,L|252:308,1,40,2|0,0:0|0:0,0:0:0:0:
36,268,16956,2,0,P|44:324|44:364,1,80,2|0,0:0|0:0,0:0:0:0:
160,220,17448,2,0,P|168:164|168:124,1,80,8|0,0:3|0:0,0:0:0:0:
4,16,17939,5,2,0:0:0:0:
88,136,18185,1,2,0:0:0:0:
184,20,18431,1,8,0:3:0:0:
184,20,18554,2,0,P|236:28|264:56,1,80,2|0,0:0|0:0,0:0:0:0:
280,92,18923,2,0,P|312:69|352:67,1,80,2|0,0:0|0:0,0:0:0:0:
348,228,19415,2,0,L|340:144,1,80,8|0,0:3|0:0,0:0:0:0:
480,16,19907,6,0,L|472:95,1,80,2|2,0:0|0:0,0:0:0:0:
468,256,20398,1,8,0:3:0:0:
468,256,20521,2,0,P|416:268|372:244,1,80,2|0,0:0|0:0,0:0:0:0:
348,228,20890,2,0,L|248:236,1,80,2|0,0:0|0:0,0:0:0:0:
132,308,21382,1,8,0:3:0:0:
200,180,21628,1,0,0:0:0:0:
12,140,21874,6,0,L|24:244,2,80,2|2|8,0:0|0:0|0:3,0:0:0:0:
24,88,22489,2,0,L|80:104,1,40,2|0,0:0|0:0,0:0:0:0:
200,180,22857,2,0,P|208:236|192:276,1,80,2|0,0:0|0:0,0:0:0:0:
36,348,23349,2,0,P|80:313|123:306,1,80,8|0,0:3|0:0,0:0:0:0:
324,356,23841,5,2,0:0:0:0:
184,344,24087,1,2,0:0:0:0:
300,228,24333,1,8,0:3:0:0:
300,228,24456,2,0,L|308:312,1,80,2|0,0:0|0:0,0:0:0:0:
324,356,24825,2,0,P|352:296|348:264,1,80,2|0,0:0|0:0,0:0:0:0:
236,156,25316,1,8,0:3:0:0:
376,172,25562,1,0,0:0:0:0:
428,24,25808,6,0,L|332:32,1,80,2|2,0:0|0:0,0:0:0:0:
236,156,26300,1,8,0:3:0:0:
236,156,26423,2,0,P|248:108|232:64,1,80,2|0,0:0|0:0,0:0:0:0:
200,44,26792,2,0,L|120:37,1,80,2|0,0:0|0:0,0:0:0:0:
76,200,27284,1,8,0:3:0:0:
48,80,27530,1,0,0:0:0:0:
24,280,27775,6,0,L|128:296,2,80,2|2|8,0:0|0:0|0:3,0:0:0:0:
4,232,28390,2,0,L|0:184,1,40,2|0,0:0|0:0,0:0:0:0:
184,272,28759,2,0,P|184:320|152:360,1,80,2|0,0:0|0:0,0:0:0:0:
104,192,29251,2,0,P|135:167|174:162,1,80,8|0,0:3|0:0,0:0:0:0:
312,272,29743,5,2,0:0:0:0:
256,148,29989,1,2,0:0:0:0:
400,92,30235,1,8,0:3:0:0:
400,92,30357,2,0,P|396:136|376:204,1,80,2|0,0:0|0:0,0:0:0:0:
416,216,30726,2,0,P|420:260|440:328,1,80,2|0,0:0|0:0,0:0:0:0:
256,148,31218,1,8,0:3:0:0:
400,92,31464,1,0,0:0:0:0:
224,40,31710,6,0,P|164:40|132:44,1,80,2|2,0:0|0:0,0:0:0:0:
104,192,32202,1,8,0:3:0:0:
104,192,32325,2,0,P|64:172|40:140,1,80,2|0,0:0|0:0,0:0:0:0:
4,112,32694,2,0,P|0:151|1:191,1,80,2|0,0:0|0:0,0:0:0:0:
36,356,33185,2,0,P|64:316|100:296,1,80,8|0,0:3|0:0,0:0:0:0:
256,332,33677,6,0,P|220:312|196:260,2,80,2|2|8,0:0|0:0|0:3,0:0:0:0:
304,312,34292,2,0,L|356:324,1,40,2|0,0:0|0:0,0:0:0:0:
472,360,34661,2,0,L|464:276,1,80,2|0,0:0|0:0,0:0:0:0:
392,124,35153,2,0,L|384:208,1,80,8|0,0:3|0:0,0:0:0:0:
320,72,35644,5,2,0:0:0:0:
464,156,35890,1,2,0:0:0:0:
296,232,36136,1,8,0:3:0:0:
296,232,36259,2,0,P|244:216|212:212,1,80,2|0,0:0|0:0,0:0:0:0:
172,192,36628,2,0,P|120:216|72:208,1,80,2|0,0:0|0:0,0:0:0:0:
56,32,37120,1,8,0:3:0:0:
56,32,37243,2,0,P|64:80|56:124,1,80,2|0,0:0|0:0,0:0:0:0:
32,156,37612,5,2,0:0:0:0:
8,288,37857,1,2,0:0:0:0:
156,200,38103,1,8,0:3:0:0:
156,200,38226,2,0,P|160:248|144:296,1,80,2|0,0:0|0:0,0:0:0:0:
128,324,38595,1,2,0:0:0:0:
32,156,38841,1,2,0:0:0:0:
232,228,39087,1,8,0:3:0:0:
232,228,39210,2,0,P|270:216|302:193,1,80,2|0,0:0|0:0,0:0:0:0:
308,140,39579,5,2,0:0:0:0:
336,284,39825,1,2,0:0:0:0:
224,128,40071,1,8,0:3:0:0:
224,128,40194,2,0,P|240:88|288:60,1,80,2|0,0:0|0:0,0:0:0:0:
320,56,40562,2,0,L|408:64,1,80,2|0,0:0|0:0,0:0:0:0:
468,192,41054,1,8,0:3:0:0:
336,284,41300,1,0,0:0:0:0:
336,284,41423,1,0,0:0:0:0:
336,284,41546,6,0,L|332:200,1,80,2|2,0:0|0:0,0:0:0:0:
120,272,42038,1,8,0:3:0:0:
120,272,42161,2,0,P|180:256|220:280,1,80,2|0,0:0|0:0,0:0:0:0:
244,276,42530,2,0,L|240:355,1,80,2|0,0:0|0:0,0:0:0:0:
24,352,43021,2,0,L|20:272,1,80,8|0,0:3|0:0,0:0:0:0:
76,96,43513,6,0,L|80:8,2,80,2|2|8,0:0|0:0|0:3,0:0:0:0:
52,144,44128,2,0,L|56:196,1,40,2|0,0:0|0:0,0:0:0:0:
192,300,44497,2,0,P|152:292|112:252,1,80,2|0,0:0|0:0,0:0:0:0:
176,112,44989,2,0,P|216:120|256:160,1,80,8|0,0:3|0:0,0:0:0:0:
300,320,45480,5,2,0:0:0:0:
192,208,45726,1,2,0:0:0:0:
352,108,45972,1,8,0:3:0:0:
352,108,46095,2,0,L|340:208,1,80,2|0,0:0|0:0,0:0:0:0:
336,240,46464,1,8,0:0:0:0:
464,152,46710,1,8,0:0:0:0:
340,28,46956,1,8,0:0:0:0:
340,28,47079,1,8,0:0:0:0:
340,28,47202,1,8,0:0:0:0:
192,208,47448,6,0,L|180:52,1,143.999995605469,2|2,0:0|1:2,0:0:0:0:
52,320,48431,2,0,L|40:164,1,143.999995605469,2|2,0:0|1:2,0:0:0:0:
40,176,49169,1,0,0:0:0:0:
144,284,49415,6,0,P|184:296|232:288,1,71.9999978027344,2|0,0:0|0:0,0:0:0:0:
300,332,49907,2,0,P|340:320|388:328,1,71.9999978027344,2|0,1:2|0:0,0:0:0:0:
460,348,50398,1,2,0:0:0:0:
480,256,50644,1,0,0:0:0:0:
372,236,50890,1,2,1:2:0:0:
428,161,51136,1,0,0:0:0:0:
292,56,51382,6,0,P|380:52|456:52,1,143.999995605469,2|2,0:0|1:2,0:0:0:0:
116,148,52366,2,0,P|204:152|280:152,1,143.999995605469,2|2,0:0|1:2,0:0:0:0:
259,152,53103,1,0,0:0:0:0:
56,32,53349,6,0,P|44:92|44:120,1,71.9999978027344,2|0,0:0|0:0,0:0:0:0:
188,184,53841,2,0,P|184:148|175:113,1,71.9999978027344,2|0,1:2|0:0,0:0:0:0:
48,228,54333,1,0,1:0:0:0:
48,228,54456,1,0,1:0:0:0:
48,228,54579,1,0,1:0:0:0:
172,288,54825,1,0,1:0:0:0:
172,288,54948,1,0,1:0:0:0:
172,288,55071,1,0,1:0:0:0:
16,376,55316,6,0,P|80:360|172:388,1,143.999995605469,2|2,0:0|1:2,0:0:0:0:
248,232,56300,2,0,P|317:249|386:233,1,143.999995605469,2|2,0:0|1:2,0:0:0:0:
386,232,57038,1,0,0:0:0:0:
468,308,57284,6,0,P|488:280|492:224,1,71.9999978027344,2|0,0:0|0:0,0:0:0:0:
508,112,57775,2,0,P|480:132|424:136,1,71.9999978027344,2|0,1:2|0:0,0:0:0:0:
320,36,58267,1,2,0:0:0:0:
344,128,58513,1,0,0:0:0:0:
216,76,58759,1,2,1:2:0:0:
204,168,59005,1,0,0:0:0:0:
84,32,59251,6,0,L|92:124,2,80,4|0|8,0:0|0:0|0:0,0:0:0:0:
12,168,59989,2,0,P|104:156|140:228,1,160,4|0,0:0|0:0,0:0:0:0:
96,344,60726,1,8,0:0:0:0:
67,220,60972,1,0,0:0:0:0:
196,324,61218,6,0,B|232:352|232:352|296:356|344:296,1,160,4|8,0:0|0:0,0:0:0:0:
392,160,61956,1,0,0:0:0:0:
428,260,62202,2,0,L|432:360,1,80
260,264,62694,1,8,0:0:0:0:
472,124,62939,6,0,P|428:80|328:100,1,160,4|0,0:0|0:0,0:0:0:0:
192,176,63677,2,0,L|184:88,1,80,8|0,0:0|0:0,0:0:0:0:
40,116,64169,2,0,L|48:28,1,80
64,224,64661,1,8,0:0:0:0:
184,96,64907,1,2,0:0:0:0:
184,96,65398,5,2,1:2:0:0:
144,288,65644,1,8,1:3:0:0:
312,184,65890,1,8,1:2:0:0:
312,184,67120,6,0,P|364:148|444:172,1,132.00000402832,6|0,0:0|0:0,0:0:0:0:
476,192,67612,2,0,P|484:152|468:96,1,88.000002685547,8|0,0:0|0:0,0:0:0:0:
384,232,68103,1,2,0:0:0:0:
480,344,68349,1,0,0:0:0:0:
312,184,68595,2,0,P|301:226|309:269,1,88.000002685547,8|0,0:0|0:0,0:0:0:0:
384,56,69087,6,0,P|296:64|192:64,1,176.000005371094,2|8,0:0|0:0,0:0:0:0:
64,60,69825,1,0,0:0:0:0:
176,172,70071,1,2,0:0:0:0:
72,40,70316,1,0,0:0:0:0:
16,212,70562,1,8,0:0:0:0:
196,168,70808,1,0,0:0:0:0:
44,328,71054,6,0,P|92:332|132:364,1,88.000002685547,2|0,0:0|0:0,0:0:0:0:
196,168,71546,2,0,P|159:199|148:248,1,88.000002685547,8|0,0:0|0:0,0:0:0:0:
244,320,72038,1,2,0:0:0:0:
196,168,72284,1,0,0:0:0:0:
388,240,72530,2,0,L|284:236,1,88.000002685547,8|0,0:0|0:0,0:0:0:0:
76,96,73021,6,0,L|276:88,1,176.000005371094,2|8,0:0|0:0,0:0:0:0:
388,92,73759,1,0,0:0:0:0:
248,172,74005,1,2,0:0:0:0:
352,48,74251,1,0,0:0:0:0:
368,28,74374,1,0,0:0:0:0:
385,9,74497,2,0,P|400:50|388:92,1,88.000002685547,8|0,0:0|0:0,0:0:0:0:
248,172,74989,6,0,P|320:168|380:168,1,132.00000402832,2|0,0:0|0:0,0:0:0:0:
428,196,75480,2,0,P|472:192|512:216,1,88.000002685547,8|0,0:0|0:0,0:0:0:0:
272,248,75972,2,0,P|228:252|188:228,1,88.000002685547,2|0,0:0|0:0,0:0:0:0:
379,167,76464,1,8,0:0:0:0:
356,312,76710,1,0,0:0:0:0:
136,292,76956,6,0,P|176:228|120:148,2,176.000005371094,2|8|2,0:0|0:0|0:0,0:0:0:0:
8,228,78185,1,0,0:0:0:0:
8,228,78431,2,0,P|68:220|104:224,1,88.000002685547,8|0,0:0|0:0,0:0:0:0:
200,128,78923,6,0,P|120:128|76:52,1,176.000005371094,2|8,0:0|0:0,0:0:0:0:
256,44,79661,1,0,0:0:0:0:
312,196,79907,2,0,P|392:196|436:120,1,176.000005371094,2|8,0:0|0:0,0:0:0:0:
256,44,80644,1,0,0:0:0:0:
244,252,80890,6,0,P|208:228|152:216,1,88.000002685547,2|0,0:0|0:0,0:0:0:0:
56,300,81382,1,8,0:0:0:0:
104,132,81628,1,8,0:0:0:0:
104,132,81751,1,8,0:0:0:0:
104,132,81874,1,8,0:0:0:0:
244,252,82120,1,8,0:0:0:0:
64,212,82366,1,8,0:0:0:0:
228,368,82612,1,8,0:0:0:0:
228,368,82735,1,8,0:0:0:0:
228,368,82857,6,0,P|288:372|368:360,1,132.00000402832,6|0,0:0|0:0,0:0:0:0:
416,352,83349,2,0,L|424:248,1,88.000002685547,8|0,0:0|0:0,0:0:0:0:
320,92,83841,2,0,L|326:179,1,88.000002685547,2|0,0:0|0:0,0:0:0:0:
472,148,84333,1,8,0:0:0:0:
380,24,84579,1,0,0:0:0:0:
240,144,84825,6,0,P|176:140|128:92,1,132.00000402832,2|0,0:0|0:0,0:0:0:0:
100,44,85316,2,0,L|88:144,1,88.000002685547,8|0,0:0|0:0,0:0:0:0:
236,220,85808,1,2,0:0:0:0:
212,64,86054,1,0,0:0:0:0:
36,176,86300,2,0,P|80:176|128:204,1,88.000002685547,8|0,0:0|0:0,0:0:0:0:
216,376,86792,6,0,L|228:268,1,88.000002685547,2|0,0:0|0:0,0:0:0:0:
36,176,87284,2,0,L|45:263,1,88.000002685547,8|0,0:0|0:0,0:0:0:0:
176,120,87775,1,2,0:0:0:0:
225,288,88021,1,0,0:0:0:0:
88,112,88267,2,0,L|184:120,1,88.000002685547,8|0,0:0|0:0,0:0:0:0:
308,304,88759,6,0,B|312:248|280:220|280:220|324:204|336:136,1,176.000005371094,2|8,0:0|0:0,0:0:0:0:
392,256,89497,1,0,0:0:0:0:
248,140,89743,2,0,P|272:96|316:72,1,88.000002685547,2|0,0:0|0:0,0:0:0:0:
488,164,90235,2,0,P|442:143|415:100,1,88.000002685547,8|0,0:0|0:0,0:0:0:0:
220,28,90726,6,0,B|156:8|100:44|100:44|48:112,1,176.000005371094,2|8,0:0|0:0,0:0:0:0:
80,284,91464,1,0,0:0:0:0:
164,200,91710,2,0,L|172:92,1,88.000002685547,2|0,0:0|0:0,0:0:0:0:
4,268,92202,2,0,L|10:355,1,88.000002685547,8|0,0:0|0:0,0:0:0:0:
264,240,92694,6,0,P|340:224|404:300,1,176.000005371094,2|8,0:0|0:0,0:0:0:0:
129,280,93431,2,0,P|157:208|169:100,1,176.000005371094,2|0,0:0|0:0,0:0:0:0:
320,304,94169,2,0,P|264:320|228:312,1,88.000002685547,8|0,0:0|0:0,0:0:0:0:
170,111,94661,5,2,0:0:0:0:
264,240,94907,1,0,0:0:0:0:
160,32,95153,2,0,P|116:48|96:116,1,88.000002685547,8|0,0:0|0:0,0:0:0:0:
252,152,95644,1,2,0:0:0:0:
100,200,95890,1,0,0:0:0:0:
260,76,96136,2,0,P|304:92|324:160,1,88.000002685547,8|0,0:0|0:0,0:0:0:0:
184,256,96628,6,0,P|96:240|0:232,2,176.000005371094,2|8|2,0:0|0:0|0:0,0:0:0:0:
344,320,97857,1,0,0:0:0:0:
232,356,98103,2,0,P|168:360|128:356,1,88.000002685547,8|0,0:0|0:0,0:0:0:0:
300,192,98595,5,8,0:0:0:0:
344,320,98841,1,8,0:0:0:0:
304,176,99087,1,8,0:0:0:0:
184,256,99333,1,8,0:0:0:0:
360,328,99579,5,8,0:0:0:0:
316,200,99825,1,8,0:0:0:0:
164,252,100071,1,8,0:0:0:0:
284,172,100317,1,8,0:0:0:0:
72,184,100562,5,8,0:0:0:0:
49,170,100684,1,8,0:0:0:0:
34,149,100807,1,8,0:0:0:0:
27,123,100930,1,8,0:0:0:0:
32,96,101054,2,0,P|39:73|60:52,3,44.0000013427735,8|8|8|8,0:0|0:0|0:0|0:0,0:0:0:0:
104,0,101546,2,0,P|124:4|160:4,3,44.0000013427735,8|8|8|8,0:0|0:0|0:0|0:0,0:0:0:0:
228,40,102038,1,8,0:0:0:0:
228,40,102161,1,8,0:0:0:0:
228,40,102284,2,8,L|232:112,1,44.0000013427735
200,172,102530,6,0,P|272:152|344:200,1,160,6|8,0:0|0:0,0:0:0:0:
160,264,103267,2,0,P|88:244|16:292,1,160,2|0,0:0|0:0,0:0:0:0:
252,316,104005,2,0,P|268:272|256:228,1,80,8|0,0:0|0:0,0:0:0:0:
72,216,104497,6,0,B|100:328|100:328|76:320|60:296,1,160,2|8,0:0|0:0,0:0:0:0:
4,160,105235,2,0,P|64:184|136:112,1,160,2|0,0:0|0:0,0:0:0:0:
260,32,105972,1,8,0:0:0:0:
227,179,106218,1,0,0:0:0:0:
400,32,106464,6,0,P|400:104|408:152,1,120,2|0,0:0|0:0,0:0:0:0:
368,188,106956,2,0,P|372:236|352:276,1,80,8|0,0:0|0:0,0:0:0:0:
227,179,107448,1,2,0:0:0:0:
272,308,107694,1,0,0:0:0:0:
152,224,107939,2,0,P|139:186|144:147,1,80,8|0,0:0|0:0,0:0:0:0:
272,308,108431,6,0,P|176:308|112:316,1,160,2|8,0:0|0:0,0:0:0:0:
32,172,109169,1,0,0:0:0:0:
144,147,109415,1,8,0:0:0:0:
144,147,109538,2,0,P|196:143|248:159,1,80,8|0,0:0|0:0,0:0:0:0:
272,132,109907,2,0,P|311:138|350:133,1,80,8|0,0:0|0:0,0:0:0:0:
472,260,110398,6,0,B|432:228|424:196|424:196|452:156|440:88,1,160,2|8,0:0|0:0,0:0:0:0:
344,24,111136,1,0,0:0:0:0:
246,212,111382,2,0,B|286:228|322:220|322:220|350:156,1,120,2|0,0:0|0:0,0:0:0:0:
350,132,111874,2,0,P|298:124|250:144,1,80,8|0,0:0|0:0,0:0:0:0:
156,268,112366,6,0,P|172:320|148:372,1,80,2|0,0:0|0:0,0:0:0:0:
12,264,112857,2,0,P|7:224|22:188,1,80,8|0,0:0|0:0,0:0:0:0:
192,123,113349,2,0,L|276:131,1,80,2|0,0:0|0:0,0:0:0:0:
92,28,113841,2,0,L|8:36,1,80,8|0,0:0|0:0,0:0:0:0:
22,188,114333,5,8,0:0:0:0:
56,312,114579,1,8,0:0:0:0:
172,152,114825,1,8,0:0:0:0:
157,279,115071,1,8,0:0:0:0:
272,92,115316,1,8,0:0:0:0:
288,220,115562,1,8,0:0:0:0:
408,140,115808,1,8,0:0:0:0:
388,268,116054,1,8,0:0:0:0:
172,152,116300,5,8,0:0:0:0:
165,128,116422,1,8,0:0:0:0:
165,105,116545,1,8,0:0:0:0:
171,81,116668,1,8,0:0:0:0:
183,61,116791,1,8,0:0:0:0:
200,44,116914,1,8,0:0:0:0:
220,32,117037,1,8,0:0:0:0:
244,26,117160,1,8,0:0:0:0:
267,26,117283,5,8,0:0:0:0:
290,33,117406,1,8,0:0:0:0:
311,45,117529,1,8,0:0:0:0:
327,62,117652,1,8,0:0:0:0:
336,84,117775,2,8,P|338:107|332:152,1,40
173,191,118021,2,8,P|170:167|177:123,1,40
257,125,118267,6,0,P|300:120|349:125,1,80,0|0,3:0|0:0,0:0:0:0:
384,292,118759,1,8,0:3:0:0:
384,292,118882,2,0,P|408:272|420:216,1,80,2|0,0:0|0:0,0:0:0:0:
408,176,119251,2,0,P|380:203|341:211,1,80,2|0,0:0|0:0,0:0:0:0:
180,176,119743,2,0,P|162:140|167:101,1,80,8|0,0:3|0:0,0:0:0:0:
336,122,120235,5,2,0:0:0:0:
248,248,120480,1,2,0:0:0:0:
167,101,120726,1,8,0:3:0:0:
167,101,120849,2,0,P|116:124|104:168,1,80,2|0,0:0|0:0,0:0:0:0:
100,196,121218,1,2,0:0:0:0:
32,64,121464,1,0,0:0:0:0:
12,248,121710,2,0,L|128:244,1,80,8|0,0:3|0:0,0:0:0:0:
224,356,122202,6,0,L|124:348,2,80,2|2|8,0:0|0:0|0:3,0:0:0:0:
272,336,122816,2,0,L|332:332,1,40,2|0,0:0|0:0,0:0:0:0:
476,356,123185,2,0,P|424:348|396:312,1,80,2|0,0:0|0:0,0:0:0:0:
288,240,123677,2,0,P|340:232|368:196,1,80,8|0,0:3|0:0,0:0:0:0:
440,48,124169,5,2,0:0:0:0:
308,124,124415,1,2,0:0:0:0:
452,176,124661,1,8,0:3:0:0:
452,176,124784,2,0,P|460:228|440:272,1,80,2|0,0:0|0:0,0:0:0:0:
436,304,125153,1,2,0:0:0:0:
288,240,125398,1,0,0:0:0:0:
336,384,125644,2,0,L|448:376,1,80,8|0,0:3|0:0,0:0:0:0:
288,240,126136,6,0,L|176:232,1,80,2|2,0:0|0:0,0:0:0:0:
88,328,126628,1,8,0:3:0:0:
88,328,126751,2,0,P|104:292|92:244,1,80,2|0,0:0|0:0,0:0:0:0:
64,212,127120,2,0,P|57:173|73:137,1,80,2|0,0:0|0:0,0:0:0:0:
164,28,127612,2,0,L|172:136,1,80,8|0,0:3|0:0,0:0:0:0:
184,252,128103,5,2,0:0:0:0:
244,128,128349,1,2,0:0:0:0:
64,212,128595,1,8,0:3:0:0:
64,212,128718,2,0,P|116:212|144:228,1,80,2|0,0:0|0:0,0:0:0:0:
184,252,129087,1,2,0:0:0:0:
112,368,129333,1,0,0:0:0:0:
268,308,129579,2,0,L|360:316,1,80,8|0,0:3|0:0,0:0:0:0:
492,232,130071,6,0,L|496:328,2,80,2|2|8,0:0|0:0|0:3,0:0:0:0:
500,180,130685,1,2,0:0:0:0:
500,180,130808,1,0,0:0:0:0:
320,168,131054,2,0,P|376:168|408:152,1,80,2|0,0:0|0:0,0:0:0:0:
468,24,131546,2,0,P|412:24|380:40,1,80,8|0,0:3|0:0,0:0:0:0:
244,184,132038,5,2,0:0:0:0:
284,64,132284,1,2,0:0:0:0:
136,8,132530,1,8,0:3:0:0:
136,8,132653,2,0,L|148:124,1,80,2|0,0:0|0:0,0:0:0:0:
152,140,133021,1,2,0:0:0:0:
284,64,133267,1,0,0:0:0:0:
304,240,133513,2,0,P|248:264|220:260,1,80,8|0,0:3|0:0,0:0:0:0:
56,204,134005,6,0,L|64:112,1,80,2|2,0:0|0:0,0:0:0:0:
4,276,134497,1,8,0:3:0:0:
4,276,134620,2,0,P|56:292|96:280,1,80,2|0,0:0|0:0,0:0:0:0:
124,320,134989,2,0,P|163:316|200:331,1,80,2|0,0:0|0:0,0:0:0:0:
316,384,135480,1,8,0:3:0:0:
280,264,135726,1,0,0:0:0:0:
428,208,135972,5,2,0:0:0:0:
400,344,136218,1,2,0:0:0:0:
336,184,136464,1,8,0:3:0:0:
336,184,136587,2,0,P|360:140|404:120,1,80,2|0,0:0|0:0,0:0:0:0:
432,104,136956,2,0,L|512:116,1,80,2|0,0:0|0:0,0:0:0:0:
360,8,137448,2,0,L|280:20,1,80,8|0,0:3|0:0,0:0:0:0:
192,160,137939,5,2,0:0:0:0:
128,28,138185,1,2,0:0:0:0:
64,172,138431,1,8,0:3:0:0:
64,172,138554,2,0,P|128:180|160:164,1,80,2|0,0:0|0:0,0:0:0:0:
192,160,138923,1,2,0:0:0:0:
52,92,139169,1,2,0:0:0:0:
148,280,139415,1,8,0:3:0:0:
148,280,139538,2,0,P|181:224|179:189,1,80,2|0,0:0|0:0,0:0:0:0:
192,160,139907,5,2,0:0:0:0:
60,260,140153,1,2,0:0:0:0:
232,328,140398,1,8,0:3:0:0:
232,328,140521,2,0,P|284:328|320:352,1,80,2|0,0:0|0:0,0:0:0:0:
356,364,140890,1,2,0:0:0:0:
288,236,141136,1,2,0:0:0:0:
151,359,141382,1,8,0:3:0:0:
151,359,141505,2,0,L|147:267,1,80,2|0,0:0|0:0,0:0:0:0:
144,228,141874,5,2,0:0:0:0:
56,336,142120,1,2,0:0:0:0:
232,328,142366,1,8,0:3:0:0:
232,328,142489,2,0,P|272:296|280:260,1,80,2|0,0:0|0:0,0:0:0:0:
264,220,142857,2,0,P|320:232|352:216,1,80,2|0,0:0|0:0,0:0:0:0:
468,300,143349,1,8,0:3:0:0:
408,136,143595,1,0,0:0:0:0:
408,136,143718,1,0,0:0:0:0:
408,136,143841,6,0,L|416:32,1,80,2|2,0:0|0:0,0:0:0:0:
200,124,144333,1,8,0:3:0:0:
200,124,144456,2,0,L|300:116,1,80,2|0,0:0|0:0,0:0:0:0:
332,112,144825,1,2,0:0:0:0:
252,8,145071,1,0,0:0:0:0:
132,72,145316,2,0,P|112:120|120:160,1,80,8|0,0:3|0:0,0:0:0:0:
276,197,145808,6,0,L|280:105,2,80,2|2|8,0:0|0:0|0:3,0:0:0:0:
272,248,146423,1,2,0:0:0:0:
272,248,146546,1,0,0:0:0:0:
160,352,146792,2,0,P|104:336|80:304,1,80,2|0,0:0|0:0,0:0:0:0:
16,212,147284,2,0,P|72:196|96:164,1,80,8|0,0:3|0:0,0:0:0:0:
168,56,147775,5,2,0:0:0:0:
28,40,148021,1,2,0:0:0:0:
86,181,148267,1,8,0:3:0:0:
86,181,148390,2,0,L|174:177,1,80,2|0,0:0|0:0,0:0:0:0:
220,176,148759,1,8,0:0:0:0:
288,304,149005,1,8,0:0:0:0:
332,136,149251,1,8,0:0:0:0:
332,136,149374,1,8,0:0:0:0:
332,136,149497,1,8,0:0:0:0:
424,344,149743,6,0,L|432:176,1,143.999995605469,2|2,0:0|1:2,0:0:0:0:
248,188,150726,2,0,L|240:20,1,143.999995605469,2|2,0:0|1:2,0:0:0:0:
241,44,151464,1,0,0:0:0:0:
144,128,151710,6,0,L|140:216,1,71.9999978027344,2|0,0:0|0:0,0:0:0:0:
48,220,152202,2,0,L|56:300,1,71.9999978027344,2|0,1:2|0:0,0:0:0:0:
120,360,152694,1,2,0:0:0:0:
28,376,152939,1,0,0:0:0:0:
140,276,153185,1,2,1:2:0:0:
232,284,153431,1,0,0:0:0:0:
344,364,153677,6,0,P|412:364|448:292,1,143.999995605469,2|2,0:0|1:2,0:0:0:0:
256,192,154661,2,0,P|188:192|152:120,1,143.999995605469,2|2,0:0|1:2,0:0:0:0:
151,132,155398,1,0,0:0:0:0:
216,28,155644,6,0,P|228:56|232:108,1,71.9999978027344,2|0,0:0|0:0,0:0:0:0:
68,148,156136,2,0,P|71:112|84:79,1,71.9999978027344,2|0,1:2|0:0,0:0:0:0:
184,216,156628,1,0,1:0:0:0:
184,216,156751,1,0,1:0:0:0:
184,216,156874,1,0,1:0:0:0:
60,260,157120,1,0,1:0:0:0:
60,260,157243,1,0,1:0:0:0:
60,260,157366,1,0,1:0:0:0:
208,360,157612,6,0,B|240:376|240:376|280:320|352:336,1,143.999995605469,2|2,0:0|1:2,0:0:0:0:
464,168,158595,2,0,B|448:200|448:200|504:240|488:312,1,143.999995605469,2|2,0:0|1:2,0:0:0:0:
490,293,159333,1,0,0:0:0:0:
333,333,159579,6,0,P|369:297|417:289,1,71.9999978027344,2|0,0:0|0:0,0:0:0:0:
236,224,160071,2,0,P|285:212|330:231,1,71.9999978027344,2|0,1:2|0:0,0:0:0:0:
144,108,160562,1,2,0:0:0:0:
124,200,160808,1,0,0:0:0:0:
32,180,161054,1,2,1:2:0:0:
52,88,161300,1,0,0:0:0:0:
244,56,161546,6,0,L|332:52,2,80,4|0|8,0:0|0:0|0:0,0:0:0:0:
408,28,162284,2,0,L|396:200,1,160,4|0,0:0|0:0,0:0:0:0:
456,300,163021,1,8,0:0:0:0:
328,256,163267,1,0,0:0:0:0:
152,336,163513,6,0,B|188:368|188:368|244:380|304:336,1,160,4|8,0:0|0:0,0:0:0:0:
396,187,164251,1,0,0:0:0:0:
328,256,164497,2,0,P|276:252|240:232,1,80
164,152,164989,1,8,0:0:0:0:
36,344,165235,6,0,P|48:260|52:176,1,160,4|0,0:0|0:0,0:0:0:0:
40,48,165972,2,0,L|136:32,1,80,8|0,0:0|0:0,0:0:0:0:
242,165,166464,2,0,L|146:149,1,80
280,44,166956,1,8,0:0:0:0:
312,216,167202,1,2,0:0:0:0:
312,216,167694,5,2,1:2:0:0:
488,136,167939,1,8,1:3:0:0:
448,344,168185,1,8,1:2:0:0:
448,344,169415,6,0,P|364:356|276:352,1,132.00000402832,4|0,0:0|0:0,0:0:0:0:
260,356,169907,2,0,P|256:300|268:264,1,88.000002685547,8|0,0:0|0:0,0:0:0:0:
240,220,170275,1,0,0:0:0:0:
240,220,170398,2,0,P|316:208|336:192,1,88.000002685547,2|0,0:0|0:0,0:0:0:0:
488,132,170890,2,0,P|412:120|392:104,1,88.000002685547,8|0,0:0|0:0,0:0:0:0:
252,24,171382,6,0,P|268:88|176:140,1,176.000005371094,2|8,0:0|0:0,0:0:0:0:
88,48,172120,1,0,0:0:0:0:
8,188,172366,2,0,P|56:164|100:180,1,88.000002685547,2|0,0:0|0:0,0:0:0:0:
172,252,172857,1,8,0:0:0:0:
8,188,173103,1,0,0:0:0:0:
72,356,173349,6,0,L|80:260,1,88.000002685547,2|0,0:0|0:0,0:0:0:0:
188,144,173841,2,0,L|194:250,1,88.000002685547,8|0,0:0|0:0,0:0:0:0:
316,360,174333,2,0,B|240:380|184:344|184:344|252:320,1,176.000005371094,2|8,0:0|0:0,0:0:0:0:
400,276,175071,1,0,0:0:0:0:
496,352,175316,6,0,P|488:260|496:148,2,176.000005371094,2|8|2,0:0|0:0|0:0,0:0:0:0:
308,232,176546,1,0,0:0:0:0:
308,232,176669,1,0,0:0:0:0:
308,232,176792,2,0,P|368:224|396:204,1,88.000002685547,8|0,0:0|0:0,0:0:0:0:
488,40,177284,6,0,P|408:76|320:40,1,176.000005371094,2|8,0:0|0:0,0:0:0:0:
176,56,178021,2,0,L|172:-8,2,44.0000013427735
256,204,178513,1,0,0:0:0:0:
256,204,178636,1,0,0:0:0:0:
256,204,178759,2,0,L|260:96,1,88.000002685547,8|0,0:0|0:0,0:0:0:0:
64,36,179251,6,0,B|28:64|28:64|4:128|56:196,1,176.000005371094,2|8,0:0|0:0,0:0:0:0:
256,204,179989,1,0,0:0:0:0:
172,280,180235,2,0,P|108:300|56:284,1,88.000002685547,2|0,0:0|0:0,0:0:0:0:
232,120,180726,2,0,P|275:119|315:137,1,88.000002685547,8|0,0:0|0:0,0:0:0:0:
440,284,181218,6,0,B|468:208|468:208|456:104,1,176.000005371094,2|8,0:0|0:0,0:0:0:0:
440,284,181956,1,0,0:0:0:0:
340,352,182202,2,0,B|312:276|312:276|324:172,1,176.000005371094,2|8,0:0|0:0,0:0:0:0:
457,113,182939,1,0,0:0:0:0:
328,16,183185,6,0,L|224:24,1,88.000002685547,2|0,0:0|0:0,0:0:0:0:
88,56,183677,1,8,0:0:0:0:
244,128,183923,1,0,0:0:0:0:
244,128,184046,1,8,0:0:0:0:
244,128,184169,1,8,0:0:0:0:
108,272,184415,1,8,0:0:0:0:
296,224,184661,1,8,0:0:0:0:
52,188,184907,1,8,0:0:0:0:
52,188,185030,1,8,0:0:0:0:
52,188,185153,6,0,P|16:228|12:312,1,132.00000402832,4|0,0:0|0:0,0:0:0:0:
28,356,185644,2,0,P|96:352|148:360,1,88.000002685547,8|0,0:0|0:0,0:0:0:0:
208,248,186136,2,0,P|244:292|288:304,1,88.000002685547,2|0,0:0|0:0,0:0:0:0:
368,144,186628,2,0,P|328:162|304:198,1,88.000002685547,8|0,0:0|0:0,0:0:0:0:
464,304,187120,6,0,B|432:256|432:212|432:212|464:176|456:120,1,176.000005371094,2|8,0:0|0:0,0:0:0:0:
384,16,187857,1,0,0:0:0:0:
288,173,188103,2,0,P|336:145|396:153,1,88.000002685547,2|0,0:0|0:0,0:0:0:0:
176,144,188595,2,0,P|176:199|139:247,1,88.000002685547,8|0,0:0|0:0,0:0:0:0:
100,56,189087,6,0,P|176:24|260:80,1,176.000005371094,2|8,0:0|0:0,0:0:0:0:
64,200,189825,1,0,0:0:0:0:
8,100,190071,2,0,P|0:48|12:16,1,88.000002685547,2|0,0:0|0:0,0:0:0:0:
16,272,190562,2,0,P|57:285|100:276,1,88.000002685547,8|0,0:0|0:0,0:0:0:0:
336,164,191054,6,0,B|260:148|204:184|204:184|256:204,1,176.000005371094,2|8,0:0|0:0,0:0:0:0:
392,320,191792,1,0,0:0:0:0:
472,236,192038,2,0,P|488:192|480:144,1,88.000002685547,2|0,0:0|0:0,0:0:0:0:
240,197,192530,1,8,0:0:0:0:
404,184,192775,1,0,0:0:0:0:
288,360,193021,6,0,P|240:316|128:328,1,176.000005371094,2|8,0:0|0:0,0:0:0:0:
72,176,193759,1,0,0:0:0:0:
28,280,194005,2,0,L|24:376,1,88.000002685547,2|0,0:0|0:0,0:0:0:0:
20,52,194497,1,8,0:0:0:0:
72,176,194743,1,0,0:0:0:0:
248,60,194989,6,0,P|180:28|108:92,1,176.000005371094,2|8,0:0|0:0,0:0:0:0:
340,140,195726,2,0,P|408:108|480:172,1,176.000005371094,2|0,0:0|0:0,0:0:0:0:
252,236,196464,2,0,L|244:136,1,88.000002685547,8|0,0:0|0:0,0:0:0:0:
468,268,196956,6,0,P|412:252|324:256,1,132.00000402832,2|0,0:0|0:0,0:0:0:0:
280,264,197448,2,0,L|284:360,1,88.000002685547,8|0,0:0|0:0,0:0:0:0:
64,256,197939,2,0,L|60:352,1,88.000002685547,2|0,0:0|0:0,0:0:0:0:
172,192,198431,2,0,L|168:104,1,88.000002685547,8|0,0:0|0:0,0:0:0:0:
64,256,198923,5,2,0:0:0:0:
216,308,199169,1,0,0:0:0:0:
168,104,199415,2,0,P|112:124|88:184,1,88.000002685547,8|0,0:0|0:0,0:0:0:0:
216,308,199907,1,2,0:0:0:0:
64,256,200153,1,0,0:0:0:0:
240,224,200398,2,0,P|291:254|303:317,1,88.000002685547,8|0,0:0|0:0,0:0:0:0:
472,360,200890,5,8,0:0:0:0:
408,236,201136,1,8,0:0:0:0:
316,368,201382,1,8,0:0:0:0:
472,284,201628,1,8,0:0:0:0:
328,188,201874,1,8,0:0:0:0:
412,360,202120,1,8,0:0:0:0:
504,188,202366,1,8,0:0:0:0:
328,292,202612,1,8,0:0:0:0:
164,116,202857,5,8,0:0:0:0:
186,102,202979,1,8,0:0:0:0:
211,93,203102,1,8,0:0:0:0:
237,87,203225,1,8,0:0:0:0:
264,88,203349,2,0,P|288:92|316:88,3,44.0000013427735,8|8|8|8,0:0|0:0|0:0|0:0,0:0:0:0:
400,96,203841,5,8,0:0:0:0:
400,96,203964,1,8,0:0:0:0:
400,96,204087,2,8,L|404:168,1,44.0000013427735
444,216,204333,1,2,0:0:0:0:
444,216,204456,1,2,0:0:0:0:
444,216,204579,2,0,L|398:272,1,44.0000013427735,2|0,0:0|0:0,0:0:0:0:
368,340,204825,6,0,P|312:296|224:328,1,160,4|8,0:0|0:0,0:0:0:0:
120,368,205562,1,0,0:0:0:0:
16,264,205808,2,0,B|44:232|44:232|108:212|164:248,1,160,2|8,0:0|0:0,0:0:0:0:
288,260,206546,1,0,0:0:0:0:
212,124,206792,5,2,0:0:0:0:
157,243,207038,1,0,0:0:0:0:
304,180,207284,2,0,P|344:196|372:244,1,80,8|0,0:0|0:0,0:0:0:0:
232,340,207775,1,2,0:0:0:0:
157,243,208021,1,0,0:0:0:0:
288,260,208267,1,8,0:0:0:0:
84,340,208513,1,0,0:0:0:0:
84,340,208636,1,0,0:0:0:0:
84,340,208759,6,0,L|80:256,1,80,2|0,0:0|0:0,0:0:0:0:
40,112,209251,2,0,L|44:28,1,80,8|0,0:0|0:0,0:0:0:0:
140,172,209743,1,2,0:0:0:0:
24,200,209989,1,0,0:0:0:0:
152,252,210235,1,8,0:0:0:0:
208,124,210480,1,0,0:0:0:0:
352,176,210726,6,0,P|273:186|246:258,1,160,2|8,0:0|0:0,0:0:0:0:
404,276,211464,1,0,0:0:0:0:
464,192,211710,2,0,P|472:128|460:96,1,80,2|0,0:0|0:0,0:0:0:0:
324,248,212202,1,8,0:0:0:0:
248,84,212448,1,0,0:0:0:0:
248,84,212571,1,0,0:0:0:0:
248,84,212694,6,0,B|300:72|328:100|328:100|320:144|272:176,1,160,2|8,0:0|0:0,0:0:0:0:
128,192,213431,1,0,0:0:0:0:
40,136,213677,2,0,P|36:92|60:56,1,80,2|0,0:0|0:0,0:0:0:0:
208,168,214169,2,0,P|212:212|188:248,1,80,8|0,0:0|0:0,0:0:0:0:
44,324,214661,6,0,B|88:308|128:308|128:308|168:344|232:332,2,160,2|8|2,0:0|0:0|0:0,0:0:0:0:
68,152,215890,1,0,0:0:0:0:
8,256,216136,1,8,0:0:0:0:
140,352,216382,1,0,0:0:0:0:
140,352,216505,1,0,0:0:0:0:
140,352,216628,6,0,P|160:300|152:252,1,80,2|0,0:0|0:0,0:0:0:0:
268,200,217120,2,0,P|249:147|212:115,1,80,8|0,0:0|0:0,0:0:0:0:
101,81,217612,2,0,P|76:112|67:151,1,80,2|0,0:0|0:0,0:0:0:0:
159,276,218103,2,0,P|197:285|236:279,1,80,8|0,0:0|0:0,0:0:0:0:
400,192,218595,6,0,P|356:232|388:324,1,160,2|8,0:0|0:0,0:0:0:0:
484,236,219333,1,0,0:0:0:0:
484,236,219579,2,0,L|492:148,1,80,2|0,0:0|0:0,0:0:0:0:
468,36,220071,1,8,0:0:0:0:
328,116,220316,1,0,0:0:0:0:
328,116,220439,1,0,0:0:0:0:
328,116,220562,6,0,P|264:92|160:64,1,160,6|8,0:0|0:0,0:0:0:0:
44,188,221300,1,0,0:0:0:0:
144,180,221546,2,0,P|196:172|240:156,1,80,2|0,0:0|0:0,0:0:0:0:
84,100,222038,1,8,0:0:0:0:
92,272,222284,1,0,0:0:0:0:
92,272,222407,1,0,0:0:0:0:
92,272,222530,6,0,P|164:280|276:304,1,160,6|8,0:0|0:0,0:0:0:0:
448,304,223267,1,0,0:0:0:0:
352,364,223513,2,0,P|332:312|340:260,1,80,2|0,0:0|0:0,0:0:0:0:
464,220,224005,1,8,0:0:0:0:
428,44,224251,1,0,0:0:0:0:
428,44,224374,1,0,0:0:0:0:
428,44,224497,5,2,0:0:0:0:
376,164,224743,1,0,0:0:0:0:
256,112,224989,2,0,P|240:60|256:8,1,80,8|0,0:0|0:0,0:0:0:0:
112,76,225480,2,0,P|70:40|56:-12,1,80,2|0,0:0|0:0,0:0:0:0:
32,172,225972,1,8,0:0:0:0:
168,228,226218,1,0,0:0:0:0:
168,228,226341,1,0,0:0:0:0:
168,228,226464,6,0,P|96:244|84:336,1,160,2|8,0:0|0:0,0:0:0:0:
232,312,227202,1,0,0:0:0:0:
232,312,227448,2,0,P|280:324|316:356,1,80,2|0,0:0|0:0,0:0:0:0:
448,248,227939,2,0,P|400:260|364:292,1,80,8|0,0:0|0:0,0:0:0:0:
240,172,228431,6,0,B|272:200|272:200|328:212|396:156,1,160,6|8,0:0|0:0,0:0:0:0:
424,32,229169,1,0,0:0:0:0:
328,48,229415,2,0,P|304:88|304:132,1,80,2|0,0:0|0:0,0:0:0:0:
328,232,229907,1,8,0:0:0:0:
208,100,230153,1,0,0:0:0:0:
208,100,230275,1,0,0:0:0:0:
208,100,230398,6,0,P|128:108|32:124,1,160,6|8,0:0|0:0,0:0:0:0:
152,236,231136,1,0,0:0:0:0:
244,228,231382,2,0,P|300:240|336:252,1,80,2|0,0:0|0:0,0:0:0:0:
252,348,231874,1,8,0:0:0:0:
152,236,232120,1,0,0:0:0:0:
152,236,232243,1,0,0:0:0:0:
152,236,232366,6,0,P|164:176|256:140,2,160,2|8|2,0:0|0:0|0:0,0:0:0:0:
320,220,233595,1,8,0:0:0:0:
344,212,233718,1,8,0:0:0:0:
368,204,233841,2,0,L|476:216,1,80,8|0,0:0|0:0,0:0:0:0:
340,360,234333,5,8,0:3:0:0:
244,228,234579,1,8,0:3:0:0:
120,360,234825,1,8,0:3:0:0:
24,188,235071,1,8,0:3:0:0:
24,188,236300,6,0,P|80:176|132:104,1,132.00000402832,4|0,0:0|0:0,0:0:0:0:
104,68,236792,2,0,P|164:64|192:40,1,88.000002685547,8|0,0:0|0:0,0:0:0:0:
224,88,237161,1,0,0:0:0:0:
224,88,237284,2,0,P|267:85|305:107,1,88.000002685547,2|0,0:0|0:0,0:0:0:0:
184,264,237775,1,8,0:0:0:0:
127,121,238021,1,0,0:0:0:0:
304,196,238267,6,0,P|264:256|328:352,1,176.000005371094,2|8,0:0|0:0,0:0:0:0:
488,352,239005,1,0,0:0:0:0:
440,260,239251,2,0,L|344:268,1,88.000002685547,2|0,0:0|0:0,0:0:0:0:
176,316,239743,1,8,0:0:0:0:
304,196,239989,1,0,0:0:0:0:
112,244,240235,6,0,B|68:236|32:260|32:260|12:244|12:200,1,132.00000402832,2|0,0:0|0:0,0:0:0:0:
16,160,240726,2,0,P|68:148|108:152,1,88.000002685547,8|0,0:0|0:0,0:0:0:0:
192,312,241218,2,0,P|216:268|208:212,1,88.000002685547,2|0,0:0|0:0,0:0:0:0:
136,80,241710,1,8,0:0:0:0:
112,244,241956,1,0,0:0:0:0:
312,168,242202,6,0,P|356:156|432:252,1,176.000005371094,2|8,0:0|0:0,0:0:0:0:
200,228,242939,1,0,0:0:0:0:
312,168,243185,2,0,P|352:152|380:112,1,88.000002685547,2|0,0:0|0:0,0:0:0:0:
176,80,243677,1,8,0:0:0:0:
200,228,243923,1,0,0:0:0:0:
44,144,244169,6,0,B|84:80|64:8|64:8|20:48,1,176.000005371094,2|8,0:0|0:0,0:0:0:0:
0,272,244907,2,0,P|76:240|148:312,1,176.000005371094,2|0,0:0|0:0,0:0:0:0:
204,168,245644,2,0,P|248:160|308:144,1,88.000002685547,8|0,0:0|0:0,0:0:0:0:
312,316,246136,6,0,P|380:332|508:340,2,176.000005371094,2|8|2,0:0|0:0|0:0,0:0:0:0:
348,168,247366,1,0,0:0:0:0:
440,108,247612,2,0,P|456:156|448:200,1,88.000002685547,8|0,0:0|0:0,0:0:0:0:
228,244,248103,6,0,L|32:264,1,176.000005371094,2|8,0:0|0:0,0:0:0:0:
196,344,248841,1,0,0:0:0:0:
348,168,249087,2,0,L|172:150,1,176.000005371094,2|8,0:0|0:0,0:0:0:0:
52,261,249825,1,0,0:0:0:0:
64,72,250071,5,8,0:3:0:0:
68,96,250194,1,8,0:3:0:0:
72,120,250316,1,8,0:3:0:0:
52,261,250562,1,8,0:0:0:0:
172,150,250808,1,8,0:0:0:0:
176,126,250930,1,8,0:0:0:0:
180,102,251053,1,8,0:0:0:0:
52,261,251300,1,8,0:0:0:0:
76,257,251422,1,8,0:0:0:0:
100,253,251545,1,8,0:0:0:0:
268,352,251792,1,8,0:0:0:0:
268,352,251915,1,8,0:0:0:0:
268,352,252038,6,0,B|296:376|296:376|348:376|400:304,1,132.00000402832,4|0,0:0|0:0,0:0:0:0:
396,276,252530,2,0,P|448:300|496:288,1,88.000002685547,8|0,0:0|0:0,0:0:0:0:
404,132,253021,2,0,P|352:156|304:144,1,88.000002685547,2|0,0:0|0:0,0:0:0:0:
240,16,253513,1,8,0:0:0:0:
188,180,253759,1,0,0:0:0:0:
344,60,254005,6,0,P|272:52|164:52,1,176.000005371094,2|8,0:0|0:0,0:0:0:0:
36,232,254743,1,0,0:0:0:0:
162,260,254989,2,0,P|182:232|186:172,1,88.000002685547,2|0,0:0|0:0,0:0:0:0:
72,40,255480,2,0,P|74:83|97:120,1,88.000002685547,8|0,0:0|0:0,0:0:0:0:
240,304,255972,6,0,B|156:284|104:324|104:324|160:356,1,176.000005371094,2|8,0:0|0:0,0:0:0:0:
292,216,256710,2,0,B|336:236|344:284|344:284|388:264|400:204,1,176.000005371094,2|0,0:0|0:0,0:0:0:0:
240,304,257448,2,0,P|212:348|200:384,1,88.000002685547,8|0,0:0|0:0,0:0:0:0:
396,218,257939,6,0,P|360:150|344:42,1,176.000005371094,2|8,0:0|0:0,0:0:0:0:
484,168,258677,1,0,0:0:0:0:
456,304,258923,1,2,0:0:0:0:
300,232,259169,1,0,0:0:0:0:
352,364,259415,1,8,0:0:0:0:
384,168,259661,1,0,0:0:0:0:
240,304,259907,6,0,P|176:300|120:192,1,176.000005371094,2|8,0:0|0:0,0:0:0:0:
232,92,260644,1,0,0:0:0:0:
254,217,260890,2,0,L|238:313,1,88.000002685547,2|0,0:0|0:0,0:0:0:0:
68,156,261382,1,8,0:0:0:0:
232,92,261628,1,0,0:0:0:0:
239,303,261874,6,0,P|160:288|88:376,1,176.000005371094,2|8,0:0|0:0,0:0:0:0:
332,232,262612,2,0,P|393:290|477:276,1,176.000005371094,2|0,0:0|0:0,0:0:0:0:
460,120,263349,2,0,L|456:20,1,88.000002685547,8|0,0:0|0:0,0:0:0:0:
332,232,263841,6,0,L|340:96,1,132.00000402832,2|0,0:0|0:0,0:0:0:0:
344,44,264333,2,0,P|284:56|236:36,1,88.000002685547,8|0,0:0|0:0,0:0:0:0:
60,96,264825,2,0,P|79:38|120:6,1,88.000002685547,2|0,0:0|0:0,0:0:0:0:
200,172,265316,2,0,P|240:217|247:269,1,88.000002685547,8|0,0:0|0:0,0:0:0:0:
108,372,265808,5,2,0:0:0:0:
20,240,266054,1,0,0:0:0:0:
200,332,266300,2,0,L|300:328,1,88.000002685547,8|0,0:0|0:0,0:0:0:0:
160,248,266792,1,2,0:0:0:0:
32,352,267038,1,0,0:0:0:0:
100,172,267284,2,0,L|112:80,1,88.000002685547,8|0,0:0|0:0,0:0:0:0:
416,40,267775,5,8,0:0:0:0:
384,168,268021,1,8,0:0:0:0:
232,116,268267,1,8,0:0:0:0:
264,244,268513,1,8,0:0:0:0:
456,136,268759,1,8,0:0:0:0:
424,304,269005,1,8,0:0:0:0:
184,200,269251,1,8,0:0:0:0:
224,356,269497,1,8,0:0:0:0:
344,112,269743,6,0,L|268:120,3,44.0000013427735,8|8|8|8,0:0|0:0|0:0|0:0,0:0:0:0:
252,84,270235,2,0,L|208:79,3,44.0000013427735,8|8|8|8,0:0|0:0|0:0|0:0,0:0:0:0:
156,52,270726,2,0,L|80:60,3,44.0000013427735,8|8|8|8,0:0|0:0|0:0|0:0,0:0:0:0:
36,56,271218,1,8,0:0:0:0:
38,82,271340,1,8,0:0:0:0:
40,108,271463,1,8,0:0:0:0:
42,134,271586,1,8,0:0:0:0:
44,160,271710,6,0,L|32:212,5,40,6|0|0|0|8|0,0:0|0:0|0:0|0:0|0:0|0:0,0:0:0:0:
26,286,272448,5,2,0:0:0:0:
49,285,272570,1,0,0:0:0:0:
73,287,272693,1,2,0:0:0:0:
97,292,272816,1,0,0:0:0:0:
119,300,272939,1,0,0:0:0:0:
141,311,273062,1,0,0:0:0:0:
162,326,273185,6,0,L|218:321,5,40,8|0|0|0|2|0,0:0|0:0|0:0|0:0|0:0|0:0,0:0:0:0:
279,287,273922,5,2,0:0:0:0:
297,272,274045,1,0,0:0:0:0:
314,255,274168,1,8,0:0:0:0:
329,237,274291,1,0,0:0:0:0:
342,216,274414,1,0,0:0:0:0:
353,195,274537,1,0,0:0:0:0:
364,174,274661,6,0,L|376:118,5,40,2|0|0|0|8|0,0:0|0:0|0:0|0:0|0:0|0:0,0:0:0:0:
386,53,275398,5,2,0:0:0:0:
363,45,275520,1,0,0:0:0:0:
339,41,275643,1,2,0:0:0:0:
315,39,275766,1,0,0:0:0:0:
291,41,275889,1,0,0:0:0:0:
268,45,276012,1,0,0:0:0:0:
246,55,276136,6,0,L|223:100,5,40,8|0|0|0|2|0,0:0|0:0|0:0|0:0|0:0|0:0,0:0:0:0:
168,152,276874,5,2,0:0:0:0:
145,159,276996,1,0,0:0:0:0:
124,171,277119,1,8,0:0:0:0:
105,185,277242,1,0,0:0:0:0:
89,203,277365,1,0,0:0:0:0:
75,223,277488,1,0,0:0:0:0:
64,244,277612,6,0,L|68:300,3,40,2|0|0|0,0:0|0:0|0:0|0:0,0:0:0:0:
140,292,278103,2,0,L|136:348,3,40,8|0|0|0,0:0|0:0|0:0|0:0,0:0:0:0:
212,252,278595,2,0,L|216:308,3,40,2|8|0|0,0:0|0:0|0:0|0:0,0:0:0:0:
292,296,279087,2,0,L|288:352,3,40,8|0|0|0,0:0|0:0|0:0|0:0,0:0:0:0:
288,216,279579,6,0,P|340:228|412:144,1,160,2|8,0:0|0:0,0:0:0:0:
280,52,280316,2,0,L|188:64,1,80,2|2,0:0|0:0,0:0:0:0:
48,156,280808,1,0,0:0:0:0:
71,151,280930,1,0,0:0:0:0:
95,151,281053,1,8,0:0:0:0:
118,156,281176,1,0,0:0:0:0:
140,167,281299,1,0,0:0:0:0:
158,182,281422,1,0,0:0:0:0:
172,204,281546,6,0,L|168:260,3,40,2|0|0|0,0:0|0:0|0:0|0:0,0:0:0:0:
212,276,282038,2,0,L|208:332,3,40,8|0|0|0,0:0|0:0|0:0|0:0,0:0:0:0:
276,220,282530,2,0,L|280:164,3,40,2|0|0|0,0:0|0:0|0:0|0:0,0:0:0:0:
328,160,283021,2,0,L|332:104,3,40,8|0|0|0,0:0|0:0|0:0|0:0,0:0:0:0:
332,68,283513,5,8,0:0:0:0:
352,56,283635,1,0,0:0:0:0:
375,49,283758,1,8,0:0:0:0:
399,48,283881,1,0,0:0:0:0:
423,51,284004,1,8,0:0:0:0:
445,60,284127,1,0,0:0:0:0:
465,73,284250,1,8,0:0:0:0:
482,91,284373,1,0,0:0:0:0:
496,112,284498,5,8,0:0:0:0:
494,135,284620,1,0,0:0:0:0:
490,159,284743,1,8,0:0:0:0:
483,182,284866,1,0,0:0:0:0:
472,203,284989,1,8,0:0:0:0:
459,224,285112,1,0,0:0:0:0:
444,242,285235,1,8,0:0:0:0:
426,258,285358,1,0,0:0:0:0:
404,272,285480,6,0,L|348:276,1,44.0000013427735,8|8,0:0|0:0,0:0:0:0:
228,216,285726,2,0,L|284:220,1,44.0000013427735,8|8,0:0|0:0,0:0:0:0:
276,344,285972,2,0,L|272:288,1,44.0000013427735,8|8,0:0|0:0,0:0:0:0:
364,148,286218,2,0,L|360:191,1,44.0000013427735,8|8,0:0|0:0,0:0:0:0:
128,304,286464,5,8,0:0:0:0:
126,273,286586,1,8,0:0:0:0:
125,242,286709,1,8,0:0:0:0:
124,211,286832,1,8,0:0:0:0:
123,180,286955,1,8,0:0:0:0:
122,150,287078,1,8,0:0:0:0:
121,119,287201,1,8,0:0:0:0:
120,88,287324,1,8,0:0:0:0:
120,56,287448,1,8,0:0:0:0:
256,188,287939,5,2,0:0:0:0:
256,192,288062,12,0,295316,0:0:0:0:
