osu file format v14

[General]
AudioFilename: audio.mp3
AudioLeadIn: 2000
PreviewTime: 65890
Countdown: 1
SampleSet: Soft
StackLeniency: 0.7
Mode: 0
LetterboxInBreaks: 0
WidescreenStoryboard: 1

[Editor]
Bookmarks: 47448,118267,149743,287939,293349,295316
DistanceSpacing: 1
BeatDivisor: 4
GridSize: 4
TimelineZoom: 1

[Metadata]
Title:Owaranai Kirameki o
TitleUnicode:終わらない煌めきを
Artist:Kicco
ArtistUnicode:Kicco
Creator:sodarose
Version:Normal
Source:タユタマ2 -you're the only one-
Tags:tayutama2 lump of sugar full version ED ending 泉戸 こはく 西条绯文 汤ノ花 菜乃 泉戸 ましろ galgame 水野大輔 mizuno daisuke
BeatmapID:1476758
BeatmapSetID:693265

[Difficulty]
HPDrainRate:3
CircleSize:3
OverallDifficulty:3.5
ApproachRate:4.3
SliderMultiplier:1
SliderTickRate:1

[Events]
//Background and Video events
0,0,"502.png",0,0
//Break Periods
//Storyboard Layer 0 (Background)
//Storyboard Layer 1 (Fail)
//Storyboard Layer 2 (Pass)
//Storyboard Layer 3 (Foreground)
//Storyboard Sound Samples

[TimingPoints]
235,491.803278688525,4,2,1,60,1,0
15972,-100,4,2,1,30,0,0
16464,-100,4,2,1,50,0,0
16710,-100,4,2,1,30,0,0
17448,-100,4,2,1,50,0,0
17939,-100,4,2,1,30,0,0
18431,-100,4,2,1,50,0,0
18923,-100,4,2,1,30,0,0
19415,-100,4,2,1,50,0,0
19907,-100,4,2,1,30,0,0
20398,-100,4,2,1,50,0,0
20890,-100,4,2,1,30,0,0
21382,-100,4,2,1,50,0,0
21874,-100,4,2,1,30,0,0
22366,-100,4,2,1,50,0,0
22857,-100,4,2,1,30,0,0
23349,-100,4,2,1,50,0,0
23841,-100,4,2,1,30,0,0
24333,-100,4,2,1,50,0,0
24825,-100,4,2,1,30,0,0
25316,-100,4,2,1,50,0,0
25808,-100,4,2,1,30,0,0
26300,-100,4,2,1,50,0,0
26792,-100,4,2,1,30,0,0
27284,-100,4,2,1,50,0,0
27775,-100,4,2,1,30,0,0
28267,-100,4,2,1,50,0,0
28759,-100,4,2,1,30,0,0
29251,-100,4,2,1,50,0,0
29743,-100,4,2,1,30,0,0
30235,-100,4,2,1,50,0,0
30726,-100,4,2,1,30,0,0
31218,-100,4,2,1,50,0,0
31710,-100,4,2,1,30,0,0
32202,-100,4,2,1,50,0,0
32694,-100,4,2,1,30,0,0
33185,-100,4,2,1,50,0,0
33677,-100,4,2,1,30,0,0
34169,-100,4,2,1,50,0,0
34661,-100,4,2,1,30,0,0
35153,-100,4,2,1,50,0,0
35644,-100,4,2,1,30,0,0
36136,-100,4,2,1,50,0,0
36628,-100,4,2,1,30,0,0
37120,-100,4,2,1,50,0,0
37612,-100,4,2,1,30,0,0
38103,-100,4,2,1,50,0,0
38595,-100,4,2,1,30,0,0
39087,-100,4,2,1,50,0,0
39579,-100,4,2,1,30,0,0
40071,-100,4,2,1,50,0,0
40562,-100,4,2,1,30,0,0
41054,-100,4,2,1,50,0,0
41300,-100,4,2,1,30,0,0
42038,-100,4,2,1,50,0,0
42530,-100,4,2,1,30,0,0
43021,-100,4,2,1,50,0,0
43513,-100,4,2,1,30,0,0
44005,-100,4,2,1,50,0,0
44497,-100,4,2,1,30,0,0
44989,-100,4,2,1,50,0,0
45480,-100,4,2,1,30,0,0
45972,-100,4,2,1,50,0,0
67120,-100,4,2,1,60,0,1
102530,-100,4,2,1,60,0,0
118021,-100,4,2,1,30,0,0
118759,-100,4,2,1,50,0,0
119251,-100,4,2,1,30,0,0
119743,-100,4,2,1,50,0,0
120235,-100,4,2,1,30,0,0
120726,-100,4,2,1,50,0,0
121218,-100,4,2,1,30,0,0
121710,-100,4,2,1,50,0,0
122202,-100,4,2,1,30,0,0
122694,-100,4,2,1,50,0,0
123185,-100,4,2,1,30,0,0
123677,-100,4,2,1,50,0,0
124169,-100,4,2,1,30,0,0
124661,-100,4,2,1,50,0,0
125153,-100,4,2,1,30,0,0
125644,-100,4,2,1,50,0,0
126136,-100,4,2,1,30,0,0
126628,-100,4,2,1,50,0,0
127120,-100,4,2,1,30,0,0
127612,-100,4,2,1,50,0,0
128103,-100,4,2,1,30,0,0
128595,-100,4,2,1,50,0,0
129087,-100,4,2,1,30,0,0
129579,-100,4,2,1,50,0,0
130071,-100,4,2,1,30,0,0
130562,-100,4,2,1,50,0,0
131054,-100,4,2,1,30,0,0
131546,-100,4,2,1,50,0,0
132038,-100,4,2,1,30,0,0
132530,-100,4,2,1,50,0,0
133021,-100,4,2,1,30,0,0
133513,-100,4,2,1,50,0,0
134005,-100,4,2,1,30,0,0
134497,-100,4,2,1,50,0,0
134989,-100,4,2,1,30,0,0
135480,-100,4,2,1,50,0,0
135972,-100,4,2,1,30,0,0
136464,-100,4,2,1,50,0,0
136956,-100,4,2,1,30,0,0
137448,-100,4,2,1,50,0,0
137939,-100,4,2,1,30,0,0
138431,-100,4,2,1,50,0,0
138923,-100,4,2,1,30,0,0
139415,-100,4,2,1,50,0,0
139907,-100,4,2,1,30,0,0
140398,-100,4,2,1,50,0,0
140890,-100,4,2,1,30,0,0
141382,-100,4,2,1,50,0,0
141874,-100,4,2,1,30,0,0
142366,-100,4,2,1,50,0,0
142857,-100,4,2,1,30,0,0
143349,-100,4,2,1,50,0,0
143595,-100,4,2,1,30,0,0
144333,-100,4,2,1,50,0,0
144456,-100,4,2,1,30,0,0
145316,-100,4,2,1,50,0,0
145808,-100,4,2,1,30,0,0
146300,-100,4,2,1,50,0,0
146792,-100,4,2,1,30,0,0
147284,-100,4,2,1,50,0,0
147530,-100,4,2,1,30,0,0
148267,-100,4,2,1,50,0,0
169415,-100,4,2,1,60,0,1
204825,-100,4,2,1,50,0,0
236300,-100,4,2,1,70,0,1
271464,-100,4,2,1,50,0,0
271710,-100,4,2,1,50,0,1
271833,-100,4,2,1,50,0,0
287448,-100,4,2,1,30,0,0
287939,-100,4,2,1,50,0,0
293349,-100,4,2,1,15,0,0

[Colours]
Combo1 : 181,73,203
Combo2 : 240,28,198
Combo3 : 38,136,255
Combo4 : 242,24,57

[HitObjects]
108,84,235,6,0,P|168:72|216:88,1,100,2|8,0:0|0:0,0:0:0:0:
240,116,972,2,0,L|232:232,1,100,2|0,0:0|0:0,0:0:0:0:
240,264,1710,1,8,0:0:0:0:
264,360,2202,2,0,P|212:360|164:324,2,100,2|8|2,0:0|0:0|0:0,0:0:0:0:
332,288,3677,2,0,L|364:236,1,50,8|0,0:0|0:0,0:0:0:0:
384,204,4169,6,0,P|392:136|388:104,1,100,2|8,0:0|0:0,0:0:0:0:
372,56,4907,1,0,0:0:0:0:
372,56,5153,2,0,P|324:70|274:74,1,100,2|8,0:0|0:0,0:0:0:0:
180,44,6136,2,0,P|112:56|84:84,1,100,2|8,0:0|0:0,0:0:0:0:
48,100,6874,2,0,P|64:148|56:200,1,100,2|0,0:0|0:0,0:0:0:0:
32,240,7612,1,8,0:0:0:0:
44,340,8103,6,0,L|152:332,1,100,2|8,0:0|0:0,0:0:0:0:
240,308,9087,2,0,L|339:315,1,100,2|8,0:0|0:0,0:0:0:0:
436,344,10071,2,0,P|448:292|440:236,1,100,2|8,0:0|0:0,0:0:0:0:
492,160,11054,2,0,P|457:119|408:91,1,100,2|8,0:0|0:0,0:0:0:0:
320,72,12038,6,0,L|308:20,2,50,8|8|8,0:0|0:0|0:0,0:0:0:0:
324,120,12775,1,8,0:0:0:0:
324,120,13021,2,0,L|272:108,2,50,8|8|8,0:0|0:0|0:0,0:0:0:0:
372,132,13759,1,8,0:0:0:0:
372,132,14005,6,0,B|408:216|360:300|360:300|300:216|200:264,1,350,8|0,0:0|0:0,0:0:0:0:
160,276,15972,6,0,L|148:176,1,100,2|8,0:0|0:3,0:0:0:0:
128,132,16710,1,0,0:0:0:0:
128,132,16956,2,0,P|184:120|216:84,1,100,2|8,0:0|0:3,0:0:0:0:
132,32,17939,1,2,0:0:0:0:
132,32,18185,1,2,0:0:0:0:
132,32,18431,2,0,P|76:44|44:80,1,100,8|2,0:3|0:0,0:0:0:0:
28,120,19169,2,0,L|32:188,1,50,0|8,0:0|0:3,0:0:0:0:
36,272,19907,5,2,0:0:0:0:
36,272,20153,1,2,0:0:0:0:
36,272,20398,2,0,P|88:276|128:300,1,100,8|2,0:3|0:0,0:0:0:0:
200,368,21382,1,8,0:3:0:0:
268,296,21874,1,2,0:0:0:0:
268,296,22120,1,2,0:0:0:0:
268,296,22366,2,0,P|284:252|276:188,1,100,8|2,0:3|0:0,0:0:0:0:
256,156,23103,2,0,P|228:144|204:124,1,50,0|8,0:0|0:3,0:0:0:0:
264,48,23841,6,0,L|328:40,1,50,2|2,0:0|0:0,0:0:0:0:
364,40,24333,2,0,L|464:56,1,100,8|2,0:3|0:0,0:0:0:0:
484,152,25316,1,8,0:3:0:0:
500,252,25808,2,0,L|480:316,1,50,2|2,0:0|0:0,0:0:0:0:
476,348,26300,2,0,L|360:356,1,100,8|2,0:3|0:0,0:0:0:0:
276,364,27284,1,8,0:3:0:0:
200,296,27775,6,0,L|188:240,1,50,2|2,0:0|0:0,0:0:0:0:
180,196,28267,2,0,P|224:204|272:168,1,100,8|2,0:3|0:0,0:0:0:0:
320,92,29251,1,8,0:3:0:0:
244,28,29743,2,0,L|180:40,1,50,2|2,0:0|0:0,0:0:0:0:
144,40,30235,2,0,P|152:84|116:132,1,100,8|2,0:3|0:0,0:0:0:0:
76,140,30972,1,0,0:0:0:0:
76,140,31218,1,8,0:3:0:0:
4,208,31710,6,0,L|12:268,1,50,2|2,0:0|0:0,0:0:0:0:
60,268,32202,2,0,P|104:280|160:248,1,100,8|2,0:3|0:0,0:0:0:0:
200,172,33185,1,8,0:3:0:0:
260,252,33677,1,2,0:0:0:0:
260,252,33923,1,2,0:0:0:0:
260,252,34169,2,0,P|304:273|351:261,1,100,8|2,0:3|0:0,0:0:0:0:
424,192,35153,1,8,0:3:0:0:
436,92,35644,6,0,L|380:68,1,50,2|2,0:0|0:0,0:0:0:0:
344,52,36136,2,0,P|300:68|232:64,1,100,8|2,0:3|0:0,0:0:0:0:
200,52,36874,1,0,0:0:0:0:
200,52,37120,1,8,0:3:0:0:
168,148,37612,2,0,L|152:208,1,50,2|2,0:0|0:0,0:0:0:0:
120,232,38103,2,0,P|176:232|220:264,1,100,8|2,0:3|0:0,0:0:0:0:
244,292,38841,1,0,0:0:0:0:
244,292,39087,1,8,0:3:0:0:
148,320,39579,6,0,L|84:340,1,50,2|2,0:0|0:0,0:0:0:0:
52,352,40071,2,0,L|36:244,1,100,8|2,0:3|0:0,0:0:0:0:
24,152,41054,2,0,L|32:100,1,50,8|0,0:3|0:0,0:0:0:0:
40,52,41546,1,2,0:0:0:0:
40,52,41792,1,2,0:0:0:0:
40,52,42038,2,0,P|100:48|144:80,1,100,8|2,0:3|0:0,0:0:0:0:
156,164,43021,1,8,0:3:0:0:
228,236,43513,6,0,L|272:212,1,50,2|2,0:0|0:0,0:0:0:0:
320,196,44005,2,0,L|308:88,1,100,8|2,0:3|0:0,0:0:0:0:
384,32,44989,1,8,0:3:0:0:
444,112,45480,2,0,L|436:172,2,50,2|2|8,0:0|0:0|0:3,0:0:0:0:
384,32,46464,2,0,L|324:36,1,50,8|8,0:0|0:0,0:0:0:0:
284,48,46956,2,0,L|234:44,1,50,8|8,0:0|0:0,0:0:0:0:
184,40,47448,6,0,P|200:104|184:144,1,100,2|2,0:0|1:2,0:0:0:0:
128,216,48431,2,0,L|248:224,1,100,2|2,0:0|1:2,0:0:0:0:
312,276,49415,2,0,P|360:286|406:270,2,100,2|2|2,0:0|1:2|0:0,0:0:0:0:
228,224,50890,1,2,1:2:0:0:
296,152,51382,6,0,P|304:100|304:40,1,100,2|2,0:0|1:2,0:0:0:0:
208,24,52366,2,0,P|209:73|216:123,1,100,2|2,0:0|1:2,0:0:0:0:
136,180,53349,2,0,P|128:229|127:279,2,100,2|2|2,0:0|1:2|0:0,0:0:0:0:
228,224,54825,1,2,1:2:0:0:
320,184,55316,6,0,P|352:168|424:180,1,100,2|2,0:0|1:2,0:0:0:0:
468,260,56300,2,0,P|436:276|364:264,1,100,2|2,0:0|1:2,0:0:0:0:
320,184,57284,2,0,P|328:124|328:68,2,100,2|2|2,0:0|1:2|0:0,0:0:0:0:
228,224,58759,1,2,1:2:0:0:
236,124,59251,6,0,P|208:100|128:104,1,100,4|8,0:0|0:0,0:0:0:0:
100,108,59989,2,0,L|92:220,1,100,4|0,0:0|0:0,0:0:0:0:
92,256,60726,1,8,0:0:0:0:
44,344,61218,2,0,P|76:356|156:332,1,100,4|8,0:0|0:0,0:0:0:0:
172,308,61956,2,0,P|197:330|280:336,1,100,2|0,0:0|0:0,0:0:0:0:
304,316,62694,1,8,0:0:0:0:
304,316,62939,6,0,L|312:216,1,100,4|0,0:0|0:0,0:0:0:0:
348,180,63677,2,0,P|296:180|256:148,1,100,8|2,0:0|0:0,0:0:0:0:
204,68,64661,1,8,0:0:0:0:
204,68,64907,2,0,P|256:68|296:36,1,100,0|2,1:0|1:2,0:0:0:0:
324,0,65644,1,8,1:3:0:0:
324,0,65890,1,8,1:2:0:0:
364,256,67120,6,0,L|379:157,1,100,4|8,0:0|0:0,0:0:0:0:
388,108,67857,1,0,0:0:0:0:
388,108,68103,2,0,P|320:92|292:104,1,100,2|8,0:0|0:0,0:0:0:0:
224,172,69087,2,0,P|176:184|130:166,1,100,2|8,0:0|0:0,0:0:0:0:
100,128,69825,1,0,0:0:0:0:
76,84,70071,2,0,L|92:32,2,50,2|0|8,0:0|0:0|0:0,0:0:0:0:
28,180,71054,6,0,L|36:280,1,100,2|8,0:0|0:0,0:0:0:0:
36,328,71792,2,0,P|80:304|144:312,1,100,2|0,0:0|0:0,0:0:0:0:
176,324,72530,1,8,0:0:0:0:
268,368,73021,2,0,L|280:260,1,100,2|8,0:0|0:0,0:0:0:0:
252,228,73759,1,0,0:0:0:0:
252,228,74005,2,0,L|352:196,1,100,2|8,0:0|0:0,0:0:0:0:
424,132,74989,6,0,P|444:184|436:236,2,100,2|8|2,0:0|0:0|0:0,0:0:0:0:
349,65,76464,1,8,0:0:0:0:
248,64,76956,2,0,P|192:84|144:72,1,100,2|8,0:0|0:0,0:0:0:0:
108,52,77694,1,0,0:0:0:0:
108,52,77939,2,0,L|116:172,1,100,2|8,0:0|0:0,0:0:0:0:
72,244,78923,6,0,P|108:256|168:240,1,100,2|8,0:0|0:0,0:0:0:0:
200,204,79661,1,0,0:0:0:0:
200,204,79907,2,0,P|219:236|276:262,1,100,2|8,0:0|0:0,0:0:0:0:
316,236,80644,1,0,0:0:0:0:
316,236,80890,2,0,L|308:336,1,100,2|8,0:0|0:0,0:0:0:0:
404,304,81874,2,0,P|416:284|424:256,1,50,8|8,0:0|0:0,0:0:0:0:
460,224,82366,2,0,P|457:200|447:173,1,50,8|8,0:0|0:0,0:0:0:0:
444,128,82857,6,0,P|396:136|352:108,1,100,4|8,0:0|0:0,0:0:0:0:
340,64,83595,1,0,0:0:0:0:
340,64,83841,2,0,L|228:60,1,100,2|8,0:0|0:0,0:0:0:0:
144,32,84825,2,0,L|136:136,1,100,2|8,0:0|0:0,0:0:0:0:
128,180,85562,1,0,0:0:0:0:
128,180,85808,2,0,P|160:200|232:196,1,100,2|8,0:0|0:0,0:0:0:0:
320,216,86792,6,0,P|364:184|408:180,2,100,2|8|2,0:0|0:0|0:0,0:0:0:0:
252,292,88267,1,8,0:0:0:0:
188,368,88759,2,0,P|140:360|100:316,1,100,2|8,0:0|0:0,0:0:0:0:
80,280,89497,1,0,0:0:0:0:
80,280,89743,2,0,P|112:244|120:180,1,100,2|8,0:0|0:0,0:0:0:0:
72,108,90726,6,0,L|176:100,1,100,2|8,0:0|0:0,0:0:0:0:
216,76,91464,1,0,0:0:0:0:
216,76,91710,2,0,P|264:96|316:88,1,100,2|8,0:0|0:0,0:0:0:0:
400,44,92694,2,0,L|412:152,1,100,2|8,0:0|0:0,0:0:0:0:
392,192,93431,2,0,L|384:300,1,100,2|0,0:0|0:0,0:0:0:0:
400,340,94169,1,8,0:0:0:0:
300,320,94661,6,0,P|260:304|188:324,1,100,2|8,0:0|0:0,0:0:0:0:
160,332,95398,1,0,0:0:0:0:
160,332,95644,2,0,P|135:296|64:272,1,100,2|8,0:0|0:0,0:0:0:0:
40,292,96382,1,0,0:0:0:0:
40,292,96628,2,0,L|44:184,2,100,2|8|2,0:0|0:0|0:0,0:0:0:0:
100,372,98103,1,8,0:0:0:0:
164,296,98595,6,0,L|168:240,1,50,8|8,0:0|0:0,0:0:0:0:
180,196,99087,2,0,L|116:216,2,50,8|8|8,0:0|0:0|0:0,0:0:0:0:
228,184,99825,1,8,0:0:0:0:
228,184,100071,2,0,L|232:128,1,50,8|8,0:0|0:0,0:0:0:0:
232,84,100562,6,0,B|336:100|392:32|392:32|352:128|412:208,1,350,8|2,0:0|0:0,0:0:0:0:
432,240,102530,6,0,L|416:344,1,100,4|8,0:0|0:0,0:0:0:0:
376,312,103267,2,0,P|324:288|280:296,1,100,2|0,0:0|0:0,0:0:0:0:
236,316,104005,1,8,0:0:0:0:
148,360,104497,2,0,P|100:368|40:352,2,100,2|8|2,0:0|0:0|0:0,0:0:0:0:
236,316,105972,2,0,L|232:248,1,50,8|0,0:0|0:0,0:0:0:0:
248,216,106464,6,0,P|204:212|156:176,1,100,2|8,0:0|0:0,0:0:0:0:
128,140,107202,1,0,0:0:0:0:
128,140,107448,2,0,P|177:134|216:104,1,100,2|8,0:0|0:0,0:0:0:0:
160,20,108431,2,0,L|280:16,1,100,2|8,0:0|0:0,0:0:0:0:
308,28,109169,2,0,P|336:76|332:124,1,100,2|0,0:0|0:0,0:0:0:0:
320,168,109907,1,8,0:0:0:0:
268,252,110398,6,0,L|384:260,1,100,2|8,0:0|0:0,0:0:0:0:
416,348,111382,2,0,L|300:356,1,100,2|8,0:0|0:0,0:0:0:0:
216,340,112366,2,0,P|160:356|100:344,2,100,2|8|2,0:0|0:0|0:0,0:0:0:0:
268,252,113841,1,8,0:0:0:0:
288,156,114333,6,0,L|356:144,2,50,8|8|8,0:0|0:0|0:0,0:0:0:0:
240,164,115071,1,8,0:0:0:0:
240,164,115316,2,0,L|184:156,1,50,8|8,0:0|0:0,0:0:0:0:
144,140,115808,2,0,L|94:147,1,50,8|8,0:0|0:0,0:0:0:0:
48,160,116300,6,0,B|24:228|28:272|28:272|64:284|84:320|84:320|112:280|116:224|116:224|156:228|176:256,1,350,8|2,0:0|0:0,0:0:0:0:
192,288,118267,6,0,P|184:316|172:348,2,50,2|2|8,0:0|0:0|0:3,0:0:0:0:
228,196,119251,2,0,P|264:216|328:224,1,100,2|8,0:0|0:3,0:0:0:0:
412,184,120235,1,2,0:0:0:0:
412,184,120480,1,2,0:0:0:0:
412,184,120726,2,0,L|400:80,1,100,8|2,0:3|0:0,0:0:0:0:
380,40,121464,2,0,L|316:32,1,50,0|8,0:0|0:3,0:0:0:0:
236,60,122202,6,0,L|224:8,2,50,2|2|8,0:0|0:0|0:3,0:0:0:0:
288,144,123185,2,0,P|228:160|176:140,1,100,2|8,0:0|0:3,0:0:0:0:
112,92,124169,1,2,0:0:0:0:
112,92,124415,1,2,0:0:0:0:
112,92,124661,2,0,L|100:196,1,100,8|2,0:3|0:0,0:0:0:0:
84,240,125398,2,0,L|88:300,1,50,0|8,0:0|0:3,0:0:0:0:
184,312,126136,6,0,L|176:376,2,50,2|2|8,0:0|0:0|0:3,0:0:0:0:
200,212,127120,2,0,L|312:208,1,100,2|8,0:0|0:3,0:0:0:0:
372,276,128103,1,2,0:0:0:0:
372,276,128349,1,2,0:0:0:0:
372,276,128595,2,0,P|400:220|384:168,1,100,8|2,0:3|0:0,0:0:0:0:
368,140,129333,2,0,L|376:80,1,50,0|8,0:0|0:3,0:0:0:0:
460,36,130071,6,0,L|468:100,1,50,2|2,0:0|0:0,0:0:0:0:
464,137,130562,2,0,P|416:149|348:129,1,100,8|2,0:3|0:0,0:0:0:0:
288,80,131546,1,8,0:3:0:0:
200,32,132038,1,2,0:0:0:0:
200,32,132284,1,2,0:0:0:0:
200,32,132530,2,0,L|192:140,1,100,8|2,0:3|0:0,0:0:0:0:
212,180,133267,2,0,L|220:240,1,50,0|8,0:0|0:3,0:0:0:0:
156,308,134005,6,0,L|164:368,2,50,2|2|8,0:0|0:0|0:3,0:0:0:0:
80,244,134989,2,0,P|64:192|88:140,1,100,2|8,0:0|0:3,0:0:0:0:
156,88,135972,2,0,L|212:104,1,50,2|2,0:0|0:0,0:0:0:0:
252,108,136464,2,0,P|268:56|244:4,1,100,8|2,0:3|0:0,0:0:0:0:
152,4,137448,1,8,0:3:0:0:
76,68,137939,6,0,L|64:132,1,50,2|2,0:0|0:0,0:0:0:0:
44,160,138431,2,0,P|92:160|152:200,1,100,8|2,0:3|0:0,0:0:0:0:
160,228,139169,1,0,0:0:0:0:
160,228,139415,1,8,0:3:0:0:
64,260,139907,2,0,L|52:324,1,50,2|2,0:0|0:0,0:0:0:0:
44,356,140398,2,0,P|96:376|148:360,1,100,8|2,0:3|0:0,0:0:0:0:
184,348,141136,1,0,0:0:0:0:
184,348,141382,1,8,0:3:0:0:
268,292,141874,6,0,L|264:240,2,50,2|2|8,0:0|0:0|0:3,0:0:0:0:
340,364,142857,2,0,P|392:356|436:312,1,100,2|8,0:0|0:3,0:0:0:0:
452,280,143595,1,0,0:0:0:0:
452,280,143841,2,0,L|448:208,1,50,2|2,0:0|0:0,0:0:0:0:
464,184,144333,2,0,L|356:176,2,100,8|2|8,0:3|0:0|0:3,0:0:0:0:
472,84,145808,6,0,L|488:24,2,50,2|2|8,0:0|0:0|0:3,0:0:0:0:
372,84,146792,2,0,P|324:72|268:96,1,100,2|8,0:0|0:3,0:0:0:0:
240,124,147530,1,0,0:0:0:0:
240,124,147775,2,0,L|248:184,2,50,2|2|8,0:0|0:0|0:3,0:0:0:0:
172,52,148759,2,0,P|142:69|120:100,1,50,8|8,0:0|0:0,0:0:0:0:
88,108,149251,2,0,P|78:141|83:178,1,50,8|8,0:0|0:0,0:0:0:0:
92,204,149743,6,0,P|136:252|144:296,1,100,2|2,0:0|1:2,0:0:0:0:
216,356,150726,2,0,P|231:309|267:275,1,100,2|2,0:0|1:2,0:0:0:0:
356,232,151710,2,0,L|472:248,2,100,2|2|2,0:0|1:2|0:0,0:0:0:0:
272,176,153185,1,2,1:2:0:0:
196,112,153677,6,0,L|96:98,1,100,2|2,0:0|1:2,0:0:0:0:
80,196,154661,2,0,L|179:209,1,100,2|2,0:0|1:2,0:0:0:0:
272,176,155644,2,0,P|292:136|288:80,2,100,2|2|2,0:0|1:2|0:0,0:0:0:0:
179,209,157120,1,2,1:2:0:0:
80,224,157612,6,0,P|56:292|64:328,1,100,2|2,0:0|1:2,0:0:0:0:
152,360,158595,2,0,L|268:352,1,100,2|2,0:0|1:2,0:0:0:0:
336,300,159579,2,0,P|384:328|440:328,2,100,2|2|2,0:0|1:2|0:0,0:0:0:0:
320,200,161054,1,2,1:2:0:0:
408,152,161546,6,0,P|416:84|392:36,1,100,4|8,0:0|0:0,0:0:0:0:
360,32,162284,2,0,L|260:40,1,100,4|0,0:0|0:0,0:0:0:0:
212,24,163021,1,8,0:0:0:0:
148,100,163513,2,0,P|124:156|136:212,1,100,4|8,0:0|0:0,0:0:0:0:
156,236,164251,2,0,P|200:216|252:224,1,100,2|0,0:0|0:0,0:0:0:0:
288,256,164989,1,8,0:0:0:0:
288,256,165235,6,0,L|276:368,1,100,4|0,0:0|0:0,0:0:0:0:
228,344,165972,2,0,L|128:352,1,100,8|2,0:0|0:0,0:0:0:0:
28,364,166956,1,8,0:0:0:0:
28,364,167202,2,0,P|32:316|64:276,1,100,0|2,1:0|1:2,0:0:0:0:
100,244,167939,1,8,1:3:0:0:
100,244,168185,1,8,1:2:0:0:
84,104,169415,6,0,L|196:96,1,100,4|8,0:0|0:0,0:0:0:0:
228,72,170153,1,0,0:0:0:0:
228,72,170398,2,0,P|280:96|328:88,1,100,2|8,0:0|0:0,0:0:0:0:
408,40,171382,2,0,L|428:152,1,100,2|8,0:0|0:0,0:0:0:0:
440,188,172120,1,0,0:0:0:0:
440,188,172366,2,0,L|492:156,2,50,2|0|8,0:0|0:0|0:0,0:0:0:0:
364,252,173349,6,0,P|308:240|264:260,1,100,2|8,0:0|0:0,0:0:0:0:
236,292,174087,2,0,L|212:184,1,100,2|0,0:0|0:0,0:0:0:0:
212,144,174825,1,8,0:0:0:0:
188,48,175316,2,0,P|124:32|88:48,1,100,2|8,0:0|0:0,0:0:0:0:
70,87,176054,1,0,0:0:0:0:
49,132,176300,2,0,P|113:148|149:132,1,100,2|8,0:0|0:0,0:0:0:0:
188,48,177284,6,0,L|308:44,1,100,2|8,0:0|0:0,0:0:0:0:
336,28,178021,1,0,0:0:0:0:
336,28,178267,2,0,P|364:80|348:128,1,100,2|8,0:0|0:0,0:0:0:0:
292,196,179251,2,0,P|264:248|280:296,2,100,2|8|2,0:0|0:0|0:0,0:0:0:0:
368,260,180726,1,8,0:0:0:0:
272,285,181218,6,0,L|172:293,1,100,2|8,0:0|0:0,0:0:0:0:
132,324,181956,1,0,0:0:0:0:
132,324,182202,2,0,P|84:316|48:276,1,100,2|8,0:0|0:0,0:0:0:0:
56,232,182939,1,0,0:0:0:0:
56,232,183185,2,0,L|68:132,1,100,2|8,0:0|0:0,0:0:0:0:
52,32,184169,2,0,L|120:24,1,50,8|8,0:0|0:0,0:0:0:0:
148,44,184661,2,0,L|197:49,1,50,8|8,0:0|0:0,0:0:0:0:
244,32,185153,6,0,P|288:52|344:40,1,100,4|8,0:0|0:0,0:0:0:0:
385,27,185890,1,0,0:0:0:0:
385,27,186136,2,0,L|427:118,1,100,2|8,0:0|0:0,0:0:0:0:
464,210,187120,2,0,P|400:194|352:198,1,100,2|8,0:0|0:0,0:0:0:0:
324,220,187857,1,0,0:0:0:0:
324,220,188103,2,0,L|337:120,1,100,2|8,0:0|0:0,0:0:0:0:
276,40,189087,6,0,L|176:52,1,100,2|8,0:0|0:0,0:0:0:0:
128,60,189825,2,0,P|116:92|124:168,1,100,2|0,0:0|0:0,0:0:0:0:
144,200,190562,1,8,0:0:0:0:
224,260,191054,2,0,L|336:248,2,100,2|8|2,0:0|0:0|0:0,0:0:0:0:
132,296,192530,1,8,0:0:0:0:
144,200,193021,6,0,P|184:168|232:160,1,100,2|8,0:0|0:0,0:0:0:0:
269,192,193759,1,0,0:0:0:0:
308,224,194005,2,0,P|348:256|396:264,1,100,2|8,0:0|0:0,0:0:0:0:
464,192,194989,2,0,L|472:92,1,100,2|8,0:0|0:0,0:0:0:0:
484,44,195726,2,0,L|384:52,1,100,2|0,0:0|0:0,0:0:0:0:
336,44,196464,1,8,0:0:0:0:
248,92,196956,6,0,P|176:100|140:76,1,100,2|8,0:0|0:0,0:0:0:0:
112,60,197694,1,0,0:0:0:0:
112,60,197939,2,0,L|100:176,1,100,2|8,0:0|0:0,0:0:0:0:
88,208,198677,1,0,0:0:0:0:
88,208,198923,2,0,L|192:200,2,100,2|8|2,0:0|0:0|0:0,0:0:0:0:
28,288,200398,1,8,0:0:0:0:
108,348,200890,6,0,L|168:344,1,50,8|8,0:0|0:0,0:0:0:0:
208,332,201382,2,0,L|196:388,2,50,8|8|8,0:0|0:0|0:0,0:0:0:0:
220,284,202120,1,8,0:0:0:0:
220,284,202366,2,0,L|280:280,1,50,8|8,0:0|0:0,0:0:0:0:
320,280,202857,6,0,P|364:276|288:100,1,350,8|0,0:0|0:0,0:0:0:0:
252,104,204825,6,0,P|200:112|148:84,1,100,4|8,0:0|0:0,0:0:0:0:
64,56,205808,2,0,L|72:4,2,50,2|0|8,0:0|0:0|0:0,0:0:0:0:
48,156,206792,2,0,L|56:260,1,100,2|8,0:0|0:0,0:0:0:0:
124,328,207775,2,0,L|112:380,2,50,2|0|8,0:0|0:0|0:0,0:0:0:0:
168,240,208759,6,0,P|224:248|256:280,1,100,2|8,0:0|0:0,0:0:0:0:
256,328,209497,2,0,P|293:295|342:291,1,100,2|0,0:0|0:0,0:0:0:0:
388,312,210235,1,8,0:0:0:0:
472,260,210726,2,0,P|488:216|472:160,2,100,2|8|2,0:0|0:0|0:0,0:0:0:0:
388,208,212202,1,8,0:0:0:0:
292,176,212694,6,0,L|284:60,1,100,2|8,0:0|0:0,0:0:0:0:
188,104,213677,2,0,L|184:168,2,50,2|0|8,0:0|0:0|0:0,0:0:0:0:
228,12,214661,2,0,P|168:8|120:28,1,100,2|8,0:0|0:0,0:0:0:0:
44,72,215644,2,0,L|40:22,2,50,2|0|8,0:0|0:0|0:0,0:0:0:0:
72,168,216628,6,0,L|64:272,1,100,2|8,0:0|0:0,0:0:0:0:
160,300,217612,2,0,L|167:200,1,100,2|8,0:0|0:0,0:0:0:0:
224,120,218595,2,0,L|212:16,2,100,2|8|2,0:0|0:0|0:0,0:0:0:0:
248,216,220071,1,8,0:0:0:0:
272,312,220562,6,0,P|320:320|372:300,1,100,6|8,0:0|0:0,0:0:0:0:
436,228,221546,2,0,L|492:248,2,50,2|0|8,0:0|0:0|0:0,0:0:0:0:
336,208,222530,2,0,P|328:160|348:108,1,100,6|8,0:0|0:0,0:0:0:0:
420,44,223513,2,0,L|467:27,2,50,2|0|8,0:0|0:0|0:0,0:0:0:0:
344,112,224497,6,0,P|276:120|228:96,1,100,2|8,0:0|0:0,0:0:0:0:
208,80,225235,2,0,P|160:67|111:77,1,100,2|0,0:0|0:0,0:0:0:0:
64,96,225972,1,8,0:0:0:0:
108,184,226464,2,0,P|156:194|204:181,2,100,2|8|2,0:0|0:0|0:0,0:0:0:0:
64,96,227939,1,8,0:0:0:0:
8,180,228431,6,0,L|24:296,1,100,6|8,0:0|0:0,0:0:0:0:
112,324,229415,2,0,L|104:380,2,50,2|0|8,0:0|0:0|0:0,0:0:0:0:
172,244,230398,2,0,L|288:264,1,100,6|8,0:0|0:0,0:0:0:0:
368,248,231382,2,0,L|376:188,2,50,2|0|8,0:0|0:0|0:0,0:0:0:0:
372,348,232366,6,0,P|420:336|456:296,1,100,2|8,0:0|0:0,0:0:0:0:
472,200,233349,2,0,P|437:164|390:152,1,100,2|8,0:0|0:0,0:0:0:0:
292,180,234333,2,0,L|300:236,2,50,8|8|8,0:3|0:3|0:3,0:0:0:0:
284,132,235071,1,8,0:3:0:0:
200,44,236300,6,0,L|184:152,1,100,4|8,0:0|0:0,0:0:0:0:
184,192,237038,1,0,0:0:0:0:
184,192,237284,2,0,P|112:184|76:212,1,100,2|8,0:0|0:0,0:0:0:0:
96,296,238267,2,0,P|168:304|204:276,1,100,2|8,0:0|0:0,0:0:0:0:
228,260,239005,1,0,0:0:0:0:
272,236,239251,2,0,L|276:180,2,50,2|0|8,0:0|0:0|0:0,0:0:0:0:
264,336,240235,6,0,L|376:344,1,100,2|8,0:0|0:0,0:0:0:0:
412,356,240972,2,0,P|408:296|432:252,1,100,2|0,0:0|0:0,0:0:0:0:
468,232,241710,1,8,0:0:0:0:
492,136,242202,2,0,P|472:84|424:56,1,100,2|8,0:0|0:0,0:0:0:0:
388,72,242939,1,0,0:0:0:0:
388,72,243185,2,0,L|268:64,1,100,2|8,0:0|0:0,0:0:0:0:
200,108,244169,6,0,L|192:0,2,100,2|8|2,0:0|0:0|0:0,0:0:0:0:
208,208,245644,1,8,0:0:0:0:
116,172,246136,2,0,P|64:172|24:208,1,100,2|8,0:0|0:0,0:0:0:0:
28,252,246874,1,0,0:0:0:0:
28,252,247120,2,0,L|44:352,1,100,2|8,0:0|0:0,0:0:0:0:
128,296,248103,6,0,P|168:284|236:304,1,100,2|8,0:0|0:0,0:0:0:0:
264,324,248841,1,0,0:0:0:0:
264,324,249087,2,0,P|281:286|342:249,1,100,2|8,0:0|0:0,0:0:0:0:
376,236,249825,1,0,0:0:0:0:
376,236,250071,2,0,L|368:304,2,50,2|8|8,0:0|0:3|0:0,0:0:0:0:
416,144,251054,2,0,L|400:88,1,50,8|8,0:0|0:0,0:0:0:0:
424,52,251546,2,0,L|368:36,1,50,8|8,0:0|0:0,0:0:0:0:
332,64,252038,6,0,P|288:80|228:64,1,100,4|8,0:0|0:0,0:0:0:0:
196,44,252775,1,0,0:0:0:0:
196,44,253021,2,0,P|147:33|101:49,1,100,2|8,0:0|0:0,0:0:0:0:
48,136,254005,2,0,L|60:252,1,100,2|8,0:0|0:0,0:0:0:0:
99,264,254743,1,0,0:0:0:0:
140,291,254989,2,0,L|136:351,2,50,2|0|8,0:0|0:0|0:0,0:0:0:0:
160,192,255972,6,0,P|184:148|240:128,1,100,2|8,0:0|0:0,0:0:0:0:
272,152,256710,2,0,L|284:48,1,100,2|0,0:0|0:0,0:0:0:0:
292,4,257448,1,8,0:0:0:0:
392,20,257939,2,0,L|488:76,1,100,2|8,0:0|0:0,0:0:0:0:
500,116,258677,1,0,0:0:0:0:
500,116,258923,2,0,P|504:168|472:224,1,100,2|8,0:0|0:0,0:0:0:0:
408,276,259907,6,0,P|356:256|300:268,1,100,2|8,0:0|0:0,0:0:0:0:
280,299,260644,1,0,0:0:0:0:
248,336,260890,2,0,P|196:356|140:344,1,100,2|8,0:0|0:0,0:0:0:0:
60,316,261874,2,0,L|48:212,1,100,2|8,0:0|0:0,0:0:0:0:
80,176,262612,2,0,L|92:72,1,100,2|0,0:0|0:0,0:0:0:0:
68,32,263349,1,8,0:0:0:0:
168,24,263841,6,0,P|224:16|264:40,1,100,2|8,0:0|0:0,0:0:0:0:
292,76,264579,1,0,0:0:0:0:
292,76,264825,2,0,P|300:132|276:172,1,100,2|8,0:0|0:0,0:0:0:0:
240,200,265562,1,0,0:0:0:0:
240,200,265808,2,0,L|124:196,2,100,2|8|2,0:0|0:0|0:0,0:0:0:0:
336,232,267284,1,8,0:0:0:0:
420,180,267775,6,0,L|424:128,2,50,8|8|8,0:0|0:0|0:0,0:0:0:0:
420,232,268513,1,8,0:0:0:0:
420,232,268759,2,0,L|432:292,1,50,8|8,0:0|0:0,0:0:0:0:
444,328,269251,2,0,L|380:320,1,50,8|8,0:0|0:0,0:0:0:0:
344,316,269743,6,0,B|280:356|180:320|180:320|176:232|252:160,1,350,8|8,0:0|0:0,0:0:0:0:
288,128,271710,6,0,P|344:136|384:112,2,100,4|8|2,0:0|0:0|0:0,0:0:0:0:
208,68,273185,1,8,0:0:0:0:
176,164,273677,2,0,P|152:200|92:216,2,100,2|8|2,0:0|0:0|0:0,0:0:0:0:
208,68,275153,1,8,0:0:0:0:
108,60,275644,6,0,L|8:48,2,100,2|8|2,0:0|0:0|0:0,0:0:0:0:
208,68,277120,1,8,0:0:0:0:
308,56,277612,2,0,L|408:44,1,100,2|8,0:0|0:0,0:0:0:0:
476,120,278595,2,0,P|488:172|464:224,1,100,2|8,0:0|0:0,0:0:0:0:
396,276,279579,6,0,L|496:340,2,100,2|8|2,0:0|0:0|0:0,0:0:0:0:
316,216,281054,1,8,0:0:0:0:
316,116,281546,2,0,L|320:0,2,100,2|8|2,0:0|0:0|0:0,0:0:0:0:
316,216,283021,1,8,0:0:0:0:
224,256,283513,6,0,L|164:284,2,50,8|8|8,0:0|0:0|0:0,0:0:0:0:
220,204,284251,1,8,0:0:0:0:
220,204,284497,2,0,L|216:148,2,50,8|8|8,0:0|0:0|0:0,0:0:0:0:
264,228,285235,1,8,0:0:0:0:
264,228,285480,6,0,B|324:256|400:224|400:224|372:176|408:132|408:132|340:92|248:120,1,400,8|8,0:0|0:0,0:0:0:0:
176,180,287939,1,2,0:0:0:0:
256,192,288062,12,0,295316,0:0:0:0:
