osu file format v14

[General]
AudioFilename: audio.mp3
AudioLeadIn: 2000
PreviewTime: 65890
Countdown: 1
SampleSet: Soft
StackLeniency: 0.7
Mode: 0
LetterboxInBreaks: 0
WidescreenStoryboard: 1

[Editor]
Bookmarks: 47448,149743,287939,293349,295316
DistanceSpacing: 1.2
BeatDivisor: 4
GridSize: 4
TimelineZoom: 1

[Metadata]
Title:Owaranai Kirameki o
TitleUnicode:終わらない煌めきを
Artist:Kicco
ArtistUnicode:Kicco
Creator:sodarose
Version:Hard
Source:タユタマ2 -you're the only one-
Tags:tayutama2 lump of sugar full version ED ending 泉戸 こはく 西条绯文 汤ノ花 菜乃 泉戸 ましろ galgame 水野大輔 mizuno daisuke
BeatmapID:1469179
BeatmapSetID:693265

[Difficulty]
HPDrainRate:5
CircleSize:4
OverallDifficulty:6
ApproachRate:7
SliderMultiplier:1.4
SliderTickRate:1

[Events]
//Background and Video events
0,0,"20.png",0,0
//Break Periods
//Storyboard Layer 0 (Background)
//Storyboard Layer 1 (Fail)
//Storyboard Layer 2 (Pass)
//Storyboard Layer 3 (Foreground)
//Storyboard Sound Samples

[TimingPoints]
235,491.803278688525,4,2,1,60,1,0
15972,-100,4,2,1,30,0,0
16464,-100,4,2,1,50,0,0
16587,-100,4,2,1,30,0,0
17448,-100,4,2,1,50,0,0
17694,-100,4,2,1,30,0,0
18431,-100,4,2,1,50,0,0
18554,-100,4,2,1,30,0,0
19415,-100,4,2,1,50,0,0
19661,-100,4,2,1,30,0,0
20398,-100,4,2,1,50,0,0
20521,-100,4,2,1,30,0,0
21382,-100,4,2,1,50,0,0
21874,-100,4,2,1,30,0,0
22366,-100,4,2,1,50,0,0
22489,-100,4,2,1,30,0,0
23349,-100,4,2,1,50,0,0
23595,-100,4,2,1,30,0,0
24333,-100,4,2,1,50,0,0
24456,-100,4,2,1,30,0,0
25316,-100,4,2,1,50,0,0
25808,-100,4,2,1,30,0,0
26300,-100,4,2,1,50,0,0
26423,-100,4,2,1,30,0,0
27284,-100,4,2,1,50,0,0
27530,-100,4,2,1,30,0,0
28267,-100,4,2,1,50,0,0
28390,-100,4,2,1,30,0,0
29251,-100,4,2,1,50,0,0
29743,-100,4,2,1,30,0,0
30235,-100,4,2,1,50,0,0
30357,-100,4,2,1,30,0,0
31218,-100,4,2,1,50,0,0
31464,-100,4,2,1,30,0,0
32202,-100,4,2,1,50,0,0
32325,-100,4,2,1,30,0,0
33185,-100,4,2,1,50,0,0
33677,-100,4,2,1,30,0,0
34169,-100,4,2,1,50,0,0
34292,-100,4,2,1,30,0,0
35153,-100,4,2,1,50,0,0
35398,-100,4,2,1,30,0,0
36136,-100,4,2,1,50,0,0
36259,-100,4,2,1,30,0,0
37120,-100,4,2,1,50,0,0
37243,-100,4,2,1,30,0,0
38103,-100,4,2,1,50,0,0
38226,-100,4,2,1,30,0,0
39087,-100,4,2,1,50,0,0
39210,-100,4,2,1,30,0,0
40071,-100,4,2,1,50,0,0
40194,-100,4,2,1,30,0,0
41054,-100,4,2,1,50,0,0
41300,-100,4,2,1,30,0,0
42038,-100,4,2,1,50,0,0
42161,-100,4,2,1,30,0,0
43021,-100,4,2,1,50,0,0
43267,-100,4,2,1,30,0,0
44005,-100,4,2,1,50,0,0
44128,-100,4,2,1,30,0,0
44989,-100,4,2,1,50,0,0
45235,-100,4,2,1,30,0,0
45972,-100,4,2,1,50,0,0
46095,-100,4,2,1,30,0,0
46464,-100,4,2,1,50,0,0
47448,-111.111111111111,4,2,1,50,0,0
59251,-100,4,2,1,50,0,0
65644,-100,4,2,1,55,0,0
65890,-100,4,2,1,60,0,0
67120,-100,4,2,1,60,0,1
102530,-100,4,2,1,60,0,0
118267,-100,4,2,1,30,0,0
118759,-100,4,2,1,50,0,0
118882,-100,4,2,1,30,0,0
119743,-100,4,2,1,50,0,0
120235,-100,4,2,1,30,0,0
120726,-100,4,2,1,50,0,0
120849,-100,4,2,1,30,0,0
121710,-100,4,2,1,50,0,0
121956,-100,4,2,1,30,0,0
122694,-100,4,2,1,50,0,0
122816,-100,4,2,1,30,0,0
123677,-100,4,2,1,50,0,0
124169,-100,4,2,1,30,0,0
124661,-100,4,2,1,50,0,0
124784,-100,4,2,1,30,0,0
125644,-100,4,2,1,50,0,0
125890,-100,4,2,1,30,0,0
126628,-100,4,2,1,50,0,0
126751,-100,4,2,1,30,0,0
127612,-100,4,2,1,50,0,0
128103,-100,4,2,1,30,0,0
128595,-100,4,2,1,50,0,0
128718,-100,4,2,1,30,0,0
129579,-100,4,2,1,50,0,0
129825,-100,4,2,1,30,0,0
130562,-100,4,2,1,50,0,0
130685,-100,4,2,1,30,0,0
131546,-100,4,2,1,50,0,0
132038,-100,4,2,1,30,0,0
132530,-100,4,2,1,50,0,0
132653,-100,4,2,1,30,0,0
133513,-100,4,2,1,50,0,0
133759,-100,4,2,1,30,0,0
134497,-100,4,2,1,50,0,0
134620,-100,4,2,1,30,0,0
135480,-100,4,2,1,50,0,0
135972,-100,4,2,1,30,0,0
136464,-100,4,2,1,50,0,0
136587,-100,4,2,1,30,0,0
137448,-100,4,2,1,50,0,0
137694,-100,4,2,1,30,0,0
138431,-100,4,2,1,50,0,0
138554,-100,4,2,1,30,0,0
139415,-100,4,2,1,50,0,0
139538,-100,4,2,1,30,0,0
140398,-100,4,2,1,50,0,0
140521,-100,4,2,1,30,0,0
141382,-100,4,2,1,50,0,0
141505,-100,4,2,1,30,0,0
142366,-100,4,2,1,50,0,0
142489,-100,4,2,1,30,0,0
143349,-100,4,2,1,50,0,0
143595,-100,4,2,1,30,0,0
144333,-100,4,2,1,50,0,0
144456,-100,4,2,1,30,0,0
145316,-100,4,2,1,50,0,0
145562,-100,4,2,1,30,0,0
146300,-100,4,2,1,50,0,0
146423,-100,4,2,1,30,0,0
147284,-100,4,2,1,50,0,0
147530,-100,4,2,1,30,0,0
148267,-100,4,2,1,50,0,0
148390,-100,4,2,1,30,0,0
148759,-100,4,2,1,50,0,0
149743,-111.111111111111,4,2,1,50,0,0
161546,-100,4,2,1,50,0,0
167939,-100,4,2,1,55,0,0
168185,-100,4,2,1,60,0,0
169415,-100,4,2,1,60,0,1
204825,-100,4,2,1,50,0,0
236300,-100,4,2,1,70,0,1
271218,-100,4,2,1,40,0,0
271710,-100,4,2,1,50,0,1
271833,-100,4,2,1,50,0,0
272448,-100,4,2,0,50,0,0
272694,-100,4,2,1,50,0,0
273431,-100,4,2,0,50,0,0
273677,-100,4,2,1,50,0,0
274415,-100,4,2,0,50,0,0
274661,-100,4,2,1,50,0,0
275398,-100,4,2,0,50,0,0
275644,-100,4,2,1,50,0,0
276382,-100,4,2,0,50,0,0
276628,-100,4,2,1,50,0,0
280316,-100,4,2,0,50,0,0
280562,-100,4,2,1,50,0,0
287448,-100,4,2,1,30,0,0
287939,-100,4,2,1,50,0,0
294825,-100,4,2,1,15,0,0

[Colours]
Combo1 : 181,73,203
Combo2 : 240,28,198
Combo3 : 38,136,255
Combo4 : 242,24,57

[HitObjects]
420,84,235,6,0,P|372:72|312:140,1,140,2|8,0:0|0:0,0:0:0:0:
360,200,972,2,0,P|364:312|364:360,1,140,2|0,0:0|0:0,0:0:0:0:
284,368,1710,2,0,P|280:332|280:296,1,70,8|0,0:0|0:0,0:0:0:0:
212,252,2202,6,0,P|256:256|340:204,1,140,2|8,0:0|0:0,0:0:0:0:
412,244,2939,2,0,P|381:211|371:113,1,140,2|0,0:0|0:0,0:0:0:0:
416,48,3677,2,0,L|332:44,1,70,8|0,0:0|0:0,0:0:0:0:
264,28,4169,6,0,L|152:32,1,105,2|0,0:0|0:0,0:0:0:0:
116,24,4661,2,0,P|108:72|108:112,1,70,8|0,0:0|0:0,0:0:0:0:
44,148,5153,2,0,P|71:188|88:224,1,70,2|0,0:0|0:0,0:0:0:0:
160,240,5644,2,0,P|132:280|115:316,1,70,8|0,0:0|0:0,0:0:0:0:
52,376,6136,6,0,P|124:372|212:372,1,140,2|8,0:0|0:0,0:0:0:0:
448,352,7120,2,0,L|388:344,1,35,2|8,0:0|0:0,0:0:0:0:
300,292,7612,2,0,L|380:288,1,70,8|0,0:0|0:0,0:0:0:0:
432,232,8103,6,0,P|448:168|396:100,1,140,2|8,0:0|0:0,0:0:0:0:
340,64,8841,1,0,0:0:0:0:
272,112,9087,2,0,L|202:108,1,70,2|0,0:0|0:0,0:0:0:0:
120,128,9579,2,0,P|112:93|114:59,1,70,8|0,0:0|0:0,0:0:0:0:
202,108,10071,6,0,B|210:160|184:188|184:188|192:220|232:240,1,140,2|8,0:0|0:0,0:0:0:0:
296,260,10808,1,0,0:0:0:0:
232,316,11054,2,0,P|168:308|128:236,1,140,2|8,0:0|0:0,0:0:0:0:
328,184,12038,5,8,0:0:0:0:
296,260,12284,1,8,0:0:0:0:
368,304,12530,2,0,P|428:324|460:316,1,70,8|8,0:0|0:0,0:0:0:0:
456,164,13021,1,8,0:0:0:0:
424,240,13267,1,8,0:0:0:0:
456,164,13513,2,0,P|452:112|440:88,1,70,8|8,0:0|0:0,0:0:0:0:
388,32,14005,6,0,L|324:40,3,35,8|8|8|8,0:0|0:0|0:0|0:0,0:0:0:0:
316,56,14497,2,0,L|281:51,3,35,8|8|8|8,0:0|0:0|0:0|0:0,0:0:0:0:
244,32,14989,2,0,L|180:40,3,35,8|8|8|8,0:0|0:0|0:0|0:0,0:0:0:0:
172,56,15481,2,0,L|137:51,3,35,8|8|8|8,0:0|0:0|0:0|0:0,0:0:0:0:
96,44,15972,6,0,L|88:128,1,70,2|2,0:0|0:0,0:0:0:0:
68,196,16464,2,0,L|72:232,1,35,8|2,0:3|0:0,0:0:0:0:
160,324,16956,2,0,P|108:320|80:300,1,70,2|0,0:0|0:0,0:0:0:0:
71,230,17448,2,0,P|103:216|137:217,1,70,8|0,0:3|0:0,0:0:0:0:
220,232,17939,6,0,L|208:140,2,70,2|2|8,0:0|0:0|0:3,0:0:0:0:
228,272,18554,1,2,0:0:0:0:
328,348,18923,2,0,P|352:312|380:296,1,70,2|0,0:0|0:0,0:0:0:0:
444,252,19415,2,0,P|415:232|397:202,1,70,8|0,0:3|0:0,0:0:0:0:
440,128,19907,6,0,L|344:124,1,70,2|2,0:0|0:0,0:0:0:0:
288,148,20398,2,0,L|232:132,1,35,8|2,0:3|0:0,0:0:0:0:
200,24,20890,2,0,L|52:56,1,140,2|8,0:0|0:3,0:0:0:0:
76,220,21874,6,0,L|64:308,2,70,2|2|8,0:0|0:0|0:3,0:0:0:0:
84,180,22489,1,2,0:0:0:0:
160,280,22857,2,0,P|204:292|244:280,1,70,2|0,0:0|0:0,0:0:0:0:
288,232,23349,2,0,P|332:220|372:232,1,70,8|0,0:3|0:0,0:0:0:0:
428,264,23841,6,0,L|424:348,1,70,2|2,0:0|0:0,0:0:0:0:
344,356,24333,2,0,L|336:308,1,35,8|2,0:3|0:0,0:0:0:0:
320,196,24825,2,0,P|384:180|416:104,1,140,2|8,0:0|0:3,0:0:0:0:
256,60,25808,6,0,P|192:52|168:56,2,70,2|2|8,0:0|0:0|0:3,0:0:0:0:
296,76,26423,1,2,0:0:0:0:
320,196,26792,2,0,P|272:208|232:208,1,70,2|0,0:0|0:0,0:0:0:0:
180,252,27284,2,0,P|132:239|97:219,1,70,8|0,0:3|0:0,0:0:0:0:
48,180,27775,6,0,L|56:92,1,70,2|2,0:0|0:0,0:0:0:0:
40,28,28267,2,0,L|80:12,1,35,8|2,0:3|0:0,0:0:0:0:
176,88,28759,2,0,P|236:80|288:144,1,140,2|8,0:0|0:3,0:0:0:0:
228,292,29743,6,0,L|312:284,2,70,2|2|8,0:0|0:0|0:3,0:0:0:0:
188,296,30357,1,2,0:0:0:0:
68,336,30726,2,0,P|60:284|72:256,1,70,2|0,0:0|0:0,0:0:0:0:
132,220,31218,2,0,P|184:216|220:184,1,70,8|0,0:3|0:0,0:0:0:0:
232,128,31710,6,0,L|332:136,1,70,2|2,0:0|0:0,0:0:0:0:
384,156,32202,2,0,L|448:148,1,35,8|2,0:3|0:0,0:0:0:0:
500,248,32694,2,0,L|496:108,1,140,2|8,0:0|0:3,0:0:0:0:
416,276,33677,6,0,L|412:196,2,70,2|2|8,0:0|0:0|0:3,0:0:0:0:
420,318,34292,1,2,0:0:0:0:
300,360,34661,2,0,P|268:332|240:320,1,70,2|0,0:0|0:0,0:0:0:0:
200,248,35153,2,0,P|157:245|128:253,1,70,8|0,0:3|0:0,0:0:0:0:
56,288,35644,6,0,L|52:368,2,70,2|2|8,0:0|0:0|0:3,0:0:0:0:
56,244,36259,1,2,0:0:0:0:
104,128,36628,2,0,L|92:32,2,70,2|2|8,0:0|0:0|0:3,0:0:0:0:
109,170,37243,1,2,0:0:0:0:
228,128,37612,6,0,P|268:120|304:132,1,70,2|2,0:0|0:0,0:0:0:0:
376,152,38103,2,0,L|384:196,1,35,8|2,0:3|0:0,0:0:0:0:
468,280,38595,2,0,P|428:272|392:284,1,70,2|2,0:0|0:0,0:0:0:0:
320,304,39087,2,0,L|312:352,1,35,8|2,0:3|0:0,0:0:0:0:
188,360,39579,6,0,L|184:276,1,70,2|2,0:0|0:0,0:0:0:0:
224,216,40071,2,0,L|228:172,1,35,8|2,0:3|0:0,0:0:0:0:
172,68,40562,2,0,L|32:60,1,140,2|8,0:0|0:3,0:0:0:0:
52,140,41300,1,0,0:0:0:0:
80,220,41546,6,0,L|28:296,2,70,2|2|8,0:0|0:0|0:3,0:0:0:0:
108,188,42161,1,2,0:0:0:0:
160,304,42530,2,0,P|192:332|232:340,1,70,2|0,0:0|0:0,0:0:0:0:
300,340,43021,2,0,P|332:328|357:304,1,70,8|0,0:3|0:0,0:0:0:0:
412,240,43513,6,0,L|404:152,1,70,2|2,0:0|0:0,0:0:0:0:
432,92,44005,2,0,L|376:88,1,35,8|2,0:3|0:0,0:0:0:0:
284,32,44497,2,0,L|204:36,1,70,2|0,0:0|0:0,0:0:0:0:
176,112,44989,2,0,L|256:116,1,70,8|0,0:3|0:0,0:0:0:0:
296,184,45480,6,0,P|344:176|384:180,2,70,2|2|8,0:0|0:0|0:3,0:0:0:0:
256,196,46095,1,2,0:0:0:0:
176,292,46464,2,0,L|176:212,1,70,8|8,0:0|0:0,0:0:0:0:
104,176,46956,1,8,0:0:0:0:
104,176,47079,1,8,0:0:0:0:
104,176,47202,1,8,0:0:0:0:
112,320,47448,6,0,P|186:313|248:316,1,125.999996154785,2|2,0:0|1:2,0:0:0:0:
348,208,48431,2,0,P|410:209|473:202,1,125.999996154785,2|2,0:0|1:2,0:0:0:0:
404,52,49415,6,0,P|348:32|280:80,2,125.999996154785,2|2|2,0:0|1:2|0:0,0:0:0:0:
352,108,50644,1,0,0:0:0:0:
291,60,50890,1,2,1:2:0:0:
232,108,51136,1,0,0:0:0:0:
172,60,51382,6,0,B|124:40|72:56|72:56|84:96,1,125.999996154785,2|2,0:0|1:2,0:0:0:0:
200,172,52366,2,0,B|248:152|300:168|300:168|288:208,1,125.999996154785,2|2,0:0|1:2,0:0:0:0:
148,236,53349,6,0,P|116:180|140:116,1,125.999996154785,2|2,0:0|1:2,0:0:0:0:
280,92,54333,2,0,L|272:52,2,31.4999990386963,0|0|0,1:0|1:0|1:0,0:0:0:0:
206,141,54825,2,0,L|198:181,2,31.4999990386963,0|0|0,1:0|1:0|1:0,0:0:0:0:
273,61,55316,6,0,B|301:77|301:77|333:121|321:177,1,125.999996154785,2|2,0:0|1:2,0:0:0:0:
300,316,56300,2,0,B|272:300|272:300|240:256|252:200,1,125.999996154785,2|2,0:0|1:2,0:0:0:0:
124,132,57284,6,0,P|148:104|132:16,2,125.999996154785,2|2|2,0:0|1:2|0:0,0:0:0:0:
56,168,58513,1,0,0:0:0:0:
12,104,58759,1,2,1:2:0:0:
80,72,59005,1,0,0:0:0:0:
180,104,59251,6,0,P|224:104|328:124,1,140,4|10,0:0|0:0,0:0:0:0:
384,68,59989,2,0,P|360:124|408:200,1,140,2|0,0:0|0:0,0:0:0:0:
444,124,60726,1,8,0:0:0:0:
460,292,61218,6,0,P|392:280|328:312,1,140,4|8,0:0|0:0,0:0:0:0:
260,356,61956,2,0,P|192:368|128:336,1,140,2|0,0:0|0:0,0:0:0:0:
92,264,62694,1,8,0:0:0:0:
32,160,62939,6,0,B|48:192|48:192|104:196|148:140,1,140,4|0,0:0|0:0,0:0:0:0:
164,68,63677,2,0,P|224:96|252:92,1,70,8|0,0:0|0:0,0:0:0:0:
300,60,64169,1,2,0:0:0:0:
300,60,64661,1,8,0:0:0:0:
348,144,64907,6,0,P|360:236|364:292,1,140,2|2,1:2|1:2,0:0:0:0:
272,292,65644,1,8,1:3:0:0:
200,348,65890,1,8,1:2:0:0:
200,348,67120,6,0,P|152:316|164:232,1,140,4|8,0:0|0:0,0:0:0:0:
220,176,67857,1,0,0:0:0:0:
288,116,68103,2,0,P|300:64|300:32,1,70,2|0,0:0|0:0,0:0:0:0:
200,16,68595,2,0,P|203:50|212:84,1,70,8|0,0:0|0:0,0:0:0:0:
220,176,69087,6,0,P|272:168|376:172,1,140,2|8,0:0|0:0,0:0:0:0:
432,224,69825,1,0,0:0:0:0:
436,316,70071,2,0,P|380:336|352:336,1,70,2|0,0:0|0:0,0:0:0:0:
292,292,70562,2,0,P|236:272|208:272,1,70,8|0,0:0|0:0,0:0:0:0:
148,348,71054,6,0,L|156:196,1,140,2|8,0:0|0:0,0:0:0:0:
72,172,71792,1,0,0:0:0:0:
72,172,72038,2,0,P|124:176|188:96,1,140,2|8,0:0|0:0,0:0:0:0:
124,52,72775,1,0,0:0:0:0:
212,28,73021,6,0,B|256:24|256:24|360:68,1,140,2|8,0:0|0:0,0:0:0:0:
428,100,73759,1,0,0:0:0:0:
352,152,74005,1,2,0:0:0:0:
424,208,74251,1,0,0:0:0:0:
396,296,74497,2,0,P|336:300|308:288,1,70,8|0,0:0|0:0,0:0:0:0:
220,288,74989,6,0,P|264:260|264:164,2,140,2|8|2,0:0|0:0|0:0,0:0:0:0:
148,232,76218,1,0,0:0:0:0:
168,144,76464,2,0,P|188:108|220:88,1,70,8|0,0:0|0:0,0:0:0:0:
268,20,76956,6,0,L|108:8,1,140,2|8,0:0|0:0,0:0:0:0:
36,20,77694,1,0,0:0:0:0:
64,108,77939,2,0,P|68:148|24:256,1,140,2|8,0:0|0:0,0:0:0:0:
128,240,78677,1,0,0:0:0:0:
68,316,78923,6,0,P|16:320|-16:300,1,70,2|0,0:0|0:0,0:0:0:0:
128,240,79415,2,0,P|158:282|157:320,1,70,8|0,0:0|0:0,0:0:0:0:
224,364,79907,2,0,P|232:330|256:304,1,70,2|0,0:0|0:0,0:0:0:0:
376,372,80398,2,0,P|324:379|291:361,1,70,8|0,0:0|0:0,0:0:0:0:
344,264,80890,6,0,P|400:280|464:212,1,140,2|8,0:0|0:0,0:0:0:0:
476,144,81628,1,8,0:0:0:0:
476,144,81751,1,8,0:0:0:0:
476,144,81874,2,0,L|464:56,1,70,8|8,0:0|0:0,0:0:0:0:
388,24,82366,1,8,0:0:0:0:
348,148,82612,1,8,0:0:0:0:
348,148,82735,1,8,0:0:0:0:
348,148,82857,6,0,P|280:140|200:100,1,140,4|8,0:0|0:0,0:0:0:0:
160,40,83595,1,0,0:0:0:0:
92,100,83841,2,0,P|76:144|76:180,1,70,2|0,0:0|0:0,0:0:0:0:
12,232,84333,2,0,P|52:248|80:284,1,70,8|0,0:0|0:0,0:0:0:0:
44,356,84825,6,0,P|128:348|192:352,1,140,2|8,0:0|0:0,0:0:0:0:
260,300,85562,1,0,0:0:0:0:
324,364,85808,2,0,P|344:328|344:292,1,70,2|0,0:0|0:0,0:0:0:0:
300,220,86300,2,0,P|320:191|350:175,1,70,8|0,0:0|0:0,0:0:0:0:
464,124,86792,6,0,P|412:120|344:44,1,140,2|8,0:0|0:0,0:0:0:0:
272,12,87530,1,0,0:0:0:0:
272,12,87775,2,0,P|212:20|152:88,1,140,2|8,0:0|0:0,0:0:0:0:
184,160,88513,1,0,0:0:0:0:
220,244,88759,6,0,P|176:236|60:236,1,140,2|8,0:0|0:0,0:0:0:0:
20,300,89497,1,0,0:0:0:0:
84,364,89743,1,2,0:0:0:0:
160,316,89989,1,0,0:0:0:0:
220,244,90235,2,0,P|228:200|220:172,1,70,8|0,0:0|0:0,0:0:0:0:
168,96,90726,6,0,B|204:80|204:80|312:100,1,140,2|8,0:0|0:0,0:0:0:0:
388,132,91464,1,0,0:0:0:0:
476,108,91710,2,0,P|488:64|480:36,1,70,2|0,0:0|0:0,0:0:0:0:
388,132,92202,2,0,P|382:166|394:198,1,70,8|0,0:0|0:0,0:0:0:0:
444,276,92694,6,0,L|304:264,1,140,2|8,0:0|0:0,0:0:0:0:
236,324,93431,2,0,P|172:332|112:272,1,140,2|0,0:0|0:0,0:0:0:0:
164,208,94169,1,8,0:0:0:0:
68,44,94661,6,0,P|44:92|44:132,1,70,2|0,0:0|0:0,0:0:0:0:
98,183,95153,2,0,L|180:214,1,70,8|0,0:0|0:0,0:0:0:0:
232,144,95644,2,0,L|297:119,1,70,2|0,0:0|0:0,0:0:0:0:
384,144,96136,2,0,P|408:192|408:232,1,70,8|0,0:0|0:0,0:0:0:0:
408,304,96628,6,0,P|344:292|264:284,2,140,2|8|2,0:0|0:0|0:0,0:0:0:0:
348,372,97857,1,0,0:0:0:0:
256,376,98103,2,0,P|216:372|172:352,1,70,8|0,0:0|0:0,0:0:0:0:
108,316,98595,5,8,0:0:0:0:
72,232,98841,1,8,0:0:0:0:
152,188,99087,2,0,L|248:184,1,70,8|8,0:0|0:0,0:0:0:0:
72,232,99579,1,8,0:0:0:0:
152,188,99825,1,8,0:0:0:0:
80,132,100071,2,0,L|72:48,1,70,8|8,0:0|0:0,0:0:0:0:
164,40,100562,6,0,P|188:37|220:40,3,35,8|8|8|8,0:0|0:0|0:0|0:0,0:0:0:0:
236,16,101054,2,0,P|259:23|287:38,3,35,8|8|8|8,0:0|0:0|0:0|0:0,0:0:0:0:
312,20,101546,2,0,P|330:36|349:61,3,35,8|8|8|8,0:0|0:0|0:0|0:0,0:0:0:0:
380,56,102038,2,0,P|390:78|397:109,3,35,8|8|8|8,0:0|0:0|0:0|0:0,0:0:0:0:
420,120,102530,6,0,P|412:196|416:264,1,140,4|8,0:0|0:0,0:0:0:0:
456,332,103267,2,0,P|408:296|320:316,1,140,2|0,0:0|0:0,0:0:0:0:
304,228,104005,2,0,P|260:224|228:208,1,70,8|0,0:0|0:0,0:0:0:0:
156,232,104497,6,0,P|164:288|164:376,2,140,2|8|2,0:0|0:0|0:0,0:0:0:0:
96,176,105726,1,0,0:0:0:0:
32,120,105972,2,0,P|44:68|64:48,1,70,8|0,0:0|0:0,0:0:0:0:
132,28,106464,6,0,P|192:44|264:48,1,105,2|0,0:0|0:0,0:0:0:0:
268,24,106956,2,0,P|316:36|348:36,1,70,8|0,0:0|0:0,0:0:0:0:
392,100,107448,2,0,P|344:112|312:112,1,70,2|0,0:0|0:0,0:0:0:0:
268,176,107939,2,0,P|316:188|348:188,1,70,8|0,0:0|0:0,0:0:0:0:
420,200,108431,6,0,B|448:248|444:308|444:308|396:292,1,140,2|8,0:0|0:0,0:0:0:0:
252,324,109415,2,0,L|264:372,1,35,2|8,0:0|0:0,0:0:0:0:
132,272,109907,2,0,P|166:268|212:244,1,70,8|0,0:0|0:0,0:0:0:0:
240,180,110398,6,0,P|164:168|124:108,1,140,2|8,0:0|0:0,0:0:0:0:
164,44,111136,1,0,0:0:0:0:
248,40,111382,2,0,P|296:48|324:80,1,70,2|0,0:0|0:0,0:0:0:0:
364,128,111874,2,0,P|412:120|440:88,1,70,8|0,0:0|0:0,0:0:0:0:
500,36,112366,6,0,L|496:188,1,140,2|8,0:0|0:0,0:0:0:0:
504,260,113103,1,0,0:0:0:0:
452,324,113349,2,0,P|392:332|324:268,1,140,2|8,0:0|0:0,0:0:0:0:
224,156,114333,5,8,0:0:0:0:
300,120,114579,1,8,0:0:0:0:
236,68,114825,2,0,P|168:60|136:64,1,70,8|8,0:0|0:0,0:0:0:0:
300,120,115316,1,8,0:0:0:0:
316,36,115562,1,8,0:0:0:0:
380,92,115808,2,0,P|448:100|480:96,1,70,8|8,0:0|0:0,0:0:0:0:
476,180,116300,6,0,L|464:236,3,35,8|8|8|8,0:0|0:0|0:0|0:0,0:0:0:0:
472,256,116792,2,0,L|424:264,3,35,8|8|8|8,0:0|0:0|0:0|0:0,0:0:0:0:
396,272,117284,2,0,L|361:266,3,35,8|8|8|8,0:0|0:0|0:0|0:0,0:0:0:0:
320,268,117775,2,0,L|308:324,3,35,8|8|8|8,0:0|0:0|0:0|0:0,0:0:0:0:
308,344,118267,6,0,L|216:352,1,70,2|2,0:0|0:0,0:0:0:0:
156,364,118759,2,0,L|104:352,1,35,8|2,0:3|0:0,0:0:0:0:
24,276,119251,2,0,P|20:220|64:136,1,140,2|8,0:0|0:3,0:0:0:0:
184,36,120235,6,0,P|240:28|272:32,2,70,2|2|8,0:0|0:0|0:3,0:0:0:0:
144,52,120849,1,2,0:0:0:0:
136,176,121218,2,0,P|184:184|236:176,1,70,2|0,0:0|0:0,0:0:0:0:
264,124,121710,2,0,P|312:116|364:124,1,70,8|0,0:3|0:0,0:0:0:0:
404,164,122202,6,0,L|412:80,1,70,2|2,0:0|0:0,0:0:0:0:
488,64,122694,2,0,L|496:112,1,35,8|2,0:3|0:0,0:0:0:0:
468,224,123185,2,0,P|408:248|324:200,1,140,2|8,0:0|0:3,0:0:0:0:
244,360,124169,6,0,P|256:304|256:264,2,70,2|2|8,0:0|0:0|0:3,0:0:0:0:
204,372,124784,1,2,0:0:0:0:
152,256,125153,2,0,P|136:200|140:168,1,70,2|0,0:0|0:0,0:0:0:0:
212,152,125644,2,0,P|228:96|224:64,1,70,8|0,0:3|0:0,0:0:0:0:
160,36,126136,6,0,L|72:40,1,70,2|2,0:0|0:0,0:0:0:0:
16,84,126628,2,0,L|24:136,1,35,8|2,0:3|0:0,0:0:0:0:
44,244,127120,2,0,P|32:292|120:324,1,140,2|8,0:0|0:3,0:0:0:0:
260,288,128103,6,0,L|256:212,2,70,2|2|8,0:0|0:0|0:3,0:0:0:0:
256,332,128718,1,2,0:0:0:0:
372,280,129087,2,0,P|424:296|448:284,1,70,2|0,0:0|0:0,0:0:0:0:
484,224,129579,2,0,P|432:208|408:220,1,70,8|0,0:3|0:0,0:0:0:0:
336,196,130071,6,0,L|344:112,1,70,2|2,0:0|0:0,0:0:0:0:
380,52,130562,2,0,L|328:56,1,35,8|2,0:3|0:0,0:0:0:0:
224,16,131054,2,0,P|176:12|104:72,1,140,2|8,0:0|0:3,0:0:0:0:
140,232,132038,6,0,P|96:220|68:228,2,70,2|2|8,0:0|0:0|0:3,0:0:0:0:
176,252,132653,1,2,0:0:0:0:
252,152,133021,2,0,P|286:146|318:158,1,70,2|0,0:0|0:0,0:0:0:0:
376,220,133513,2,0,L|368:300,1,70,8|0,0:3|0:0,0:0:0:0:
296,336,134005,6,0,L|226:342,1,70,2|2,0:0|0:0,0:0:0:0:
144,364,134497,2,0,L|100:356,1,35,8|2,0:3|0:0,0:0:0:0:
32,256,134989,2,0,L|48:112,1,140,2|8,0:0|0:3,0:0:0:0:
208,72,135972,6,0,L|216:152,2,70,2|2|8,0:0|0:0|0:3,0:0:0:0:
204,32,136587,1,2,0:0:0:0:
332,32,136956,2,0,P|372:48|388:80,1,70,2|0,0:0|0:0,0:0:0:0:
408,152,137448,2,0,P|368:168|352:200,1,70,8|0,0:3|0:0,0:0:0:0:
408,272,137939,6,0,L|404:356,1,70,2|2,0:0|0:0,0:0:0:0:
324,368,138431,2,0,L|320:332,1,35,8|2,0:3|0:0,0:0:0:0:
280,212,138923,2,0,L|288:124,1,70,2|2,0:0|0:0,0:0:0:0:
300,60,139415,2,0,L|292:16,1,35,8|2,0:3|0:0,0:0:0:0:
168,36,139907,6,0,P|108:44|84:64,2,70,2|2|8,0:0|0:0|0:3,0:0:0:0:
208,40,140521,1,2,0:0:0:0:
152,152,140890,2,0,P|105:190|95:220,2,70,2|2|8,0:0|0:0|0:3,0:0:0:0:
188,134,141504,1,2,0:0:0:0:
280,220,141874,6,0,P|320:228|352:240,1,70,2|2,0:0|0:0,0:0:0:0:
400,304,142366,2,0,L|388:356,1,35,8|2,0:3|0:0,0:0:0:0:
268,356,142857,2,0,P|212:336|112:316,1,140,2|8,0:0|0:3,0:0:0:0:
56,288,143595,1,0,0:0:0:0:
56,288,143841,6,0,L|48:376,2,70,2|2|8,0:0|0:0|0:3,0:0:0:0:
60,248,144456,1,2,0:0:0:0:
56,124,144825,2,0,P|104:144|144:136,1,70,2|0,0:0|0:0,0:0:0:0:
176,208,145316,2,0,P|226:195|254:165,1,70,8|0,0:3|0:0,0:0:0:0:
244,100,145808,6,0,L|248:12,1,70,2|2,0:0|0:0,0:0:0:0:
328,12,146300,2,0,L|336:64,1,35,8|2,0:3|0:0,0:0:0:0:
352,172,146792,2,0,P|408:152|480:192,1,140,2|8,0:0|0:3,0:0:0:0:
484,272,147530,1,0,0:0:0:0:
404,300,147775,6,0,L|408:216,2,70,2|2|8,0:0|0:0|0:3,0:0:0:0:
404,344,148390,1,2,0:0:0:0:
280,356,148759,2,0,P|224:348|208:324,1,70,8|8,0:0|0:0,0:0:0:0:
180,256,149251,1,8,0:0:0:0:
180,256,149374,1,8,0:0:0:0:
180,256,149497,1,8,0:0:0:0:
88,200,149743,6,0,L|80:356,1,125.999996154785,6|2,0:0|1:2,0:0:0:0:
208,224,150726,2,0,L|201:98,1,125.999996154785,2|2,0:0|1:2,0:0:0:0:
364,88,151710,6,0,P|316:76|292:4,2,125.999996154785,2|2|2,0:0|1:2|0:0,0:0:0:0:
440,76,152939,1,0,0:0:0:0:
448,152,153185,1,2,1:2:0:0:
456,228,153431,1,0,0:0:0:0:
380,212,153677,6,0,P|324:208|284:264,1,125.999996154785,2|2,0:0|1:2,0:0:0:0:
148,352,154661,2,0,P|92:356|52:300,1,125.999996154785,2|2,0:0|1:2,0:0:0:0:
144,164,155644,6,0,P|132:108|96:44,1,125.999996154785,2|2,0:0|1:2,0:0:0:0:
68,196,156628,2,0,L|40:236,2,31.4999990386963,0|0|0,1:0|1:0|1:0,0:0:0:0:
144,164,157120,2,0,L|160:216,2,31.4999990386963,0|0|0,1:0|1:0|1:0,0:0:0:0:
80,124,157612,6,0,P|136:128|212:100,1,125.999996154785,2|2,0:0|1:2,0:0:0:0:
348,28,158595,2,0,P|404:24|480:52,1,125.999996154785,2|2,0:0|1:2,0:0:0:0:
440,208,159579,6,0,L|296:216,2,125.999996154785,2|2|2,0:0|1:2|0:0,0:0:0:0:
484,268,160808,1,0,0:0:0:0:
416,304,161054,1,2,1:2:0:0:
348,340,161300,1,0,0:0:0:0:
272,376,161546,6,0,P|256:320|176:288,1,140,4|8,0:0|0:0,0:0:0:0:
184,372,162284,2,0,L|176:224,1,140,2|0,0:0|0:0,0:0:0:0:
212,156,163021,1,8,0:0:0:0:
80,52,163513,6,0,P|140:60|224:60,1,140,4|8,0:0|0:0,0:0:0:0:
296,100,164251,2,0,P|336:72|424:96,1,140,2|0,0:0|0:0,0:0:0:0:
468,160,164989,1,8,0:0:0:0:
456,256,165235,6,0,B|428:228|428:228|372:228|332:264,1,140,4|0,0:0|0:0,0:0:0:0:
304,340,165972,2,0,P|256:336|224:316,1,70,8|0,0:0|0:0,0:0:0:0:
156,348,166464,2,0,P|121:314|110:278,1,70,2|0,0:0|0:0,0:0:0:0:
168,228,166956,1,8,0:0:0:0:
120,144,167202,6,0,P|176:152|232:76,1,140,2|2,0:0|1:2,0:0:0:0:
216,8,167939,1,8,1:3:0:0:
156,76,168185,1,8,1:2:0:0:
156,76,169415,6,0,P|240:76|312:108,1,140,4|8,0:0|0:0,0:0:0:0:
380,124,170153,1,0,0:0:0:0:
464,156,170398,2,0,P|476:216|476:248,1,70,2|0,0:0|0:0,0:0:0:0:
388,252,170890,2,0,P|376:312|376:344,1,70,8|0,0:0|0:0,0:0:0:0:
456,364,171382,6,0,P|352:364|304:368,1,140,2|8,0:0|0:0,0:0:0:0:
224,376,172120,1,0,0:0:0:0:
164,308,172366,2,0,P|176:264|196:240,1,70,2|0,0:0|0:0,0:0:0:0:
144,168,172857,2,0,P|181:142|212:136,1,70,8|0,0:0|0:0,0:0:0:0:
292,164,173349,6,0,P|352:172|384:100,1,140,2|8,0:0|0:0,0:0:0:0:
324,40,174087,1,0,0:0:0:0:
232,52,174333,2,0,P|176:64|80:56,1,140,2|8,0:0|0:0,0:0:0:0:
12,16,175071,1,0,0:0:0:0:
20,108,175316,6,0,P|28:180|32:256,1,140,2|8,0:0|0:0,0:0:0:0:
20,340,176054,1,0,0:0:0:0:
108,312,176300,2,0,P|156:316|184:332,1,70,2|0,0:0|0:0,0:0:0:0:
248,380,176792,1,8,0:0:0:0:
264,292,177038,1,0,0:0:0:0:
344,332,177284,6,0,P|384:344|460:276,1,140,2|8,0:0|0:0,0:0:0:0:
404,216,178021,1,0,0:0:0:0:
404,216,178267,2,0,L|412:144,1,70,2|0,0:0|0:0,0:0:0:0:
496,108,178759,2,0,L|488:20,1,70,8|0,0:0|0:0,0:0:0:0:
400,32,179251,6,0,P|320:24|256:64,1,140,2|8,0:0|0:0,0:0:0:0:
212,120,179989,1,0,0:0:0:0:
132,76,180235,2,0,P|80:68|44:80,1,70,2|0,0:0|0:0,0:0:0:0:
64,164,180726,2,0,P|116:172|152:160,1,70,8|0,0:0|0:0,0:0:0:0:
212,120,181218,6,0,L|204:260,1,140,2|8,0:0|0:0,0:0:0:0:
196,352,181956,1,0,0:0:0:0:
136,284,182202,2,0,P|192:264|264:292,1,140,2|8,0:0|0:0,0:0:0:0:
340,340,182939,1,0,0:0:0:0:
432,332,183185,6,0,P|444:240|440:172,1,140,2|8,0:0|0:0,0:0:0:0:
404,108,183923,1,8,0:0:0:0:
404,108,184046,1,8,0:0:0:0:
404,108,184169,2,0,P|396:56|400:24,1,70,8|8,0:0|0:0,0:0:0:0:
308,64,184661,1,8,0:0:0:0:
336,180,184907,1,8,0:0:0:0:
336,180,185030,1,8,0:0:0:0:
336,180,185153,6,0,P|272:156|188:144,1,140,4|8,0:0|0:0,0:0:0:0:
112,160,185890,1,0,0:0:0:0:
24,184,186136,2,0,P|44:220|68:240,1,70,2|0,0:0|0:0,0:0:0:0:
112,160,186628,2,0,P|137:136|153:105,1,70,8|0,0:0|0:0,0:0:0:0:
108,28,187120,6,0,P|152:32|272:36,1,140,2|8,0:0|0:0,0:0:0:0:
336,24,187857,1,0,0:0:0:0:
320,112,188103,1,2,0:0:0:0:
408,92,188349,1,0,0:0:0:0:
432,180,188595,2,0,P|448:228|448:260,1,70,8|0,0:0|0:0,0:0:0:0:
388,312,189087,6,0,P|352:280|252:292,1,140,2|8,0:0|0:0,0:0:0:0:
188,332,189825,1,0,0:0:0:0:
100,348,190071,2,0,P|92:280|68:204,1,140,2|8,0:0|0:0,0:0:0:0:
28,132,190808,1,0,0:0:0:0:
116,140,191054,6,0,P|176:156|224:80,1,140,2|8,0:0|0:0,0:0:0:0:
148,56,191792,1,0,0:0:0:0:
116,140,192038,2,0,L|112:216,1,70,2|0,0:0|0:0,0:0:0:0:
36,260,192530,2,0,L|40:336,1,70,8|0,0:0|0:0,0:0:0:0:
128,348,193021,6,0,P|200:344|288:360,1,140,2|8,0:0|0:0,0:0:0:0:
356,368,193759,1,0,0:0:0:0:
448,360,194005,2,0,P|456:312|452:276,1,70,2|0,0:0|0:0,0:0:0:0:
496,208,194497,2,0,P|465:169|436:148,1,70,8|0,0:0|0:0,0:0:0:0:
360,132,194989,6,0,P|396:104|372:8,1,140,2|8,0:0|0:0,0:0:0:0:
296,36,195726,2,0,L|144:44,1,140,2|0,0:0|0:0,0:0:0:0:
64,40,196464,1,8,0:0:0:0:
200,160,196956,6,0,P|208:196|212:244,1,70,2|0,0:0|0:0,0:0:0:0:
120,220,197448,2,0,P|112:256|108:304,1,70,8|0,0:0|0:0,0:0:0:0:
180,344,197939,2,0,P|232:328|260:328,1,70,2|0,0:0|0:0,0:0:0:0:
328,368,198431,2,0,P|362:363|395:351,1,70,8|0,0:0|0:0,0:0:0:0:
448,276,198923,6,0,L|452:136,2,140,2|8|2,0:0|0:0|0:0,0:0:0:0:
395,351,200153,1,0,0:0:0:0:
352,272,200398,2,0,L|356:180,1,70,8|0,0:0|0:0,0:0:0:0:
340,112,200890,5,8,0:0:0:0:
288,36,201136,1,8,0:0:0:0:
208,76,201382,2,0,P|160:84|136:80,1,70,8|8,0:0|0:0,0:0:0:0:
60,36,201874,1,8,0:0:0:0:
36,124,202120,1,8,0:0:0:0:
92,196,202366,2,0,P|125:203|160:200,1,70,8|8,0:0|0:0,0:0:0:0:
248,180,202857,6,0,L|240:240,3,35,8|8|8|8,0:0|0:0|0:0|0:0,0:0:0:0:
288,224,203349,2,0,L|280:284,3,35,8|8|8|8,0:0|0:0|0:0|0:0,0:0:0:0:
328,260,203841,2,0,L|336:320,3,35,8|8|8|8,0:0|0:0|0:0|0:0,0:0:0:0:
380,296,204333,2,0,L|388:356,3,35,2|2|2|2,0:0|0:0|0:0|0:0,0:0:0:0:
392,252,204825,6,0,B|408:172|408:172|396:108,1,140,4|8,0:0|0:0,0:0:0:0:
256,24,205808,2,0,B|245:81|245:81|261:161,1,140,2|8,0:0|0:0,0:0:0:0:
284,244,206546,1,0,0:0:0:0:
284,244,206792,6,0,P|240:240|204:248,1,70,2|0,0:0|0:0,0:0:0:0:
148,296,207284,2,0,P|106:279|78:256,1,70,8|0,0:0|0:0,0:0:0:0:
36,196,207775,2,0,P|52:140|108:72,1,140,2|8,0:0|0:0,0:0:0:0:
176,32,208513,1,0,0:0:0:0:
176,32,208636,1,0,0:0:0:0:
176,32,208759,6,0,P|224:48|328:48,1,140,2|8,0:0|0:0,0:0:0:0:
396,36,209497,1,0,0:0:0:0:
396,36,209743,2,0,L|404:112,1,70,2|0,0:0|0:0,0:0:0:0:
460,168,210235,2,0,L|452:244,1,70,8|0,0:0|0:0,0:0:0:0:
460,320,210726,6,0,P|416:308|304:300,2,140,2|8|2,0:0|0:0|0:0,0:0:0:0:
400,380,211956,2,0,P|352:384|324:384,1,70,0|8,0:0|0:0,0:0:0:0:
252,356,212448,1,0,0:0:0:0:
252,356,212571,1,0,0:0:0:0:
252,356,212694,6,0,P|232:312|268:224,1,140,2|8,0:0|0:0,0:0:0:0:
340,80,213677,2,0,P|311:119|217:132,1,140,2|8,0:0|0:0,0:0:0:0:
160,80,214415,1,0,0:0:0:0:
160,80,214661,6,0,P|125:80|92:93,1,70,2|0,0:0|0:0,0:0:0:0:
36,156,215153,2,0,P|42:203|60:229,1,70,8|0,0:0|0:0,0:0:0:0:
112,280,215644,2,0,P|157:264|189:268,2,70,2|0|8,0:0|0:0|0:0,0:0:0:0:
44,332,216382,1,0,0:0:0:0:
44,332,216505,1,0,0:0:0:0:
44,332,216628,6,0,P|88:364|176:332,1,140,2|8,0:0|0:0,0:0:0:0:
244,312,217366,1,0,0:0:0:0:
320,348,217612,2,0,P|368:336|392:312,1,70,2|0,0:0|0:0,0:0:0:0:
440,260,218103,2,0,P|392:248|368:224,1,70,8|0,0:0|0:0,0:0:0:0:
396,152,218595,6,0,P|404:108|336:32,1,140,2|8,0:0|0:0,0:0:0:0:
208,124,219579,2,0,P|264:112|288:88,1,70,2|0,0:0|0:0,0:0:0:0:
268,20,220071,1,8,0:0:0:0:
188,44,220316,1,0,0:0:0:0:
188,44,220439,1,0,0:0:0:0:
188,44,220562,6,0,P|192:116|188:184,1,140,6|8,0:0|0:0,0:0:0:0:
128,244,221300,1,0,0:0:0:0:
88,168,221546,2,0,P|40:172|8:192,1,70,2|0,0:0|0:0,0:0:0:0:
44,264,222038,1,8,0:0:0:0:
128,244,222284,1,0,0:0:0:0:
128,244,222407,1,0,0:0:0:0:
128,244,222530,6,0,P|156:288|124:368,1,140,6|8,0:0|0:0,0:0:0:0:
212,380,223267,1,0,0:0:0:0:
212,380,223513,2,0,L|284:368,1,70,2|0,0:0|0:0,0:0:0:0:
360,340,224005,1,8,0:0:0:0:
296,284,224251,1,0,0:0:0:0:
296,284,224374,1,0,0:0:0:0:
296,284,224497,6,0,P|300:244|388:192,1,140,2|8,0:0|0:0,0:0:0:0:
456,216,225235,1,0,0:0:0:0:
456,216,225480,2,0,P|464:172|464:132,1,70,2|0,0:0|0:0,0:0:0:0:
472,64,225972,1,8,0:0:0:0:
396,104,226218,1,0,0:0:0:0:
396,104,226341,1,0,0:0:0:0:
396,104,226464,6,0,P|344:104|248:76,1,140,2|8,0:0|0:0,0:0:0:0:
200,20,227202,1,0,0:0:0:0:
144,84,227448,2,0,P|136:128|136:160,1,70,2|0,0:0|0:0,0:0:0:0:
64,196,227939,2,0,P|74:239|87:268,1,70,8|0,0:0|0:0,0:0:0:0:
168,256,228431,6,0,P|224:252|332:252,1,140,6|8,0:0|0:0,0:0:0:0:
376,200,229169,1,0,0:0:0:0:
312,148,229415,2,0,P|256:144|228:148,1,70,2|0,0:0|0:0,0:0:0:0:
160,164,229907,2,0,P|104:168|76:164,1,70,8|0,0:0|0:0,0:0:0:0:
16,128,230398,6,0,P|20:240|20:296,1,140,6|8,0:0|0:0,0:0:0:0:
12,352,231136,1,0,0:0:0:0:
84,312,231382,2,0,P|128:296|172:304,1,70,2|0,0:0|0:0,0:0:0:0:
212,352,231874,1,8,0:0:0:0:
272,292,232120,1,0,0:0:0:0:
272,292,232243,1,0,0:0:0:0:
272,292,232366,6,0,P|232:260|248:176,2,140,2|8|2,0:0|0:0|0:0,0:0:0:0:
348,256,233595,1,8,0:0:0:0:
348,256,233718,1,8,0:0:0:0:
348,256,233841,2,0,P|388:228|416:220,1,70
468,128,234333,5,8,0:3:0:0:
456,32,234579,1,8,0:3:0:0:
379,105,234825,1,8,0:3:0:0:
367,9,235071,1,8,0:3:0:0:
379,105,236300,6,0,P|311:93|231:109,1,140,4|8,0:0|0:0,0:0:0:0:
156,140,237038,1,0,0:0:0:0:
64,132,237284,2,0,P|68:84|84:52,1,70,2|0,0:0|0:0,0:0:0:0:
156,140,237775,2,0,P|167:172|168:207,1,70,8|0,0:0|0:0,0:0:0:0:
88,272,238267,6,0,P|148:252|212:292,1,140,2|8,0:0|0:0,0:0:0:0:
256,368,239005,1,0,0:0:0:0:
312,296,239251,2,0,P|320:248|308:212,1,70,2|0,0:0|0:0,0:0:0:0:
388,172,239743,2,0,P|370:126|342:101,1,70,8|0,0:0|0:0,0:0:0:0:
340,20,240235,6,0,P|284:56|188:32,1,140,2|8,0:0|0:0,0:0:0:0:
128,16,240972,1,0,0:0:0:0:
144,104,241218,2,0,P|212:96|270:133,1,140,2|8,0:0|0:0,0:0:0:0:
300,220,241956,1,0,0:0:0:0:
244,292,242202,6,0,P|156:288|100:280,1,140,2|8,0:0|0:0,0:0:0:0:
40,216,242939,1,0,0:0:0:0:
92,140,243185,2,0,P|120:168|140:212,1,70,2|0,0:0|0:0,0:0:0:0:
104,280,243677,1,8,0:0:0:0:
40,216,243923,1,0,0:0:0:0:
20,128,244169,6,0,P|72:124|160:96,2,140,2|8|2,0:0|0:0|0:0,0:0:0:0:
48,40,245398,1,0,0:0:0:0:
136,16,245644,2,0,P|200:24|224:32,1,70,8|0,0:0|0:0,0:0:0:0:
256,100,246136,6,0,P|316:80|408:72,1,140,2|8,0:0|0:0,0:0:0:0:
480,88,246874,1,0,0:0:0:0:
468,180,247120,2,0,P|398:172|331:151,1,140,2|8,0:0|0:0,0:0:0:0:
256,100,247857,1,0,0:0:0:0:
180,152,248103,6,0,P|168:216|168:296,1,140,2|8,0:0|0:0,0:0:0:0:
244,340,248841,1,0,0:0:0:0:
332,320,249087,2,0,P|360:284|316:204,1,140,2|8,0:0|0:0,0:0:0:0:
232,220,249825,1,0,0:0:0:0:
140,232,250071,6,0,L|96:228,2,35,8|8|8,0:3|0:3|0:3,0:0:0:0:
232,220,250562,2,0,P|232:168|208:112,1,105,8|8,0:0|0:0,0:0:0:0:
180,88,251054,2,0,P|232:76|252:56,2,70,8|8|8,0:0|0:0|0:0,0:0:0:0:
68,16,251792,1,8,0:0:0:0:
68,16,251915,1,8,0:0:0:0:
68,16,252038,6,0,P|56:80|48:160,1,140,4|8,0:0|0:0,0:0:0:0:
60,244,252775,1,0,0:0:0:0:
124,312,253021,2,0,P|180:304|208:288,1,70,2|0,0:0|0:0,0:0:0:0:
260,360,253513,2,0,P|300:320|313:291,1,70,8|0,0:0|0:0,0:0:0:0:
384,260,254005,6,0,P|340:228|340:140,1,140,2|8,0:0|0:0,0:0:0:0:
412,96,254743,1,0,0:0:0:0:
328,60,254989,2,0,P|276:48|252:20,1,70,2|0,0:0|0:0,0:0:0:0:
220,116,255480,2,0,P|168:128|144:156,1,70,8|0,0:0|0:0,0:0:0:0:
68,124,255972,6,0,P|72:192|72:280,1,140,2|8,0:0|0:0,0:0:0:0:
12,332,256710,1,0,0:0:0:0:
12,332,256956,2,0,P|60:308|152:328,1,140,2|8,0:0|0:0,0:0:0:0:
228,292,257694,1,0,0:0:0:0:
288,360,257939,6,0,P|336:384|428:364,1,140,2|8,0:0|0:0,0:0:0:0:
468,292,258677,1,0,0:0:0:0:
384,256,258923,1,2,0:0:0:0:
444,188,259169,1,0,0:0:0:0:
404,108,259415,2,0,P|368:96|308:104,1,70,8|0,0:0|0:0,0:0:0:0:
264,152,259907,6,0,P|296:104|236:40,1,140,2|8,0:0|0:0,0:0:0:0:
168,68,260644,1,0,0:0:0:0:
128,148,260890,2,0,L|140:224,1,70,2|0,0:0|0:0,0:0:0:0:
220,260,261382,1,8,0:0:0:0:
184,344,261628,1,0,0:0:0:0:
88,296,261874,6,0,P|44:240|64:156,1,140,2|8,0:0|0:0,0:0:0:0:
140,148,262612,2,0,P|200:156|284:160,1,140,2|0,0:0|0:0,0:0:0:0:
356,112,263349,1,8,0:0:0:0:
428,280,263841,6,0,P|412:344|388:368,1,70,2|0,0:0|0:0,0:0:0:0:
340,288,264333,2,0,P|281:318|247:317,1,70,8|0,0:0|0:0,0:0:0:0:
268,228,264825,2,0,P|206:205|184:179,1,70,2|0,0:0|0:0,0:0:0:0:
272,140,265316,2,0,P|247:78|252:45,1,70,8|0,0:0|0:0,0:0:0:0:
328,32,265808,6,0,P|232:36|176:32,2,140,2|8|2,0:0|0:0|0:0,0:0:0:0:
420,16,267038,1,0,0:0:0:0:
464,96,267284,2,0,P|448:152|428:176,1,70,8|0,0:0|0:0,0:0:0:0:
368,212,267775,5,8,0:0:0:0:
280,188,268021,1,8,0:0:0:0:
220,256,268267,2,0,P|160:272|128:268,1,70,8|8,0:0|0:0,0:0:0:0:
112,168,268759,1,8,0:0:0:0:
60,244,269005,1,8,0:0:0:0:
8,172,269251,2,0,P|0:136|0:100,1,70,8|8,0:0|0:0,0:0:0:0:
60,36,269743,6,0,L|104:44,3,35,8|8|8|8,0:0|0:0|0:0|0:0,0:0:0:0:
140,44,270235,2,0,L|174:37,3,35,8|8|8|8,0:0|0:0|0:0|0:0,0:0:0:0:
220,36,270726,2,0,L|254:42,3,35,8|8|8|8,0:0|0:0|0:0|0:0,0:0:0:0:
300,40,271218,2,0,L|334:33,3,35,8|8|8|8,0:0|0:0|0:0|0:0,0:0:0:0:
376,28,271710,6,0,P|368:100|372:168,1,140,4|8,0:0|0:0,0:0:0:0:
456,168,272448,1,2,0:0:0:0:
456,168,272571,1,2,0:0:0:0:
456,168,272694,2,0,P|464:240|460:308,1,140,2|8,0:0|0:0,0:0:0:0:
380,264,273431,1,2,0:0:0:0:
380,264,273554,1,2,0:0:0:0:
380,264,273677,6,0,P|324:236|248:280,1,140,2|8,0:0|0:0,0:0:0:0:
180,232,274415,1,2,0:0:0:0:
180,232,274538,1,2,0:0:0:0:
180,232,274661,2,0,P|124:260|48:216,1,140,2|8,0:0|0:0,0:0:0:0:
24,144,275398,1,2,0:0:0:0:
24,144,275521,1,2,0:0:0:0:
24,144,275644,6,0,P|88:144|176:120,1,140,2|8,0:0|0:0,0:0:0:0:
180,44,276382,1,2,0:0:0:0:
180,44,276505,1,2,0:0:0:0:
180,44,276628,2,0,P|247:61|317:61,1,140,2|8,0:0|0:0,0:0:0:0:
448,168,277612,6,0,P|472:100|416:32,1,140,2|8,0:0|0:0,0:0:0:0:
308,148,278595,2,0,L|320:208,1,35,2|8,0:0|0:0,0:0:0:0:
356,300,279087,2,0,L|372:224,1,70,8|0,0:0|0:0,0:0:0:0:
288,252,279579,6,0,P|236:260|152:212,1,140,2|8,0:0|0:0,0:0:0:0:
96,168,280316,1,2,0:0:0:0:
96,168,280439,1,2,0:0:0:0:
96,168,280562,2,0,P|148:176|232:128,1,140,2|8,0:0|0:0,0:0:0:0:
108,16,281546,6,0,P|88:64|84:92,1,70,2|0,0:0|0:0,0:0:0:0:
24,140,282038,2,0,P|36:190|49:215,1,70,8|0,0:0|0:0,0:0:0:0:
108,264,282530,2,0,L|180:248,1,70,2|0,0:0|0:0,0:0:0:0:
260,240,283021,2,0,L|328:255,1,70,8|0,0:0|0:0,0:0:0:0:
408,300,283513,5,8,0:0:0:0:
448,216,283759,1,8,0:0:0:0:
396,140,284005,2,0,P|384:96|392:56,1,70,8|8,0:0|0:0,0:0:0:0:
492,136,284497,1,8,0:0:0:0:
448,216,284743,1,8,0:0:0:0:
356,224,284989,2,0,P|321:225|288:214,1,70,8|8,0:0|0:0,0:0:0:0:
224,148,285480,6,0,L|172:120,3,35,8|8|8|8,0:0|0:0|0:0|0:0,0:0:0:0:
160,164,285972,2,0,L|101:159,3,35,8|8|8|8,0:0|0:0|0:0|0:0,0:0:0:0:
100,200,286464,2,0,L|44:219,3,35,8|8|8|8,0:0|0:0|0:0|0:0,0:0:0:0:
52,256,286956,2,0,L|9:296,4,35,8|8|8|8|8,0:0|0:0|0:0|0:0|0:0,0:0:0:0:
256,188,287939,5,2,0:0:0:0:
256,192,288062,12,0,295316,0:0:0:0:
