osu file format v14

[General]
AudioFilename: audio.mp3
AudioLeadIn: 0
PreviewTime: 61739
Countdown: 0
SampleSet: Soft
StackLeniency: 0.7
Mode: 0
LetterboxInBreaks: 0
WidescreenStoryboard: 0

[Editor]
DistanceSpacing: 1.3
BeatDivisor: 4
GridSize: 4
TimelineZoom: 2

[Metadata]
Title:Miracle * Feel Free
TitleUnicode:ミラクル☆フィールフリー
Artist:Kicco
ArtistUnicode:Kicco
Creator:sahuang
Version:Misure's Insane
Source:タユタマ2 -After Stories-
Tags:my angel azusa kalibe misure Lump of Sugar galgame eroge op you are the only one tayutama tayutai 水野大輔 Daisuke Mizuno
BeatmapID:1371454
BeatmapSetID:644688

[Difficulty]
HPDrainRate:6
CircleSize:4
OverallDifficulty:7
ApproachRate:8
SliderMultiplier:1.6
SliderTickRate:1

[Events]
//Background and Video events
0,0,"tayu.jpg",0,0
//Break Periods
//Storyboard Layer 0 (Background)
//Storyboard Layer 1 (Fail)
//Storyboard Layer 2 (Pass)
//Storyboard Layer 3 (Foreground)
//Storyboard Sound Samples

[TimingPoints]
1727,400,4,2,1,55,1,0
14527,-100,4,2,1,60,0,0
20927,-125,4,2,1,40,0,0
33727,-111.111111111111,4,2,1,50,0,0
46527,-125,4,2,1,40,0,0
49727,-105.263157894737,4,2,1,55,0,0
52927,-117.647058823529,4,2,1,40,0,0
56127,-117.647058823529,4,2,1,45,0,0
59327,-105.263157894737,4,2,1,55,0,0
62527,-90.9090909090909,4,2,1,65,0,1
75327,-83.3333333333333,4,2,1,70,0,1
88127,-100,4,2,1,60,0,0
100827,-100,4,2,1,35,0,0
101127,-100,4,2,1,55,0,0
103327,-100,4,2,1,50,0,0
104127,-100,4,2,1,45,0,0
104927,-100,4,2,1,40,0,0
105727,-100,4,2,1,35,0,0
106527,-100,4,2,1,30,0,0
107327,-100,4,2,1,25,0,0
108127,-100,4,2,1,20,0,0
108927,-100,4,2,1,15,0,0
109527,-100,4,2,1,10,0,0

[Colours]
Combo1 : 249,79,6
Combo2 : 92,92,92
Combo3 : 255,28,255
Combo4 : 128,255,0

[HitObjects]
192,182,927,6,0,P|193:202|200:221,1,40,0|0,3:0|3:0,0:0:0:0:
281,252,1127,2,0,P|298:241|310:225,1,40,8|8,3:0|3:0,0:0:0:0:
297,140,1327,2,0,P|279:131|259:128,1,40,8|0,3:0|3:0,0:0:0:0:
122,269,1727,6,0,P|201:254|281:252,1,160,4|8,0:0|0:0,0:0:0:0:
397,120,2327,1,0,0:0:0:0:
282,61,2527,2,0,P|286:101|297:140,1,80,8|0,0:0|0:0,0:0:0:0:
369,312,2927,2,0,P|379:273|383:233,1,80,8|0,0:0|0:0,0:0:0:0:
213,266,3327,6,0,P|173:260|133:259,2,80,10|0|8,0:0|0:0|0:0,0:0:0:0:
171,157,3927,2,0,P|121:213|50:188,1,160,2|0,0:0|0:0,0:0:0:0:
116,68,4527,1,8,0:0:0:0:
116,68,4727,1,0,0:0:0:0:
260,17,4927,6,0,P|261:96|268:176,1,160,10|8,0:0|0:0,0:0:0:0:
374,136,5527,1,0,0:0:0:0:
308,274,5727,2,0,P|270:284|232:275,2,80,8|0|8,0:0|0:0|0:0,0:0:0:0:
268,177,6327,1,0,0:0:0:0:
125,256,6527,6,0,P|130:281|136:335,1,80,10|0,0:0|0:0,0:0:0:0:
19,257,6927,1,8,0:0:0:0:
60,132,7127,2,0,P|122:176|192:145,1,160,2|0,0:0|0:0,0:0:0:0:
316,36,7727,2,0,P|276:32|237:22,1,80,8|0,0:0|0:0,0:0:0:0:
192,145,8127,6,0,P|270:131|350:133,1,160,4|8,0:0|0:0,0:0:0:0:
416,328,8727,1,0,0:0:0:0:
310,318,8927,2,0,P|316:278|329:240,1,80,8|0,0:0|0:0,0:0:0:0:
199,300,9327,2,0,P|211:337|218:377,1,80,8|0,0:0|0:0,0:0:0:0:
97,276,9727,6,0,P|103:236|116:198,2,80,10|0|8,0:0|0:0|0:0,0:0:0:0:
182,144,10327,2,0,P|106:153|68:87,1,160,2|0,0:0|0:0,0:0:0:0:
197,40,10927,1,8,0:0:0:0:
197,40,11127,1,0,0:0:0:0:
275,195,11327,6,0,P|195:194|115:197,1,160,10|8,0:0|0:0,0:0:0:0:
339,112,11927,1,0,0:0:0:0:
325,290,12127,2,0,P|286:301|247:306,1,80,8|0,0:0|0:0,0:0:0:0:
275,196,12527,1,8,0:0:0:0:
325,290,12727,1,0,0:0:0:0:
460,248,12927,6,0,P|446:210|440:170,1,80,10|0,0:0|0:0,0:0:0:0:
507,89,13327,1,8,0:0:0:0:
354,7,13527,2,0,P|352:77|346:166,1,160,2|0,0:0|0:0,0:0:0:0:
130,119,14127,1,0,1:0:0:0:
123,79,14227,1,0,3:0:0:0:
144,44,14327,1,0,3:0:0:0:
183,34,14427,1,0,3:0:0:0:
217,54,14527,5,10,0:0:0:0:
184,221,14927,1,8,0:0:0:0:
346,167,15327,1,10,0:0:0:0:
308,140,15527,1,2,0:0:0:0:
360,365,15727,1,8,0:0:0:0:
360,365,16127,5,10,0:0:0:0:
184,221,16327,1,2,0:0:0:0:
218,325,16527,1,8,0:0:0:0:
427,183,16727,1,10,0:0:0:0:
427,183,17127,1,4,0:0:0:0:
150,117,17327,1,4,0:0:0:0:
51,292,17727,5,10,0:0:0:0:
218,325,18127,1,8,0:0:0:0:
164,163,18527,1,10,0:0:0:0:
137,201,18727,1,2,0:0:0:0:
362,149,18927,1,8,0:0:0:0:
362,149,19327,5,10,0:0:0:0:
218,325,19527,1,2,0:0:0:0:
322,291,19727,1,8,0:0:0:0:
180,82,19927,1,10,0:0:0:0:
180,82,20327,1,4,0:0:0:0:
114,359,20527,1,4,0:0:0:0:
411,332,20927,6,0,P|429:273|394:221,1,128,2|8,0:0|0:0,0:0:0:0:
306,182,21527,2,0,P|310:150|317:119,1,64,2|0,0:0|0:0,0:0:0:0:
397,23,21927,2,0,P|402:47|408:85,1,64,2|8,0:0|0:0,0:0:0:0:
317,119,22327,6,0,P|285:121|254:113,1,64,2|0,0:0|0:0,0:0:0:0:
148,36,22727,2,0,P|179:28|211:31,1,64,2|8,0:0|0:0,0:0:0:0:
112,128,23127,2,0,P|50:130|10:83,1,128,2|0,0:0|0:0,0:0:0:0:
148,36,23727,1,8,0:0:0:0:
112,128,23927,1,8,0:3:0:0:
181,209,24127,6,0,P|236:189|304:175,1,128,2|8,0:0|0:0,0:0:0:0:
409,288,24727,2,0,P|377:286|345:280,1,64,2|0,0:0|0:0,0:0:0:0:
410,186,25127,2,0,P|441:179|473:177,1,64,2|8,0:0|0:0,0:0:0:0:
510,374,25527,1,0,0:0:0:0:
418,352,25727,6,0,P|411:320|409:289,2,64,2|0|8,0:0|0:0|0:0,0:0:0:0:
305,369,26327,2,0,P|261:326|280:268,1,128,2|8,0:0|0:3,0:0:0:0:
196,157,26927,1,8,0:0:0:0:
127,253,27127,1,0,3:0:0:0:
127,253,27227,1,0,3:0:0:0:
127,253,27327,6,0,P|63:260|0:263,1,128,2|8,0:0|0:0,0:0:0:0:
26,143,27927,2,0,P|36:116|41:81,1,64,2|0,0:0|0:0,0:0:0:0:
137,152,28327,2,0,P|168:156|197:169,2,64,2|8|0,0:0|0:0|0:0,0:0:0:0:
131,36,28927,6,0,P|192:47|239:7,1,128,2|8,0:0|0:0,0:0:0:0:
317,104,29527,2,0,P|310:135|307:167,1,64,2|0,0:0|0:0,0:0:0:0:
421,107,29927,2,0,P|416:63|411:41,1,64,2|8,0:0|0:0,0:0:0:0:
307,167,30327,1,8,0:3:0:0:
378,261,30527,6,0,P|438:240|500:224,1,128,2|8,0:0|0:0,0:0:0:0:
366,364,31127,2,0,P|334:358|304:347,1,64,2|0,0:0|0:0,0:0:0:0:
194,317,31527,2,0,P|196:348|202:380,1,64,2|8,0:0|0:0,0:0:0:0:
233,218,31927,1,0,0:0:0:0:
93,296,32127,6,0,P|64:292|30:284,1,64,4|0,0:0|0:0,0:0:0:0:
0,112,32527,1,0,0:0:0:0:
82,183,32727,2,0,P|129:145|115:86,1,128,4|8,0:0|0:0,0:0:0:0:
259,15,33327,1,8,3:0:0:0:
234,48,33427,1,0,3:0:0:0:
238,88,33527,1,0,3:0:0:0:
270,114,33627,1,0,3:0:0:0:
309,110,33727,6,0,L|287:252,1,143.999995605469,4|8,0:0|0:0,0:0:0:0:
125,377,34327,1,0,0:0:0:0:
117,275,34527,2,0,P|150:262|186:256,1,71.9999978027344
328,364,34927,2,0,P|292:357|258:345,1,71.9999978027344,8|0,0:0|0:0,0:0:0:0:
410,243,35327,6,0,P|415:278|418:314,2,71.9999978027344,2|0|8,0:0|0:0|0:0,0:0:0:0:
314,131,35927,1,0,0:0:0:0:
197,251,36127,2,0,P|229:236|264:228,1,71.9999978027344
418,314,36527,1,8,0:0:0:0:
484,232,36727,1,0,3:0:0:0:
424,72,36927,6,0,P|353:85|281:91,1,143.999995605469,2|8,0:0|0:0,0:0:0:0:
180,156,37527,1,0,0:0:0:0:
248,297,37727,2,0,P|258:262|264:227,1,71.9999978027344
141,311,38127,2,0,P|146:346|156:381,1,71.9999978027344,8|0,0:0|0:0,0:0:0:0:
8,252,38527,6,0,P|42:243|76:230,2,71.9999978027344,2|0|8,0:0|0:0|0:0,0:0:0:0:
110,132,39127,1,0,0:0:0:0:
202,201,39327,2,0,P|195:234|182:270,1,71.9999978027344
76,230,39727,1,8,0:0:0:0:
33,53,39927,1,0,3:0:0:0:
179,112,40127,6,0,P|145:124|110:132,1,71.9999978027344,2|0,0:0|0:0,0:0:0:0:
212,11,40527,1,8,0:0:0:0:
352,75,40727,2,0,P|344:110|341:145,1,71.9999978027344,4|0,0:0|0:0,0:0:0:0:
271,273,41127,2,0,P|306:269|341:258,1,71.9999978027344,0|8,0:0|0:0,0:0:0:0:
444,213,41527,1,0,0:0:0:0:
474,360,41727,6,0,P|439:349|404:340,2,71.9999978027344,2|0|8,0:0|0:0|0:0,0:0:0:0:
300,384,42327,2,0,P|250:338|271:273,1,143.999995605469
439,236,42927,1,8,0:0:0:0:
404,340,43127,1,0,3:0:0:0:
336,193,43327,6,0,P|405:204|462:164,1,143.999995605469,6|8,0:0|0:0,0:0:0:0:
302,39,43927,1,0,0:0:0:0:
221,101,44127,2,0,P|225:136|235:171,1,71.9999978027344
336,193,44527,1,8,0:0:0:0:
245,310,44727,6,0,P|173:298|102:293,1,143.999995605469,4|0,0:0|0:0,0:0:0:0:
175,118,45327,2,0,P|172:153|167:188,1,71.9999978027344,8|0,0:0|0:0,0:0:0:0:
245,310,45727,1,8,0:0:0:0:
353,183,45927,1,0,0:0:0:0:
381,284,46127,1,8,0:3:0:0:
455,210,46327,1,0,3:0:0:0:
351,70,46527,6,0,P|287:79|225:92,1,128,2|8,0:0|0:0,0:0:0:0:
40,171,47127,2,0,P|102:184|165:193,1,128,0|0,3:0|0:0,0:0:0:0:
150,12,47727,1,8,0:0:0:0:
150,12,47927,1,0,0:0:0:0:
225,92,48127,6,0,P|211:154|202:217,1,128,2|8,0:0|0:0,0:0:0:0:
287,355,48727,2,0,P|286:323|282:291,1,64,0|0,3:0|0:0,0:0:0:0:
202,218,49127,1,0,0:0:0:0:
374,103,49327,1,8,0:0:0:0:
374,103,49427,1,8,0:0:0:0:
374,103,49527,1,0,1:0:0:0:
374,103,49627,1,0,1:0:0:0:
374,103,49727,6,0,P|367:174|299:195,1,151.999995941162,4|8,0:0|0:0,0:0:0:0:
129,68,50327,2,0,P|200:53|251:106,1,151.999995941162,4|8,0:0|0:0,0:0:0:0:
245,268,50927,2,0,P|231:263|202:254,1,37.9999989852906,0|0,3:0|0:0,0:0:0:0:
139,164,51127,2,0,P|134:181|119:216,1,37.9999989852906,0|0,3:0|0:0,0:0:0:0:
45,280,51327,6,0,P|24:153|21:126,1,151.999995941162,6|8,0:0|0:0,0:0:0:0:
188,10,51927,1,0,0:0:0:0:
251,105,52127,2,0,P|238:140|222:175,1,75.9999979705811,8|0,0:0|0:0,0:0:0:0:
140,287,52527,2,0,P|161:294|179:303,3,37.9999989852906,0|0|0|0,3:0|3:0|3:0|3:0,0:0:0:0:
183,332,52927,6,0,P|250:323|317:312,1,136.000002593994,2|8,0:0|0:0,0:0:0:0:
355,194,53527,2,0,P|288:183|221:175,1,136.000002593994,2|0,0:0|0:0,0:0:0:0:
318,312,54127,1,8,0:0:0:0:
355,194,54327,1,0,0:0:0:0:
502,243,54527,6,0,P|499:276|495:310,1,68.0000012969971,2|0,0:0|0:0,0:0:0:0:
388,384,54927,1,8,0:0:0:0:
251,326,55127,2,0,P|284:317|317:312,1,68.0000012969971,2|0,0:0|0:0,0:0:0:0:
205,226,55527,1,8,0:0:0:0:
114,351,55727,1,0,3:0:0:0:
84,366,55827,1,0,3:0:0:0:
51,360,55927,1,0,1:0:0:0:
22,344,56027,1,0,1:0:0:0:
7,314,56127,6,0,P|8:280|17:247,1,68.0000012969971,2|0,0:0|0:0,0:0:0:0:
104,146,56527,1,8,0:0:0:0:
258,274,56727,2,0,P|190:266|123:253,1,136.000002593994,0|0,3:0|0:0,0:0:0:0:
224,64,57327,1,8,0:0:0:0:
204,168,57527,1,0,0:0:0:0:
341,156,57727,6,0,P|337:122|328:89,1,68.0000012969971,2|0,0:0|0:0,0:0:0:0:
204,168,58127,1,8,0:0:0:0:
258,274,58327,2,0,P|323:254|389:241,1,136.000002593994,0|0,3:0|0:0,0:0:0:0:
512,340,58927,2,0,P|478:337|444:332,1,68.0000012969971,8|0,0:0|0:0,0:0:0:0:
328,89,59327,5,6,0:0:0:0:
258,274,59527,1,0,0:0:0:0:
328,89,59727,1,8,0:0:0:0:
444,332,59927,1,4,0:0:0:0:
500,36,60327,1,4,0:0:0:0:
171,199,60727,6,0,P|187:268|258:274,1,151.999995941162,4|8,0:0|0:0,0:0:0:0:
376,186,61327,2,0,P|370:223|358:259,1,75.9999979705811,4|4,0:0|0:0,0:0:0:0:
357,259,61927,1,2,0:0:0:0:
171,198,62127,1,0,3:0:0:0:
205,218,62227,1,0,3:0:0:0:
244,208,62327,1,0,1:0:0:0:
265,173,62427,1,8,0:0:0:0:
258,132,62527,6,0,P|248:197|242:262,1,132.00000402832,4|0,3:2|0:0,0:0:0:0:
185,332,62927,2,0,P|227:319|270:312,1,88.000002685547,8|0,0:0|0:0,0:0:0:0:
440,280,63327,2,0,P|443:323|442:367,1,88.000002685547,0|0,3:0|0:0,0:0:0:0:
270,312,63727,1,8,0:0:0:0:
258,133,63927,6,0,P|301:141|344:145,1,88.000002685547,2|0,0:0|3:0,0:0:0:0:
337,35,64327,1,0,0:0:0:0:
144,30,64527,2,0,P|148:72|158:115,2,88.000002685547,8|0|0,0:0|0:0|3:0,0:0:0:0:
258,133,65127,1,0,0:0:0:0:
220,253,65327,1,8,0:0:0:0:
32,212,65527,6,0,P|75:206|119:203,1,88.000002685547,2|0,0:0|3:0,0:0:0:0:
74,318,65927,1,0,0:0:0:0:
14,94,66127,1,8,0:0:0:0:
119,203,66327,1,0,0:0:0:0:
258,133,66527,2,0,P|267:90|272:46,1,88.000002685547,0|0,3:0|0:0,0:0:0:0:
159,111,66927,1,8,0:0:0:0:
220,253,67127,6,0,P|263:254|309:264,1,88.000002685547,2|0,0:0|3:0,0:0:0:0:
392,174,67527,1,0,0:0:0:0:
468,287,67727,2,0,P|456:329|450:372,2,88.000002685547,8|0|0,0:0|0:0|3:0,0:0:0:0:
512,152,68327,1,0,0:0:0:0:
307,264,68527,1,8,0:0:0:0:
468,287,68727,1,0,0:0:0:0:
377,58,68927,6,0,P|358:119|392:174,1,132.00000402832,4|0,3:2|0:0,0:0:0:0:
512,152,69327,2,0,P|472:171|431:186,1,88.000002685547,8|0,0:0|0:0,0:0:0:0:
307,264,69727,2,0,P|319:300|330:357,1,88.000002685547,0|0,3:0|0:0,0:0:0:0:
214,207,70127,1,8,0:0:0:0:
116,355,70327,6,0,P|159:349|202:338,1,88.000002685547,2|0,0:0|3:0,0:0:0:0:
307,264,70727,1,0,0:0:0:0:
203,120,70927,1,8,0:0:0:0:
124,254,71127,2,0,P|46:225|47:142,1,176.000005371094,2|0,0:0|0:0,0:0:0:0:
337,151,71727,1,8,0:0:0:0:
203,120,71927,6,0,P|206:163|214:207,1,88.000002685547,2|0,0:0|3:0,0:0:0:0:
392,33,72327,1,0,0:0:0:0:
303,246,72527,1,8,0:0:0:0:
281,55,72727,1,0,0:0:0:0:
422,131,72927,2,0,P|380:142|337:151,1,88.000002685547,0|0,3:0|0:0,0:0:0:0:
281,55,73327,1,8,0:0:0:0:
130,168,73527,6,0,P|172:179|214:192,1,88.000002685547,2|0,0:0|3:0,0:0:0:0:
193,310,73927,1,0,0:0:0:0:
329,238,74127,2,0,P|330:194|336:151,1,88.000002685547,8|0,0:0|0:0,0:0:0:0:
413,327,74527,1,0,3:0:0:0:
510,228,74727,1,8,0:0:0:0:
423,86,74927,1,8,3:0:0:0:
389,66,75027,1,0,3:0:0:0:
350,76,75127,1,0,3:0:0:0:
329,111,75227,1,0,3:0:0:0:
336,151,75327,6,0,P|293:142|241:135,1,95.9999970703126,4|0,0:0|0:0,0:0:0:0:
50,246,75727,2,0,P|97:239|144:230,1,95.9999970703126,8|0,0:0|0:0,0:0:0:0:
119,25,76127,2,0,P|125:71|134:119,1,95.9999970703126,8|0,0:0|0:0,0:0:0:0:
241,331,76527,2,0,P|251:278|256:236,1,95.9999970703126,8|0,0:0|0:0,0:0:0:0:
460,79,76927,5,10,0:0:0:0:
427,231,77127,1,0,0:0:0:0:
364,88,77327,1,8,0:0:0:0:
499,166,77527,1,0,0:0:0:0:
344,183,77727,1,10,0:0:0:0:
460,79,77927,1,0,0:0:0:0:
427,231,78127,1,8,0:0:0:0:
364,88,78327,1,0,0:0:0:0:
256,210,78527,6,0,P|251:247|240:305,1,95.9999970703126,4|0,0:0|0:0,0:0:0:0:
158,113,78927,2,0,P|147:55|142:19,1,95.9999970703126,8|0,0:0|0:0,0:0:0:0:
269,103,79327,2,0,P|316:94|364:88,1,95.9999970703126,8|0,0:0|0:0,0:0:0:0:
153,225,79727,2,0,P|105:219|58:210,1,95.9999970703126,8|0,0:0|0:0,0:0:0:0:
273,352,80127,5,10,0:0:0:0:
306,200,80327,1,0,0:0:0:0:
369,343,80527,1,8,0:0:0:0:
234,265,80727,1,0,0:0:0:0:
389,248,80927,1,10,0:0:0:0:
273,352,81127,1,0,0:0:0:0:
306,200,81327,1,8,0:0:0:0:
369,343,81527,1,0,0:0:0:0:
211,184,81727,6,0,P|258:190|306:200,1,95.9999970703126,4|0,0:0|0:0,0:0:0:0:
496,85,82127,2,0,P|449:94|402:100,1,95.9999970703126,8|0,0:0|0:0,0:0:0:0:
428,308,82527,2,0,P|416:247|413:214,1,95.9999970703126,8|0,0:0|0:0,0:0:0:0:
306,2,82927,2,0,P|300:49|290:96,1,95.9999970703126,8|0,0:0|0:0,0:0:0:0:
179,244,83327,5,10,0:0:0:0:
116,101,83527,1,0,0:0:0:0:
83,253,83727,1,8,0:0:0:0:
199,149,83927,1,0,0:0:0:0:
44,166,84127,1,10,0:0:0:0:
179,244,84327,1,0,0:0:0:0:
116,101,84527,1,8,0:0:0:0:
83,253,84727,1,0,0:0:0:0:
269,383,84927,6,0,P|260:336|253:289,1,95.9999970703126,4|0,0:0|0:0,0:0:0:0:
368,97,85327,2,0,P|360:144|351:191,1,95.9999970703126,8|0,0:0|0:0,0:0:0:0:
146,167,85727,2,0,P|193:173|240:183,1,95.9999970703126,8|0,0:0|0:0,0:0:0:0:
367,303,86127,1,8,0:0:0:0:
62,317,86327,6,0,P|156:300|251:287,1,191.999994140625,4|0,0:0|0:0,0:0:0:0:
368,98,86927,1,8,0:0:0:0:
146,167,87127,1,0,0:0:0:0:
352,212,87327,2,0,P|357:234|360:258,2,47.9999985351563,0|0|0,1:0|3:0|3:0,0:0:0:0:
191,68,87727,2,0,P|194:44|199:20,2,47.9999985351563,8|0|0,3:0|3:0|3:0,0:0:0:0:
165,265,88127,6,0,P|85:263|7:248,1,160,4|8,0:0|0:0,0:0:0:0:
191,68,88727,1,0,0:0:0:0:
88,88,88927,2,0,P|91:127|102:166,1,80,8|0,0:0|0:0,0:0:0:0:
151,344,89327,2,0,P|161:305|165:265,1,80,8|0,0:0|0:0,0:0:0:0:
315,188,89727,6,0,P|275:180|235:181,2,80,10|0|8,0:0|0:0|0:0,0:0:0:0:
396,268,90327,2,0,P|345:324|274:298,1,160,2|0,0:0|0:0,0:0:0:0:
235,181,90927,1,8,0:0:0:0:
235,181,91127,1,0,0:0:0:0:
312,56,91327,6,0,P|390:82|465:100,1,160,10|8,0:0|0:0,0:0:0:0:
492,280,91927,1,0,0:0:0:0:
416,207,92127,2,0,P|379:213|338:226,2,80,8|0|8,0:0|0:0|0:0,0:0:0:0:
312,324,92727,1,0,0:0:0:0:
223,260,92927,6,0,P|226:220|234:180,1,80,10|0,0:0|0:0,0:0:0:0:
184,80,93327,1,8,0:0:0:0:
44,124,93527,2,0,P|75:193|31:256,1,160,2|0,0:0|0:0,0:0:0:0:
152,372,94127,2,0,P|144:333|141:294,1,80,8|0,0:0|0:0,0:0:0:0:
234,180,94527,6,0,P|270:243|338:215,1,160,4|8,0:0|0:0,0:0:0:0:
396,132,95127,1,0,0:0:0:0:
466,292,95327,2,0,P|426:298|388:311,1,80,8|0,0:0|0:0,0:0:0:0:
285,362,95727,2,0,P|278:322|265:284,1,80,8|0,0:0|0:0,0:0:0:0:
167,334,96127,6,0,P|127:340|89:353,2,80,10|0|8,0:0|0:0|0:0,0:0:0:0:
173,224,96727,2,0,P|97:233|59:167,1,160,2|0,0:0|0:0,0:0:0:0:
183,116,97327,1,8,0:0:0:0:
183,116,97527,1,0,0:0:0:0:
290,173,97727,6,0,P|349:119|404:61,1,160,10|8,0:0|0:0,0:0:0:0:
258,46,98327,1,0,0:0:0:0:
183,116,98527,2,0,P|143:109|105:99,1,80,8|0,0:0|0:0,0:0:0:0:
290,173,98927,1,8,0:0:0:0:
245,269,99127,1,0,0:0:0:0:
72,236,99327,6,0,P|110:225|150:218,1,80,10|0,0:0|0:0,0:0:0:0:
149,329,99727,1,8,0:0:0:0:
282,332,99927,2,0,L|290:173,1,160,2|0,0:0|3:0,0:0:0:0:
456,120,100527,5,8,3:0:0:0:
463,160,100627,1,8,3:0:0:0:
442,195,100727,1,0,1:0:0:0:
403,205,100827,1,0,1:0:0:0:
128,56,101127,5,6,0:0:0:0:
75,235,101727,1,4,0:0:0:0:
256,192,102327,1,4,0:0:0:0:
256,192,102427,12,0,109527,0:0:0:0:
