osu file format v14

[General]
AudioFilename: audio.mp3
AudioLeadIn: 0
PreviewTime: 61739
Countdown: 0
SampleSet: Soft
StackLeniency: 0.7
Mode: 0
LetterboxInBreaks: 0
WidescreenStoryboard: 0

[Editor]
Bookmarks: 14539,20939,33739,46539,62539
DistanceSpacing: 1
BeatDivisor: 1
GridSize: 16
TimelineZoom: 1

[Metadata]
Title:Miracle * Feel Free
TitleUnicode:ミラクル☆フィールフリー
Artist:Kicco
ArtistUnicode:Kicco
Creator:sahuang
Version:Kalibe's Easy
Source:タユタマ2 -After Stories-
Tags:my angel azusa kalibe misure Lump of Sugar galgame eroge op you are the only one tayutama tayutai 水野大輔 Daisuke Mizuno
BeatmapID:1368133
BeatmapSetID:644688

[Difficulty]
HPDrainRate:2
CircleSize:3
OverallDifficulty:2
ApproachRate:3
SliderMultiplier:0.95
SliderTickRate:1

[Events]
//Background and Video events
0,0,"tayu.jpg",0,0
//Break Periods
//Storyboard Layer 0 (Background)
//Storyboard Layer 1 (Fail)
//Storyboard Layer 2 (Pass)
//Storyboard Layer 3 (Foreground)
//Storyboard Sound Samples

[TimingPoints]
1727,400,4,2,1,55,1,0
62527,-100,4,2,1,60,0,1
88127,-100,4,2,1,55,0,0
101127,-100,4,2,1,70,0,0
109527,-100,4,2,1,10,0,0

[Colours]
Combo1 : 249,79,6
Combo2 : 92,92,92
Combo3 : 255,28,255
Combo4 : 128,255,0

[HitObjects]
372,110,1727,6,0,P|442:119|512:132,2,142.5,4|0|8,0:0|0:0|0:0,0:0:0:0:
290,158,3327,2,0,P|275:74|266:4,2,142.5,10|0|8,0:0|0:0|0:0,0:0:0:0:
346,234,4927,6,0,P|283:197|215:212,2,142.5,10|0|8,0:0|0:0|0:0,0:0:0:0:
300,317,6527,2,0,P|363:280|431:295,2,142.5,10|0|8,0:0|0:0|0:0,0:0:0:0:
221,370,8127,6,0,L|66:347,1,142.5,4|0,0:0|0:0,0:0:0:0:
9,225,9327,1,8,0:0:0:0:
89,173,9727,2,0,L|244:150,1,142.5,10|0,0:0|0:0,0:0:0:0:
346,234,10927,1,8,0:0:0:0:
423,179,11327,6,0,P|444:113|417:48,1,142.5,10|0,0:0|0:0,0:0:0:0:
276,24,12527,1,8,0:0:0:0:
195,74,12927,2,0,P|183:160|178:223,1,142.5,10|2,0:0|0:0,0:0:0:0:
235,345,14127,1,0,1:3:0:0:
305,281,14527,6,0,P|296:232|289:185,2,95,6|8|10,0:0|0:0|0:0,0:0:0:0:
350,364,15727,1,8,0:0:0:0:
437,326,16127,2,0,P|464:263|433:193,1,142.5,10|8,0:0|0:0,0:0:0:0:
359,143,17127,2,0,L|304:136,1,47.5,2|4,0:0|0:0,0:0:0:0:
229,184,17727,6,0,P|216:140|230:87,2,95,10|8|10,0:0|0:0|0:0,0:0:0:0:
290,256,18927,1,8,0:0:0:0:
234,333,19327,2,0,P|170:358|93:319,1,142.5,10|8,0:0|0:0,0:0:0:0:
9,328,20327,2,0,L|21:267,1,47.5,2|4,0:0|0:0,0:0:0:0:
70,202,20927,6,0,P|140:207|192:162,2,142.5,2|2|8,0:0|0:0|0:0,0:0:0:0:
18,281,22527,2,0,P|71:324|141:319,1,142.5,2|0,0:0|0:0,0:0:0:0:
257,242,23727,1,8,0:0:0:0:
328,304,24127,6,0,P|407:315|484:329,2,142.5,2|2|8,0:0|0:0|0:0,0:0:0:0:
259,370,25727,2,0,P|231:307|256:242,1,142.5,2|2,0:0|0:0,0:0:0:0:
387,185,26927,1,8,0:0:0:0:
302,141,27327,6,0,P|217:152|153:162,2,142.5,4|2|8,0:0|0:0|0:0,0:0:0:0:
363,68,28927,2,0,P|433:77|504:87,2,142.5,2|2|8,0:0|0:0|0:0,0:0:0:0:
276,29,30527,6,0,P|202:61|139:34,2,142.5,2|0|8,0:0|0:0|0:0,0:0:0:0:
363,68,32127,2,0,P|349:141|337:227,1,142.5,10|4,0:0|0:0,0:0:0:0:
382,344,33327,1,0,3:0:0:0:
291,313,33727,6,0,P|197:326|142:334,1,142.5,4|2,0:0|0:0,0:0:0:0:
29,256,34927,1,8,0:0:0:0:
103,197,35327,2,0,P|170:223|236:205,2,142.5,2|0|8,0:0|0:0|0:0,0:0:0:0:
33,132,36927,6,0,P|92:98|162:123,1,142.5,0|2,3:0|0:0,0:0:0:0:
250,228,38127,1,8,0:0:0:0:
329,176,38527,2,0,B|411:200|411:200|469:176,2,142.5,2|2|8,0:0|0:0|0:0,0:0:0:0:
245,130,40127,5,6,0:0:0:0:
121,200,40727,2,0,P|89:270|126:334,1,142.5,4|8,0:0|0:0,0:0:0:0:
196,374,41727,1,10,0:0:0:0:
309,287,42327,2,0,B|377:307|377:307|448:286,1,142.5,2|8,0:0|0:0,0:0:0:0:
482,198,43327,6,0,P|435:189|389:211,1,95,10|8,0:0|0:0,0:0:0:0:
312,156,44127,1,2,0:0:0:0:
206,252,44727,2,0,P|186:179|175:104,1,142.5,4|8,0:0|0:0,0:0:0:0:
122,34,45727,2,0,P|78:52|12:48,1,95,8|8,0:0|0:0,0:0:0:0:
53,145,46527,6,0,L|26:303,2,142.5,4|0|8,0:0|0:0|0:0,0:0:0:0:
132,197,48127,2,0,B|214:231|237:162|317:197,1,190,2|2,0:0|0:0,0:0:0:0:
376,270,49327,1,0,1:3:0:0:
453,214,49727,6,0,B|475:135|475:135|444:67,2,142.5,4|2|8,0:0|0:0|0:0,0:0:0:0:
409,298,51327,2,0,P|319:275|237:328,1,190,10|10,0:0|0:0,0:0:0:0:
153,361,52527,1,0,1:3:0:0:
70,314,52927,6,0,P|35:258|59:177,2,142.5,4|2|8,0:0|0:0|0:0,0:0:0:0:
131,241,54527,2,0,P|187:276|268:252,2,142.5,2|2|8,0:0|0:0|0:0,0:0:0:0:
206,183,56127,6,0,P|241:127|217:46,2,142.5,4|0|8,0:0|0:0|0:0,0:0:0:0:
145,109,57727,2,0,P|89:74|8:98,2,142.5,4|0|8,0:0|0:0|0:0,0:0:0:0:
206,183,59327,6,0,L|370:164,1,142.5,6|10,0:0|0:0,0:0:0:0:
409,238,60327,1,2,0:0:0:0:
350,312,60727,2,0,P|301:304|252:296,1,95,4|6,0:0|0:0,0:0:0:0:
190,365,61527,1,4,0:0:0:0:
122,138,62527,6,0,L|24:124,1,95,6|8,0:0|0:0,0:0:0:0:
70,39,63327,2,0,L|164:52,1,95,10|8,0:0|0:0,0:0:0:0:
238,111,64127,2,0,P|223:187|210:270,2,142.5,10|0|8,0:0|0:0|0:0,0:0:0:0:
301,40,65727,5,10,0:0:0:0:
383,87,66127,2,0,P|429:67|478:66,2,95,8|10|0,0:0|0:0|3:0,0:0:0:0:
331,166,67327,2,0,L|482:197,2,142.5,0|0|8,0:0|0:0|0:0,0:0:0:0:
333,260,68927,6,0,L|436:282,1,95,4|8,0:0|0:0,0:0:0:0:
374,359,69727,2,0,L|281:339,1,95,10|8,0:0|0:0,0:0:0:0:
196,295,70527,2,0,B|105:323|105:323|55:300,2,142.5,10|0|8,0:0|0:0|0:0,0:0:0:0:
235,208,72127,1,10,0:0:0:0:
150,164,72527,6,0,L|56:193,2,95,8|10|8,0:0|0:0|0:0,0:0:0:0:
202,84,73727,2,0,P|140:116|70:86,2,142.5,6|0|8,0:0|0:0|0:0,0:0:0:0:
275,22,75327,5,4,0:0:0:0:
357,69,75727,1,8,0:0:0:0:
443,29,76127,2,0,P|458:76|455:127,1,95,10|8,0:0|0:0,0:0:0:0:
395,193,76927,2,0,P|326:163|258:171,2,142.5,10|2|8,0:0|0:0|0:0,0:0:0:0:
462,260,78527,5,10,0:0:0:0:
406,336,78927,1,8,0:0:0:0:
323,288,79327,2,0,P|273:287|218:308,1,95,10|8,0:0|0:0,0:0:0:0:
150,352,80127,2,0,P|61:364|13:327,2,142.5,10|0|8,0:0|0:0|0:0,0:0:0:0:
230,300,81727,5,4,0:0:0:0:
155,240,82127,1,8,0:0:0:0:
213,165,82527,2,0,L|320:180,1,95,10|8,0:0|0:0,0:0:0:0:
381,118,83327,2,0,P|403:184|376:251,2,142.5,10|0|8,0:0|0:0|0:0,0:0:0:0:
301,64,84927,5,10,0:0:0:0:
224,119,85327,1,8,0:0:0:0:
149,60,85727,2,0,P|70:38|-4:77,2,142.5,10|4|8,0:0|0:0|0:0,0:0:0:0:
224,119,87327,2,0,L|203:220,1,95,8|0,0:0|1:3,0:0:0:0:
179,303,88127,6,0,B|98:278|98:278|41:312,2,142.5,4|0|8,0:0|0:0|0:0,0:0:0:0:
267,337,89727,2,0,B|348:362|348:362|405:328,2,142.5,10|0|8,0:0|0:0|0:0,0:0:0:0:
326,262,91327,6,0,B|351:181|351:181|321:131,2,142.5,10|0|8,0:0|0:0|0:0,0:0:0:0:
250,204,92927,2,0,B|169:179|169:179|119:208,2,142.5,10|0|8,0:0|0:0|0:0,0:0:0:0:
326,262,94527,6,0,P|405:279|461:249,1,142.5,4|0,0:0|0:0,0:0:0:0:
503,117,95727,1,8,0:0:0:0:
434,50,96127,2,0,P|336:60|291:66,1,142.5,10|0,0:0|0:0,0:0:0:0:
169,137,97327,1,8,0:0:0:0:
106,65,97727,6,0,P|74:127|90:195,1,142.5,10|0,0:0|0:0,0:0:0:0:
197,270,98927,1,8,0:0:0:0:
125,332,99327,2,0,B|40:346|40:346|-3:302,2,142.5,10|0|0,0:0|1:3|1:3,0:0:0:0:
237,244,101127,6,0,P|318:201|369:219,2,142.5,4|4|6,0:0|0:0|0:0,0:0:0:0:
256,192,103127,12,0,109527,0:0:0:0:
