osu file format v14

[General]
AudioFilename: audio.mp3
AudioLeadIn: 0
PreviewTime: 61727
Countdown: 0
SampleSet: Normal
StackLeniency: 0.7
Mode: 1
LetterboxInBreaks: 0
EpilepsyWarning: 1
WidescreenStoryboard: 1

[Editor]
Bookmarks: 927,1727,8127,14527,20927,33727,68927,75327,81727,84927,88127,94527,100927
DistanceSpacing: 0.2
BeatDivisor: 4
GridSize: 32
TimelineZoom: 1.2

[Metadata]
Title:Miracle * Feel Free
TitleUnicode:ミラクル☆フィールフリー
Artist:Kicco
ArtistUnicode:Kicco
Creator:[R]
Version:Muzukashii
Source:タユタマ2 -After Stories-
Tags:Tayutama 2 you are the only one tayutai Lump of Sugar eroge surono ron's Franklin_DeJavu
BeatmapID:1411931
BeatmapSetID:667260

[Difficulty]
HPDrainRate:6
CircleSize:5
OverallDifficulty:4
ApproachRate:5
SliderMultiplier:1.4
SliderTickRate:1

[Events]
//Background and Video events
0,0,"BG.jpg",0,0
//Break Periods
//Storyboard Layer 0 (Background)
Sprite,Background,TopLeft,"BG.jpg",0,0
//Storyboard Layer 1 (Fail)
//Storyboard Layer 2 (Pass)
//Storyboard Layer 3 (Foreground)
//Storyboard Sound Samples

[TimingPoints]
1727,400,4,1,0,90,1,0
62527,-100,4,1,0,100,0,1
88127,-100,4,1,0,90,0,0
104127,-100,4,1,0,75,0,0
105727,-100,4,1,0,60,0,0
107327,-100,4,1,0,45,0,0
108927,-100,4,1,0,30,0,0

[HitObjects]
256,192,927,5,0,0:0:0:0:
256,192,1027,1,0,0:0:0:0:
256,192,1127,1,0,0:0:0:0:
256,192,1327,1,8,0:0:0:0:
256,192,1727,5,4,0:0:0:0:
256,192,2127,1,0,0:0:0:0:
256,192,2327,1,8,0:0:0:0:
256,192,2527,1,0,0:0:0:0:
256,192,2727,1,0,0:0:0:0:
256,192,2927,1,8,0:0:0:0:
256,192,3327,1,8,0:0:0:0:
256,192,3527,1,0,0:0:0:0:
256,192,3927,1,0,0:0:0:0:
256,192,4127,1,8,0:0:0:0:
256,192,4327,1,8,0:0:0:0:
256,192,4527,1,0,0:0:0:0:
256,192,4927,1,8,0:0:0:0:
256,192,5327,1,0,0:0:0:0:
256,192,5527,1,8,0:0:0:0:
256,192,5727,1,8,0:0:0:0:
256,192,5927,1,0,0:0:0:0:
256,192,6127,1,8,0:0:0:0:
256,192,6527,1,8,0:0:0:0:
256,192,6727,1,0,0:0:0:0:
256,192,7127,1,0,0:0:0:0:
256,192,7227,1,0,0:0:0:0:
256,192,7327,1,0,0:0:0:0:
256,192,7527,1,8,0:0:0:0:
256,192,7727,1,8,0:0:0:0:
256,192,8127,1,4,0:0:0:0:
256,192,8527,1,0,0:0:0:0:
256,192,8727,1,8,0:0:0:0:
256,192,8927,1,0,0:0:0:0:
256,192,9127,1,0,0:0:0:0:
256,192,9327,1,8,0:0:0:0:
256,192,9727,1,8,0:0:0:0:
256,192,9927,1,0,0:0:0:0:
256,192,10327,1,0,0:0:0:0:
256,192,10527,1,8,0:0:0:0:
256,192,10727,1,8,0:0:0:0:
256,192,10927,1,0,0:0:0:0:
256,192,11327,1,8,0:0:0:0:
256,192,11727,1,0,0:0:0:0:
256,192,11927,1,8,0:0:0:0:
256,192,12127,1,8,0:0:0:0:
256,192,12327,1,0,0:0:0:0:
256,192,12527,1,8,0:0:0:0:
256,192,12927,1,8,0:0:0:0:
256,192,13127,1,0,0:0:0:0:
256,192,13227,1,0,0:0:0:0:
256,192,13327,1,0,0:0:0:0:
256,192,13527,1,8,0:0:0:0:
256,192,13927,1,8,0:0:0:0:
256,192,14127,1,8,0:0:0:0:
256,192,14527,1,4,0:0:0:0:
256,192,15327,1,4,0:0:0:0:
256,192,15527,1,4,0:0:0:0:
256,192,15727,1,4,0:0:0:0:
256,192,16127,1,4,0:0:0:0:
256,192,16527,1,4,0:0:0:0:
256,192,16727,1,4,0:0:0:0:
256,192,17127,1,12,0:0:0:0:
256,192,17327,1,12,0:0:0:0:
256,192,17727,1,4,0:0:0:0:
256,192,18527,1,4,0:0:0:0:
256,192,18727,1,4,0:0:0:0:
256,192,18927,1,4,0:0:0:0:
256,192,19327,1,4,0:0:0:0:
256,192,19527,1,4,0:0:0:0:
256,192,19927,1,4,0:0:0:0:
256,192,20327,1,12,0:0:0:0:
256,192,20527,1,12,0:0:0:0:
256,192,20927,1,0,0:0:0:0:
256,192,21327,1,0,0:0:0:0:
256,192,21527,1,0,0:0:0:0:
256,192,21927,1,8,0:0:0:0:
256,192,22327,1,0,0:0:0:0:
256,192,22527,1,8,0:0:0:0:
256,192,22727,1,0,0:0:0:0:
256,192,23127,1,8,0:0:0:0:
256,192,23527,1,0,0:0:0:0:
256,192,23927,1,8,0:0:0:0:
256,192,24127,1,0,0:0:0:0:
256,192,24527,1,0,0:0:0:0:
256,192,24727,1,0,0:0:0:0:
256,192,25127,1,8,0:0:0:0:
256,192,25527,1,8,0:0:0:0:
256,192,25727,1,8,0:0:0:0:
256,192,25927,1,0,0:0:0:0:
256,192,26327,1,0,0:0:0:0:
256,192,26727,1,8,0:0:0:0:
256,192,27127,1,0,0:0:0:0:
256,192,27227,1,0,0:0:0:0:
256,192,27327,1,0,0:0:0:0:
256,192,27727,1,0,0:0:0:0:
256,192,27927,1,8,0:0:0:0:
256,192,28327,1,8,0:0:0:0:
256,192,28927,1,0,0:0:0:0:
256,192,29327,1,0,0:0:0:0:
256,192,29527,1,8,0:0:0:0:
256,192,29927,1,8,0:0:0:0:
256,192,30327,1,8,0:0:0:0:
256,192,30527,1,0,0:0:0:0:
256,192,31127,1,8,0:0:0:0:
256,192,31527,1,8,0:0:0:0:
256,192,31727,1,0,0:0:0:0:
256,192,32127,1,12,0:0:0:0:
256,192,32327,1,0,0:0:0:0:
256,192,32527,1,0,0:0:0:0:
256,192,32727,1,12,0:0:0:0:
256,192,33727,1,4,0:0:0:0:
256,192,34127,1,8,0:0:0:0:
256,192,34327,1,0,0:0:0:0:
256,192,34727,1,0,0:0:0:0:
256,192,34927,1,8,0:0:0:0:
256,192,35127,1,0,0:0:0:0:
256,192,35327,1,0,0:0:0:0:
256,192,35727,1,8,0:0:0:0:
256,192,35927,1,8,0:0:0:0:
256,192,36327,1,0,0:0:0:0:
256,192,36527,1,8,0:0:0:0:
256,192,36927,1,0,0:0:0:0:
256,192,37327,1,8,0:0:0:0:
256,192,37527,1,0,0:0:0:0:
256,192,37927,1,0,0:0:0:0:
256,192,38127,1,8,0:0:0:0:
256,192,38327,1,8,0:0:0:0:
256,192,38527,1,0,0:0:0:0:
256,192,38927,1,8,0:0:0:0:
256,192,39127,1,0,0:0:0:0:
256,192,39527,1,8,0:0:0:0:
256,192,39727,1,8,0:0:0:0:
256,192,39927,1,8,0:0:0:0:
256,192,40127,5,0,0:0:0:0:
256,192,40527,1,0,0:0:0:0:
256,192,40727,1,12,0:0:0:0:
256,192,41127,1,0,0:0:0:0:
256,192,41527,1,8,0:0:0:0:
256,192,41727,1,0,0:0:0:0:
256,192,41927,1,0,0:0:0:0:
256,192,42127,1,8,0:0:0:0:
256,192,42327,1,12,0:0:0:0:
256,192,42727,1,0,0:0:0:0:
256,192,42927,1,8,0:0:0:0:
256,192,43327,1,0,0:0:0:0:
256,192,43727,1,8,0:0:0:0:
256,192,44127,1,8,0:0:0:0:
256,192,44327,1,0,0:0:0:0:
256,192,44527,1,8,0:0:0:0:
256,192,44727,1,4,0:0:0:0:
256,192,45127,1,8,0:0:0:0:
256,192,45327,1,8,0:0:0:0:
256,192,45727,1,8,0:0:0:0:
256,192,45927,1,0,0:0:0:0:
256,192,46127,1,8,0:0:0:0:
256,192,46327,1,8,0:0:0:0:
256,192,46527,1,4,0:0:0:0:
256,192,47127,1,8,0:0:0:0:
256,192,47327,1,0,0:0:0:0:
256,192,47727,1,8,0:0:0:0:
256,192,48127,1,0,0:0:0:0:
256,192,48727,1,0,0:0:0:0:
256,192,48927,1,0,0:0:0:0:
256,192,49127,1,8,0:0:0:0:
256,192,49327,1,8,0:0:0:0:
256,192,49427,1,8,0:0:0:0:
256,192,49527,1,8,0:0:0:0:
256,192,49727,1,4,0:0:0:0:
256,192,50127,1,8,0:0:0:0:
256,192,50327,1,0,0:0:0:0:
256,192,50727,1,8,0:0:0:0:
256,192,51127,1,0,0:0:0:0:
256,192,51327,1,0,0:0:0:0:
256,192,51727,1,8,0:0:0:0:
256,192,52127,1,8,0:0:0:0:
256,192,52327,1,0,0:0:0:0:
256,192,52527,1,8,0:0:0:0:
256,192,52727,1,0,0:0:0:0:
256,192,52827,1,0,0:0:0:0:
256,192,52927,1,0,0:0:0:0:
256,192,53327,1,8,0:0:0:0:
256,192,53527,1,0,0:0:0:0:
256,192,53927,1,8,0:0:0:0:
256,192,54327,1,8,0:0:0:0:
256,192,54727,1,0,0:0:0:0:
256,192,54927,1,0,0:0:0:0:
256,192,55127,1,0,0:0:0:0:
256,192,55527,1,8,0:0:0:0:
256,192,55727,1,0,0:0:0:0:
256,192,55927,1,8,0:0:0:0:
256,192,56327,1,0,0:0:0:0:
256,192,56527,1,0,0:0:0:0:
256,192,56727,1,8,0:0:0:0:
256,192,57127,1,8,0:0:0:0:
256,192,57327,1,0,0:0:0:0:
256,192,57527,1,0,0:0:0:0:
256,192,57727,1,8,0:0:0:0:
256,192,58127,1,8,0:0:0:0:
256,192,58327,1,0,0:0:0:0:
256,192,58727,1,8,0:0:0:0:
256,192,59327,1,4,0:0:0:0:
256,192,59727,1,0,0:0:0:0:
256,192,59927,1,4,0:0:0:0:
256,192,60327,1,4,0:0:0:0:
256,192,60727,1,12,0:0:0:0:
256,192,61127,1,4,0:0:0:0:
256,192,61327,1,4,0:0:0:0:
256,192,61527,1,4,0:0:0:0:
256,192,62127,1,8,0:0:0:0:
256,192,62527,1,4,0:0:0:0:
256,192,62927,1,0,0:0:0:0:
256,192,63327,1,8,0:0:0:0:
256,192,63527,1,0,0:0:0:0:
256,192,63627,1,0,0:0:0:0:
256,192,63727,1,0,0:0:0:0:
256,192,63927,1,8,0:0:0:0:
256,192,64127,1,0,0:0:0:0:
256,192,64527,1,8,0:0:0:0:
256,192,64727,1,0,0:0:0:0:
256,192,65127,1,8,0:0:0:0:
256,192,65327,1,8,0:0:0:0:
256,192,65527,1,0,0:0:0:0:
256,192,65927,1,0,0:0:0:0:
256,192,66127,1,8,0:0:0:0:
256,192,66327,1,8,0:0:0:0:
256,192,66427,1,8,0:0:0:0:
256,192,66527,1,8,0:0:0:0:
256,192,66727,1,0,0:0:0:0:
256,192,66927,1,8,0:0:0:0:
256,192,67127,1,0,0:0:0:0:
256,192,67527,1,0,0:0:0:0:
256,192,67727,1,8,0:0:0:0:
256,192,67927,1,0,0:0:0:0:
256,192,68327,1,0,0:0:0:0:
256,192,68527,1,0,0:0:0:0:
256,192,68727,1,8,0:0:0:0:
256,192,68927,1,0,0:0:0:0:
256,192,69327,1,0,0:0:0:0:
256,192,69727,1,8,0:0:0:0:
256,192,69927,1,8,0:0:0:0:
256,192,70027,1,8,0:0:0:0:
256,192,70127,1,8,0:0:0:0:
256,192,70327,1,0,0:0:0:0:
256,192,70727,1,0,0:0:0:0:
256,192,70927,1,8,0:0:0:0:
256,192,71127,1,0,0:0:0:0:
256,192,71527,1,0,0:0:0:0:
256,192,71727,1,0,0:0:0:0:
256,192,71927,1,8,0:0:0:0:
256,192,72127,1,0,0:0:0:0:
256,192,72327,1,0,0:0:0:0:
256,192,72427,1,0,0:0:0:0:
256,192,72527,1,0,0:0:0:0:
256,192,72727,1,8,0:0:0:0:
256,192,72927,1,0,0:0:0:0:
256,192,73327,1,0,0:0:0:0:
256,192,73527,1,8,0:0:0:0:
256,192,73927,1,8,0:0:0:0:
256,192,74127,1,0,0:0:0:0:
256,192,74527,1,8,0:0:0:0:
256,192,74727,1,8,0:0:0:0:
256,192,74927,1,8,0:0:0:0:
256,192,75327,1,4,0:0:0:0:
256,192,75527,1,8,0:0:0:0:
256,192,75727,1,0,0:0:0:0:
256,192,75927,1,0,0:0:0:0:
256,192,76027,1,0,0:0:0:0:
256,192,76127,1,0,0:0:0:0:
256,192,76327,1,8,0:0:0:0:
256,192,76727,1,8,0:0:0:0:
256,192,76927,1,0,0:0:0:0:
256,192,77127,1,0,0:0:0:0:
256,192,77327,1,8,0:0:0:0:
256,192,77527,1,0,0:0:0:0:
256,192,77927,1,0,0:0:0:0:
256,192,78527,1,12,0:0:0:0:
256,192,78727,1,0,0:0:0:0:
256,192,78927,1,8,0:0:0:0:
256,192,79127,1,0,0:0:0:0:
256,192,79227,1,0,0:0:0:0:
256,192,79327,1,0,0:0:0:0:
256,192,79527,1,8,0:0:0:0:
256,192,79927,1,0,0:0:0:0:
256,192,80127,1,8,0:0:0:0:
256,192,80327,1,8,0:0:0:0:
256,192,80527,1,0,0:0:0:0:
256,192,80727,1,8,0:0:0:0:
256,192,81127,1,8,0:0:0:0:
256,192,81727,1,4,0:0:0:0:
256,192,81927,1,0,0:0:0:0:
256,192,82127,1,8,0:0:0:0:
256,192,82327,1,0,0:0:0:0:
256,192,82427,1,0,0:0:0:0:
256,192,82527,1,0,0:0:0:0:
256,192,82727,1,8,0:0:0:0:
256,192,83127,1,8,0:0:0:0:
256,192,83327,1,0,0:0:0:0:
256,192,83527,1,8,0:0:0:0:
256,192,83727,1,8,0:0:0:0:
256,192,83927,1,0,0:0:0:0:
256,192,84327,1,8,0:0:0:0:
256,192,84727,1,8,0:0:0:0:
256,192,84927,1,0,0:0:0:0:
256,192,85327,1,8,0:0:0:0:
256,192,85727,1,8,0:0:0:0:
256,192,85927,1,0,0:0:0:0:
256,192,86127,1,0,0:0:0:0:
256,192,86327,1,8,0:0:0:0:
256,192,86727,1,0,0:0:0:0:
256,192,86927,1,0,0:0:0:0:
256,192,87127,1,8,0:0:0:0:
256,192,87227,1,8,0:0:0:0:
256,192,87327,1,8,0:0:0:0:
256,192,87527,1,0,0:0:0:0:
256,192,87727,1,8,0:0:0:0:
256,192,88127,5,4,0:0:0:0:
256,192,88527,1,0,0:0:0:0:
256,192,88727,1,8,0:0:0:0:
256,192,88927,1,0,0:0:0:0:
256,192,89127,1,0,0:0:0:0:
256,192,89327,1,8,0:0:0:0:
256,192,89727,1,8,0:0:0:0:
256,192,89927,1,0,0:0:0:0:
256,192,90327,1,0,0:0:0:0:
256,192,90527,1,8,0:0:0:0:
256,192,90727,1,8,0:0:0:0:
256,192,90927,1,0,0:0:0:0:
256,192,91327,1,8,0:0:0:0:
256,192,91727,1,0,0:0:0:0:
256,192,91927,1,8,0:0:0:0:
256,192,92127,1,8,0:0:0:0:
256,192,92327,1,0,0:0:0:0:
256,192,92527,1,8,0:0:0:0:
256,192,92927,1,8,0:0:0:0:
256,192,93127,1,0,0:0:0:0:
256,192,93527,1,0,0:0:0:0:
256,192,93627,1,0,0:0:0:0:
256,192,93727,1,0,0:0:0:0:
256,192,93927,1,8,0:0:0:0:
256,192,94127,1,8,0:0:0:0:
256,192,94527,1,4,0:0:0:0:
256,192,94927,1,0,0:0:0:0:
256,192,95127,1,8,0:0:0:0:
256,192,95327,1,0,0:0:0:0:
256,192,95527,1,0,0:0:0:0:
256,192,95727,1,8,0:0:0:0:
256,192,96127,1,8,0:0:0:0:
256,192,96327,1,0,0:0:0:0:
256,192,96727,1,0,0:0:0:0:
256,192,96927,1,8,0:0:0:0:
256,192,97127,1,8,0:0:0:0:
256,192,97327,1,0,0:0:0:0:
256,192,97727,1,8,0:0:0:0:
256,192,98127,1,0,0:0:0:0:
256,192,98327,1,8,0:0:0:0:
256,192,98527,1,8,0:0:0:0:
256,192,98727,1,0,0:0:0:0:
256,192,98927,1,8,0:0:0:0:
256,192,99327,1,8,0:0:0:0:
256,192,99527,1,0,0:0:0:0:
256,192,99627,1,0,0:0:0:0:
256,192,99727,1,0,0:0:0:0:
256,192,99927,1,8,0:0:0:0:
256,192,100327,1,8,0:0:0:0:
256,192,100527,1,8,0:0:0:0:
256,192,100727,1,8,0:0:0:0:
256,192,101127,5,4,0:0:0:0:
256,192,101727,1,4,0:0:0:0:
256,192,102327,1,4,0:0:0:0:
256,192,102527,12,0,109327,0:0:0:0:
