osu file format v14

[General]
AudioFilename: audio.mp3
AudioLeadIn: 0
PreviewTime: 81359
Countdown: 0
SampleSet: Soft
StackLeniency: 0.7
Mode: 0
LetterboxInBreaks: 0
WidescreenStoryboard: 1

[Editor]
DistanceSpacing: 1.2
BeatDivisor: 4
GridSize: 4
TimelineZoom: 1.6

[Metadata]
Title:Hoshi no You ni Naritai
TitleUnicode:星のようになりたい
Artist:Kicco
ArtistUnicode:Kicco
Creator:-Rei
Version:Fycho's Hard
Source:世界と世界の真ん中で
Tags:Lump of Sugar Sekai to no mannaka de Angel Note 中山♥マミ Nakayama Mami 椎名俊介 Shiina Shunsuke visual novel vn opening op japanese eroge galge gal short ver jpop j-pop pop precious gift MOCL-0001 moemix Laurier Momochikun Fycho
BeatmapID:4308947
BeatmapSetID:2061195

[Difficulty]
HPDrainRate:5
CircleSize:4
OverallDifficulty:6
ApproachRate:7
SliderMultiplier:1.5
SliderTickRate:1

[Events]
//Background and Video events
0,0,"BG.jpg",0,0
//Break Periods
//Storyboard Layer 0 (Background)
//Storyboard Layer 1 (Fail)
//Storyboard Layer 2 (Pass)
//Storyboard Layer 3 (Foreground)
//Storyboard Layer 4 (Overlay)
//Storyboard Sound Samples

[TimingPoints]
-737,342.857142857143,4,2,3,50,1,0
120,-133.333333333333,4,2,3,60,0,0
634,-133.333333333333,4,2,3,60,0,0
3119,-133.333333333333,4,2,3,50,0,0
3205,-133.333333333333,4,2,3,40,0,0
3291,-133.333333333333,4,2,3,60,0,0
4576,-133.333333333333,4,2,3,40,0,0
4748,-133.333333333333,4,2,3,60,0,0
5862,-133.333333333333,4,2,3,50,0,0
5948,-133.333333333333,4,2,3,40,0,0
6034,-133.333333333333,4,2,3,60,0,0
6120,-100,4,2,3,60,0,0
8863,-100,4,2,3,60,0,0
17005,-100,4,2,3,70,0,0
17091,-100,4,2,3,60,0,0
20005,-100,4,2,3,70,0,0
20177,-100,4,2,3,60,0,0
20348,-100,4,2,3,70,0,0
20520,-100,4,2,3,60,0,0
21291,-100,4,2,3,70,0,0
22234,-100,4,2,3,60,0,0
22577,-100,4,2,3,60,0,0
44520,-100,4,2,3,60,0,0
55662,-100,4,2,3,70,0,0
55834,-100,4,2,3,60,0,0
58148,-100,4,2,3,70,0,0
59263,-100,4,2,3,60,0,0
59605,-100,4,2,3,70,0,1
70234,-100,4,2,3,60,0,1
70577,-100,4,2,4,70,0,1
70919,-100,4,2,3,70,0,1
81376,-100,4,2,3,50,0,1
81548,-100,4,2,3,70,0,1
82405,-100,4,2,3,95,0,1
82577,-100,4,2,3,70,0,1
82748,-100,4,2,3,95,0,1
82920,-100,4,2,3,70,0,1
85834,-100,4,2,3,95,0,1
86005,-100,4,2,3,70,0,1
88920,-100,4,2,3,50,0,1
89091,-100,4,2,3,70,0,1
89519,-100,4,2,3,60,0,1
89605,-100,4,2,3,50,0,1
89777,-100,4,2,3,60,0,0
101263,-100,4,2,3,70,0,0
101434,-100,4,2,3,60,0,0

[Colours]
Combo1 : 27,193,228
Combo2 : 255,128,192
Combo3 : 249,137,70
Combo4 : 114,80,175

[HitObjects]
320,93,120,6,0,L|323:35,2,56.2500021457673,2|8|2,0:0|0:0|0:0,0:0:0:0:
337,167,634,6,0,P|395:175|447:151,2,112.500004291535,6|0|0,0:0|0:0|0:0,0:0:0:0:
304,238,1491,1,2,0:0:0:0:
232,267,1663,2,0,P|223:318|219:344,1,56.2500021457673,8|0,0:0|0:0,0:0:0:0:
148,320,2005,6,0,P|92:303|26:327,1,112.500004291535,6|0,0:0|0:0,0:0:0:0:
41,316,2520,1,0,0:0:0:0:
13,244,2691,2,0,L|6:206,3,28.1250010728836,0|0|2|0,0:0|0:0|0:0|0:0,0:0:0:0:
29,182,3034,2,0,L|22:144,3,28.1250010728836,8|8|8|0,0:0|0:0|0:0|0:0,0:0:0:0:
32,119,3377,6,0,B|108:120|108:120|143:107,1,112.500004291535,6|0,0:0|0:0,0:0:0:0:
201,167,3891,1,2,0:0:0:0:
121,203,4063,2,0,P|119:253|117:273,1,56.2500021457673,0|0,3:3|0:0,0:0:0:0:
199,248,4405,2,0,L|227:249|255:250,1,56.2500021457673,0|2,3:3|0:0,0:0:0:0:
340,256,4748,6,0,P|335:167|332:134,1,112.500004291535,6|0,0:0|0:0,0:0:0:0:
407,105,5263,2,0,L|413:171,1,56.2500021457673,2|8,0:0|0:0,0:0:0:0:
425,242,5605,1,2,0:0:0:0:
427,326,5777,2,0,L|391:343,3,28.1250010728836,8|8|8|0,0:0|0:0|0:0|0:0,0:0:0:0:
363,348,6120,6,0,P|281:323|210:368,1,150,6|8,0:0|0:0,0:0:0:0:
223,245,6634,1,8,0:0:0:0:
223,245,6977,2,0,L|229:159,1,75,8|0,0:0|0:0,0:0:0:0:
203,61,7320,5,8,0:0:0:0:
203,61,8005,1,8,0:0:0:0:
294,97,8177,2,0,L|371:85,1,75,8|2,0:0|0:0,0:0:0:0:
435,145,8520,2,0,P|452:198|444:253,1,112.5,8|0,0:0|0:0,0:0:0:0:
420,277,8863,6,0,P|350:278|284:332,2,150,6|8|8,0:2|0:0|0:0,0:0:0:0:
410,186,9720,1,2,0:0:0:0:
357,119,9891,2,0,L|368:42,1,75,8|2,0:0|0:0,0:0:0:0:
280,78,10234,6,0,P|209:94|151:49,1,150,10|8,0:0|0:0,0:0:0:0:
90,108,10748,2,0,P|87:206|86:286,1,150,2|2,0:0|0:0,0:0:0:0:
131,338,11263,1,8,0:0:0:0:
179,267,11434,1,2,0:0:0:0:
267,277,11605,6,0,P|322:294|422:259,1,150,6|8,0:0|0:0,0:0:0:0:
434,180,12120,2,0,P|442:137|454:93,1,75,0|8,0:0|0:0,0:0:0:0:
396,45,12463,1,2,0:0:0:0:
322,77,12634,1,8,0:0:0:0:
246,51,12805,1,2,0:0:0:0:
181,92,12977,6,0,L|99:98,1,75,8|2,0:0|0:0,0:0:0:0:
86,182,13320,1,8,0:0:0:0:
86,182,13491,2,0,L|160:176,1,75,0|8,0:0|0:0,0:0:0:0:
194,259,13834,1,2,0:0:0:0:
194,259,14005,2,0,L|119:264,1,75,8|2,0:0|0:0,0:0:0:0:
86,182,14348,6,0,P|76:111|61:19,2,150,6|8|8,0:0|0:0|0:0,0:0:0:0:
176,162,15205,2,0,P|211:151|248:144,1,75,2|8,0:0|0:0,0:0:0:0:
308,210,15548,6,0,P|373:241|449:215,1,150,2|2,0:0|0:0,0:0:0:0:
490,142,16063,1,8,0:0:0:0:
466,229,16234,2,0,L|489:308,1,75,0|8,0:0|0:0,0:0:0:0:
412,361,16577,2,0,L|391:288,1,75,2|8,0:0|0:0,0:0:0:0:
301,295,16920,1,2,0:0:0:0:
301,295,17005,1,2,0:0:0:0:
301,295,17091,6,0,B|256:315|256:315|231:300|231:300|198:318|160:308,1,150,6|8,0:0|0:0,0:0:0:0:
91,263,17605,1,0,0:0:0:0:
26,182,17777,2,0,L|108:183,1,75,8|2,0:0|0:0,0:0:0:0:
181,184,18120,1,8,0:0:0:0:
263,167,18291,6,0,P|300:158|340:145,1,75,0|8,0:0|0:0,0:0:0:0:
311,240,18634,2,0,P|313:293|314:315,1,75,0|8,0:0|0:0,0:0:0:0:
399,248,18977,1,0,0:0:0:0:
399,248,19148,2,0,P|387:155|380:94,1,150,8|8,0:0|0:0,0:0:0:0:
432,22,19663,1,2,0:0:0:0:
291,44,19834,6,0,L|295:81|299:118,1,75,6|0,0:0|0:0,0:0:0:0:
250,187,20177,2,0,P|212:191|175:195,1,75,8|0,0:0|0:0,0:0:0:0:
109,136,20520,1,8,0:0:0:0:
197,107,20691,1,2,0:0:0:0:
250,188,20863,2,0,L|252:274,1,75,8|8,0:0|0:0,0:0:0:0:
254,350,21205,5,6,0:2:0:0:
256,192,21291,12,8,22234,0:0:0:0:
370,78,22577,5,4,0:0:0:0:
370,78,22920,2,0,L|388:170,1,75,8|0,0:0|0:0,0:0:0:0:
379,236,23263,2,0,P|334:271|242:256,1,150,2|8,0:0|0:0,0:0:0:0:
163,259,23777,1,0,0:0:0:0:
89,227,23948,6,0,L|94:152,1,75,2|0,0:0|0:0,0:0:0:0:
117,73,24291,1,8,0:0:0:0:
117,73,24463,2,0,P|199:73|245:5,1,150,0|2,0:0|0:0,0:0:0:0:
287,108,24977,2,0,P|288:145|291:182,1,75,8|0,0:0|0:0,0:0:0:0:
286,270,25320,6,0,B|347:305|394:278|394:278|419:232,1,150,2|8,0:0|0:0,0:0:0:0:
395,164,25834,2,0,P|401:82|408:9,1,150
325,26,26348,1,8,0:0:0:0:
271,94,26520,6,0,B|163:112|163:112|116:88,1,150,2|2,0:0|0:0,0:0:0:0:
70,160,27034,2,0,P|62:196|59:233,1,75,8|0,0:0|0:0,0:0:0:0:
136,301,27377,2,0,P|144:264|147:227,1,75,2|2,0:0|0:0,0:0:0:0:
219,174,27720,1,8,0:0:0:0:
301,192,27891,1,0,0:0:0:0:
350,118,28063,6,0,P|389:188|365:252,1,150,2|8,0:0|0:0,0:0:0:0:
301,293,28577,1,0,0:0:0:0:
223,315,28748,2,0,B|179:301|179:301|125:302|125:302|72:282,1,150,2|8,0:0|0:0,0:0:0:0:
40,211,29263,1,0,0:0:0:0:
102,157,29434,6,0,P|161:164|241:104,1,150,2|8,0:0|0:0,0:0:0:0:
305,155,29948,2,0,P|343:143|380:134,1,75,0|2,0:0|0:0,0:0:0:0:
467,162,30291,1,2,0:0:0:0:
449,79,30463,1,8,0:0:0:0:
368,48,30634,1,0,0:0:0:0:
380,139,30805,6,0,P|382:241|384:306,1,150,2|8,0:0|0:0,0:0:0:0:
292,352,31320,2,0,P|290:250|288:185,1,150,0|2,0:0|0:0,0:0:0:0:
228,138,31834,1,8,0:0:0:0:
178,206,32005,6,0,L|96:230,1,75,2|0,0:0|0:0,0:0:0:0:
30,175,32348,1,2,0:0:0:0:
32,91,32520,2,0,L|21:-1,1,75,8|2,0:0|0:0,0:0:0:0:
112,144,32863,2,0,L|122:61,1,75,8|2,0:0|0:0,0:0:0:0:
177,208,33205,2,0,L|200:164,2,37.5,8|8|8,0:0|0:0|0:0,0:0:0:0:
238,274,33548,6,0,P|294:233|374:249,1,150,6|8,0:0|0:0,0:0:0:0:
446,211,34063,1,0,0:0:0:0:
475,132,34234,2,0,P|475:95|461:61,1,75,2|2,0:0|0:0,0:0:0:0:
372,44,34577,2,0,P|371:81|385:115,1,75,8|0,0:0|0:0,0:0:0:0:
310,153,34920,6,0,P|225:153|153:152,1,150,2|8,0:0|0:0,0:0:0:0:
78,137,35434,1,0,0:0:0:0:
66,211,35605,2,0,P|78:252|82:284,1,75,2|2,0:0|0:0,0:0:0:0:
136,345,35948,2,0,P|177:334|218:322,1,75,8|0,0:0|0:0,0:0:0:0:
272,273,36291,6,0,P|357:249|411:282,2,150,2|8|2,0:0|0:0|0:0,0:0:0:0:
215,208,37148,1,2,0:0:0:0:
137,241,37320,1,8,0:0:0:0:
79,179,37491,6,0,P|95:102|113:23,1,150,2|2,0:0|0:0,0:0:0:0:
196,24,38005,2,0,P|186:68|177:104,1,75,8|0,0:0|0:0,0:0:0:0:
236,156,38348,1,2,0:0:0:0:
236,156,38520,1,2,0:0:0:0:
325,144,38691,1,8,0:0:0:0:
273,82,38863,1,0,0:0:0:0:
293,227,39034,5,6,0:0:0:0:
292,227,39377,2,0,P|365:224|418:274,1,150,8|2,0:0|0:0,0:0:0:0:
500,248,39891,1,2,0:0:0:0:
500,248,40063,2,0,L|497:332,1,75,8|0,0:0|0:0,0:0:0:0:
419,268,40405,6,0,P|422:193|426:118,1,150,2|8,0:0|0:0,0:0:0:0:
476,51,40920,1,0,0:0:0:0:
411,123,41091,2,0,P|338:148|274:113,1,150,2|8,0:0|0:0,0:0:0:0:
198,103,41605,1,0,0:0:0:0:
132,149,41777,6,0,P|129:192|126:228,1,75,6|0,0:0|0:0,0:0:0:0:
191,276,42120,2,0,P|234:263|265:256,1,75,8|0,0:0|0:0,0:0:0:0:
329,207,42463,1,2,0:0:0:0:
398,259,42634,1,2,0:0:0:0:
397,338,42805,1,8,0:0:0:0:
310,351,42977,6,0,P|242:349|155:361,1,150,6|2,0:0|0:0,0:0:0:0:
56,292,43491,2,0,P|93:289|130:291,1,75,8|0,0:0|0:0,0:0:0:0:
131,210,43834,2,0,P|168:213|206:210,1,75,8|2,0:0|0:0,0:0:0:0:
186,132,44177,2,0,P|222:130|260:131,1,75,8|8,0:0|0:0,0:0:0:0:
351,133,44520,6,0,P|358:68|286:25,1,150,6|8,0:0|0:0,0:0:0:0:
215,35,45034,1,0,0:0:0:0:
141,74,45205,2,0,P|117:36|103:7,1,75,2|2,0:0|0:0,0:0:0:0:
45,84,45548,1,8,0:0:0:0:
45,168,45720,6,0,B|28:275|28:275|40:320,1,150,2|2,0:0|0:0,0:0:0:0:
114,359,46234,2,0,P|151:357|184:341,1,75,8|0,0:0|0:0,0:0:0:0:
233,272,46577,2,0,P|266:256|303:254,1,75,2|2,0:0|0:0,0:0:0:0:
362,315,46920,2,0,P|399:313|432:297,1,75,8|0,0:0|0:0,0:0:0:0:
493,243,47263,6,0,B|505:206|483:171|483:171|462:138|481:100,1,150,6|8,0:0|0:0,0:0:0:0:
428,30,47777,2,0,L|503:9,1,75,6|0,0:0|0:0,0:0:0:0:
390,108,48120,2,0,L|318:127,1,75,6|8,0:0|0:0,0:0:0:0:
243,169,48463,6,0,B|197:178|167:160|167:160|161:86,1,150,6|2,0:0|0:0,0:0:0:0:
81,142,48977,2,0,L|75:222,1,75,8|2,0:0|0:0,0:0:0:0:
146,321,49320,2,0,L|151:246,1,75,8|2,0:0|0:0,0:0:0:0:
234,305,49663,2,0,L|234:342,2,37.5,8|2|2,0:0|0:0|0:0,0:0:0:0:
302,249,50005,6,0,P|341:207|441:224,1,150,6|8,0:0|0:0,0:0:0:0:
425,126,50520,1,0,0:0:0:0:
349,80,50691,2,0,L|354:6,2,75,2|2|8,0:0|0:0|0:0,0:0:0:0:
270,133,51205,6,0,B|220:152|173:126|173:126|150:140|119:139,1,150,2|2,0:0|0:0,0:0:0:0:
54,95,51720,1,8,0:0:0:0:
12,172,51891,1,0,0:0:0:0:
12,172,52063,2,0,L|8:252,1,75,2|2,0:0|0:0,0:0:0:0:
35,326,52405,2,0,P|71:342|108:337,1,75,8|0,0:0|0:0,0:0:0:0:
184,301,52748,6,0,L|261:284,1,75,6|0,0:0|0:0,0:0:0:0:
335,326,53091,1,8,0:0:0:0:
399,263,53263,2,0,B|397:236|393:215|393:215|405:192|405:192|387:149|400:96,1,150,0|2,0:0|0:0,0:0:0:0:
308,133,53777,2,0,L|234:149,1,75,8|0,0:0|0:0,0:0:0:0:
147,120,54120,6,0,P|135:80|136:38,1,75,6|0,0:0|0:0,0:0:0:0:
213,25,54463,1,8,0:0:0:0:
289,57,54634,2,0,B|316:90|316:90|365:94|394:78|394:78|418:96,1,150,0|2,0:0|0:0,0:0:0:0:
498,128,55148,2,0,P|510:88|509:46,1,75,8|0,0:0|0:0,0:0:0:0:
432,178,55491,6,0,P|420:218|421:260,1,75,6|0,0:0|0:0,0:0:0:0:
350,305,55834,2,0,L|266:316,1,75,8|0,0:0|0:0,0:0:0:0:
158,253,56177,2,0,L|232:243,1,75,2|2,0:0|0:0,0:0:0:0:
297,188,56520,1,8,0:0:0:0:
246,89,56691,6,0,B|136:69|136:69|101:84,1,150,6|2,0:0|0:0,0:0:0:0:
119,230,57205,2,0,L|135:156,1,75,8|2,0:0|0:0,0:0:0:0:
41,249,57548,2,0,L|61:331,1,75,8|2,0:0|0:0,0:0:0:0:
145,355,57891,1,8,0:0:0:0:
145,355,57977,1,8,0:0:0:0:
145,355,58063,1,4,0:0:0:0:
256,192,58148,12,6,59263,0:0:0:0:
58,149,59605,6,0,B|97:158|125:146|125:146|148:153|148:153|177:144|226:155,1,150,6|8,0:0|0:0,0:0:0:0:
286,181,60120,2,0,P|356:202|418:164,1,150,0|2,0:0|0:0,0:0:0:0:
436,257,60634,1,8,0:0:0:0:
353,302,60805,6,0,P|283:281|221:319,1,150,2|2,0:0|0:0,0:0:0:0:
147,367,61320,2,0,L|134:284,1,75,8|0,0:0|0:0,0:0:0:0:
26,241,61663,2,0,L|37:315,1,75,2|2,0:0|0:0,0:0:0:0:
104,217,62005,2,0,L|92:142,1,75,8|0,0:0|0:0,0:0:0:0:
16,95,62348,6,0,P|81:106|161:54,1,150,6|8,0:0|0:0,0:0:0:0:
233,105,62863,1,0,0:0:0:0:
316,112,63034,2,0,P|328:147|328:184,1,75,2|2,0:0|0:0,0:0:0:0:
268,248,63377,1,8,0:0:0:0:
187,226,63548,1,2,0:0:0:0:
104,261,63720,6,0,B|68:241|68:241|56:130,1,150,0|8,0:0|0:0,0:0:0:0:
121,80,64234,2,0,P|119:43|112:6,1,75,0|2,0:0|0:0,0:0:0:0:
205,37,64577,2,0,P|206:74|213:111,1,75,2|8,0:0|0:0,0:0:0:0:
277,159,64920,1,0,0:0:0:0:
347,112,65091,6,0,P|415:92|480:148,2,150,6|8|2,0:0|0:0|0:0,0:0:0:0:
300,182,65948,1,2,0:0:0:0:
331,257,66120,2,0,L|341:333,1,75,8|0,0:0|0:0,0:0:0:0:
239,369,66463,6,0,L|248:294,1,75,6|0,0:0|0:0,0:0:0:0:
190,242,66805,1,8,0:0:0:0:
145,176,66977,2,0,P|148:96|156:23,1,150,0|2,0:0|0:0,0:0:0:0:
238,61,67491,2,0,L|321:70,1,75,8|0,0:0|0:0,0:0:0:0:
401,164,67834,6,0,L|326:155,1,75,6|0,0:0|0:0,0:0:0:0:
350,317,68177,2,0,L|358:242,1,75,8|0,0:0|0:0,0:0:0:0:
194,227,68520,2,0,L|268:235,1,75,2|2,0:0|0:0,0:0:0:0:
242,72,68863,2,0,L|233:146,1,75,8|0,0:0|0:0,0:0:0:0:
468,123,69205,6,0,P|403:89|339:121,1,150,6|8,0:0|0:0,0:0:0:0:
305,196,69720,1,2,0:0:0:0:
219,206,69891,2,0,P|181:244|163:271,1,75,8|2,0:0|0:0,0:0:0:0:
245,295,70234,2,0,P|223:344|216:375,1,75,8|8,0:0|0:0,0:0:0:0:
332,282,70577,6,0,P|397:272|480:340,1,150,6|8,0:0|0:0,0:0:0:0:
482,220,71091,2,0,P|468:135|454:64,1,150,2|2,0:0|0:0,0:0:0:0:
379,65,71605,1,8,0:0:0:0:
323,127,71777,6,0,P|256:175|186:153,1,150,2|2,0:0|0:0,0:0:0:0:
130,212,72291,2,0,P|117:170|114:131,1,75,8|0,0:0|0:0,0:0:0:0:
33,137,72634,2,0,P|43:94|61:59,1,75,2|2,0:0|0:0,0:0:0:0:
143,55,72977,1,8,0:0:0:0:
219,95,73148,1,0,0:0:0:0:
284,148,73320,6,0,B|351:131|351:131|389:159|441:146,1,150,6|8,0:0|0:0,0:0:0:0:
477,77,73834,1,0,0:0:0:0:
477,77,74005,2,0,L|461:253,1,150,2|8,0:0|0:0,0:0:0:0:
397,283,74520,1,2,0:0:0:0:
345,221,74691,6,0,P|268:180|211:205,2,150,2|8|2,0:0|0:0|0:0,0:0:0:0:
308,297,75548,1,2,0:0:0:0:
238,332,75720,2,0,L|163:313,1,75,8|0,0:0|0:0,0:0:0:0:
15,261,76063,6,0,P|90:212|145:233,2,150,6|8|2,0:0|0:0|0:0,0:0:0:0:
29,352,76920,1,2,0:0:0:0:
91,287,77091,2,0,L|81:195,1,75,8|0,0:0|0:0,0:0:0:0:
151,145,77434,6,0,L|172:298,1,150,6|8,0:0|0:0,0:0:0:0:
236,337,77948,1,0,0:0:0:0:
257,260,78120,2,0,P|304:246|344:238,2,75,2|2|8,0:0|0:0|0:0,0:0:0:0:
171,293,78634,1,0,0:0:0:0:
135,224,78805,6,0,L|163:153,1,75,6|0,0:0|0:0,0:0:0:0:
136,53,79148,2,0,P|196:74|231:88,1,75,8|0,0:0|0:0,0:0:0:0:
253,151,79491,1,2,0:0:0:0:
253,151,79663,1,2,0:0:0:0:
334,141,79834,2,0,P|394:120|429:106,1,75,8|0,0:0|0:0,0:0:0:0:
490,220,80177,6,0,P|453:209|413:200,1,75,6|8,0:0|0:0,0:0:0:0:
334,141,80520,2,0,P|297:130|257:121,1,75,8|2,0:0|0:0,0:0:0:0:
172,65,80863,2,0,P|208:56|244:45,1,75,8|2,0:0|0:0,0:0:0:0:
340,59,81205,2,0,P|376:50|412:39,1,75,8|8,0:0|0:0,0:0:0:0:
409,125,81548,6,0,L|425:206,1,75,6|0,0:0|0:0,0:0:0:0:
330,213,81891,2,0,L|327:297,1,75,8|0,0:0|0:0,0:0:0:0:
219,214,82234,2,0,L|222:298,1,75,8|2,0:0|0:0,0:0:0:0:
140,126,82577,2,0,L|124:207,1,75,8|2,0:0|0:0,0:0:0:0:
105,341,82920,5,2,0:0:0:0:
180,298,83091,1,0,0:0:0:0:
265,263,83263,2,0,L|355:255,1,75,8|0,0:0|0:0,0:0:0:0:
473,241,83605,1,8,0:0:0:0:
409,181,83777,1,2,0:0:0:0:
336,137,83948,2,0,L|246:145,1,75,8|0,0:0|0:0,0:0:0:0:
119,180,84291,6,0,P|129:137|136:101,1,75,2|0,0:0|0:0,0:0:0:0:
222,58,84634,2,0,P|176:29|151:12,1,75,8|0,0:0|0:0,0:0:0:0:
36,20,84977,2,0,P|39:57|43:94,1,75,8|2,0:0|0:0,0:0:0:0:
48,205,85320,2,0,P|83:191|118:180,1,75,8|0,0:0|0:0,0:0:0:0:
218,196,85663,5,2,0:0:0:0:
158,266,85834,1,0,0:0:0:0:
252,363,86005,2,0,P|254:325|248:288,1,75,8|0,0:0|0:0,0:0:0:0:
218,196,86348,1,8,0:0:0:0:
311,229,86520,1,2,0:0:0:0:
410,221,86691,2,0,P|415:257|411:294,1,75,8|2,0:0|0:0,0:0:0:0:
508,317,87034,6,0,P|501:252|488:152,1,150,6|8,0:0|0:0,0:0:0:0:
496,46,87548,2,0,P|429:83|354:48,1,150,6|6,0:0|0:0,0:0:0:0:
136,163,88234,1,6,0:0:0:0:
136,163,88920,2,0,L|116:253,1,75,2|8,0:0|0:0,0:0:0:0:
258,357,89434,2,0,L|259:309,2,37.5,8|8|8,0:0|0:0|0:0,0:0:0:0:
343,333,89777,6,0,P|456:308|496:335,1,150,6|8,0:0|0:0,0:0:0:0:
474,220,90291,1,0,0:0:0:0:
405,146,90463,2,0,L|389:223,1,75,8|2,0:0|0:0,0:0:0:0:
305,184,90805,2,0,L|314:265,1,75,8|2,0:0|0:0,0:0:0:0:
205,248,91148,6,0,L|129:239,1,75,8|0,0:0|0:0,0:0:0:0:
103,315,91491,2,0,L|19:323,1,75,8|0,0:0|0:0,0:0:0:0:
21,219,91834,2,0,L|54:135,1,75,8|2,0:0|0:0,0:0:0:0:
131,150,92177,2,0,L|119:55,1,75,8|2,0:0|0:0,0:0:0:0:
219,104,92520,6,0,L|367:85,2,150,6|8|8,0:0|0:0|0:0,0:0:0:0:
247,193,93377,2,0,L|230:279,1,75,2|8,0:0|0:0,0:0:0:0:
272,339,93720,6,0,L|354:328,1,75,2|8,0:0|0:0,0:0:0:0:
430,292,94063,2,0,L|417:210,1,75,0|8,0:0|0:0,0:0:0:0:
357,155,94405,2,0,L|275:168,1,75,0|8,0:0|0:0,0:0:0:0:
202,129,94748,2,0,L|212:46,1,75,2|8,0:0|0:0,0:0:0:0:
291,39,95091,1,0,0:0:0:0:
359,154,95263,6,0,P|376:288|379:332,1,150,4|8,0:0|0:0,0:0:0:0:
296,301,95777,1,0,0:0:0:0:
212,233,95948,2,0,L|296:214,1,75,8|2,0:0|0:0,0:0:0:0:
364,246,96291,1,8,0:0:0:0:
447,277,96463,6,0,B|458:344|458:344|426:368|372:371,1,150,2|0,0:0|0:0,0:0:0:0:
296,301,96977,2,0,L|375:286,1,75,8|0,0:0|0:0,0:0:0:0:
217,350,97320,2,0,L|206:269,1,75,8|2,0:0|0:0,0:0:0:0:
132,229,97663,2,0,L|143:149,1,75,8|2,0:0|0:0,0:0:0:0:
193,80,98005,6,0,P|263:61|314:111,2,150,6|8|8,0:0|0:0|0:0,0:0:0:0:
213,164,98863,1,2,0:0:0:0:
274,223,99034,1,8,0:0:0:0:
350,197,99205,6,0,L|428:177,1,75,2|8,0:0|0:0,0:0:0:0:
473,87,99548,2,0,L|400:105,1,75,0|8,0:0|0:0,0:0:0:0:
308,109,99891,2,0,L|316:27,1,75,0|8,0:0|0:0,0:0:0:0:
229,81,100234,2,0,L|221:155,1,75,2|8,0:0|0:0,0:0:0:0:
161,206,100577,1,2,0:0:0:0:
77,137,100748,6,0,P|86:212|94:287,1,150,6|8,0:0|0:0,0:0:0:0:
146,360,101263,1,0,0:0:0:0:
219,308,101434,2,0,P|264:319|299:307,1,75,8|2,0:0|0:0,0:0:0:0:
342,237,101777,2,0,L|401:225,3,37.5,8|8|8|8,0:0|0:0|0:0|0:0,0:0:0:0:
404,192,102120,6,0,L|482:170,1,75,4|0,0:0|0:0,0:0:0:0:
340,53,102634,1,0,0:0:0:0:
162,135,102977,2,0,L|80:126,1,75,2|8,0:0|0:0,0:0:0:0:
361,166,103491,6,0,L|387:326,1,150,6|2,0:0|0:0,0:0:0:0:
203,291,104005,2,0,P|264:249|337:252,1,150,6|2,0:0|0:0,0:0:0:0:
436,285,104520,2,0,L|420:373,1,75,4|6,0:0|0:0,0:0:0:0:
