osu file format v14

[General]
AudioFilename: audio.mp3
AudioLeadIn: 0
PreviewTime: 51942
Countdown: 0
SampleSet: Soft
StackLeniency: 0.6
Mode: 0
LetterboxInBreaks: 0
WidescreenStoryboard: 1

[Editor]
Bookmarks: 27171,52694,88371
DistanceSpacing: 1.4
BeatDivisor: 4
GridSize: 16
TimelineZoom: 1.5

[Metadata]
Title:Get the Freedom
TitleUnicode:Get the Freedom
Artist:Kicco
ArtistUnicode:Kicco
Creator:Bellicose
Version:soda's Insane
Source:ねこツク、さくら。
Tags:meis clauson angel note lump of sugar Nekotsuku Sakura kemonomimi eroge video game visual novel vn japanese pop opening short version sodarose superdaloubot [r] ron jpop j-pop op 羽生みいな hanyu miina
BeatmapID:2422483
BeatmapSetID:1159892

[Difficulty]
HPDrainRate:6
CircleSize:4
OverallDifficulty:8
ApproachRate:9
SliderMultiplier:1.6
SliderTickRate:1

[Events]
//Background and Video events
0,0,"bg.jpg",0,0
Video,0,"video.mp4"
//Break Periods
//Storyboard Layer 0 (Background)
//Storyboard Layer 1 (Fail)
//Storyboard Layer 2 (Pass)
//Storyboard Layer 3 (Foreground)
//Storyboard Layer 4 (Overlay)
//Storyboard Sound Samples

[TimingPoints]
600,342.857142857143,4,2,1,50,1,0
600,-125,4,2,1,50,0,0
11571,-100,4,2,1,65,0,0
21857,-125,4,2,1,65,0,0
22542,-125,4,2,1,55,0,0
22885,-125,4,2,2,55,0,0
28028,-125,4,2,1,55,0,0
28371,-125,4,2,2,55,0,0
32142,-100,4,2,1,55,0,0
32485,-100,4,2,1,55,0,0
41742,-125,4,2,1,55,0,0
49971,-100,4,2,1,65,0,0
51342,-100,4,2,1,70,0,0
52028,-125,4,2,1,50,0,0
52714,-100,4,2,1,70,0,1
73971,-125,4,2,1,70,0,1
74657,-125,4,2,1,60,0,0
76028,-111.111111111111,4,2,1,60,0,0
77400,-100,4,2,1,65,0,0
87685,-125,4,2,1,65,0,0
97971,-100,4,2,1,5,0,0

[Colours]
Combo1 : 252,163,214
Combo2 : 255,230,253
Combo3 : 254,201,249
Combo4 : 227,174,253

[HitObjects]
69,114,600,6,0,P|132:97|216:61,1,128,2|0,0:0|0:0,0:0:0:0:
426,160,1285,2,0,P|366:136|304:119,1,128,2|0,0:0|0:0,0:0:0:0:
113,197,1971,6,0,P|98:250|95:277,1,64,2|0,0:0|0:0,0:0:0:0:
139,352,2314,1,2,0:0:0:0:
139,352,2485,2,0,P|199:341|224:339,1,64,2|0,0:0|0:0,0:0:0:0:
329,282,2828,2,0,P|271:271|187:240,1,128,2|0,0:0|0:0,0:0:0:0:
419,193,3342,6,0,P|434:245|444:339,1,128,2|0,0:0|0:0,0:0:0:0:
250,142,4028,2,0,P|265:90|275:-4,1,128,2|0,0:0|0:0,0:0:0:0:
39,137,4714,6,0,P|56:184|69:209,1,64,2|0,0:0|0:0,0:0:0:0:
154,259,5057,1,2,0:0:0:0:
154,259,5228,2,0,P|201:249|246:247,1,64,2|0,0:0|0:0,0:0:0:0:
305,154,5571,2,0,P|387:178|452:187,1,128,2|0,0:0|0:0,0:0:0:0:
324,34,6085,5,2,0:0:0:0:
189,84,6428,1,2,0:0:0:0:
122,194,6771,1,2,0:0:0:0:
152,324,7114,1,2,0:0:0:0:
346,234,7457,5,0,0:0:0:0:
362,323,7800,2,0,P|303:314|256:246,1,128,2|2,0:0|0:0,0:0:0:0:
138,109,8485,1,2,0:0:0:0:
123,197,8828,6,0,P|182:188|229:120,1,128,2|2,0:0|0:0,0:0:0:0:
390,42,9514,2,0,B|413:12|467:11|487:31|502:71|481:90|452:96|471:142,1,192,2|0,0:0|0:0,0:0:0:0:
347,195,10200,2,0,P|303:223|228:126,1,192,2|0,0:0|0:0,0:0:0:0:
183,4,10885,1,2,0:0:0:0:
164,6,10970,1,2,0:0:0:0:
145,11,11056,1,2,0:0:0:0:
127,19,11142,1,2,0:0:0:0:
108,36,11228,1,2,0:0:0:0:
102,61,11313,1,2,0:0:0:0:
99,86,11399,1,2,0:0:0:0:
97,111,11485,1,2,0:0:0:0:
98,138,11571,6,0,P|134:200|159:263,1,120,6|0,1:2|0:0,0:0:0:0:
156,284,11914,2,0,P|202:302|245:328,1,80,8|0,0:0|0:0,0:0:0:0:
433,256,12257,1,0,1:0:0:0:
347,369,12428,1,0,1:0:0:0:
271,241,12600,2,0,P|278:191|291:155,1,80,10|2,0:0|0:0,0:0:0:0:
470,38,12942,5,0,1:0:0:0:
410,163,13114,1,0,1:0:0:0:
181,62,13285,1,8,0:0:0:0:
308,54,13457,2,0,P|366:67|406:90,1,80,0|2,1:0|0:0,0:0:0:0:
494,234,13800,1,0,1:0:0:0:
370,260,13971,2,0,P|312:273|272:296,1,80,8|0,0:0|0:0,0:0:0:0:
93,364,14314,6,0,B|121:329|121:329|129:286|110:232,1,120,2|0,1:2|0:0,0:0:0:0:
87,226,14657,2,0,P|65:190|58:144,1,80,8|0,0:0|0:0,0:0:0:0:
206,39,15000,1,0,1:0:0:0:
206,39,15171,1,0,1:0:0:0:
17,34,15342,2,0,P|67:58|111:62,1,80,8|0,0:0|0:0,0:0:0:0:
325,31,15685,5,2,1:2:0:0:
206,39,15857,1,2,1:2:0:0:
159,192,16028,1,10,0:0:0:0:
277,217,16200,1,2,1:2:0:0:
277,217,16285,1,0,1:0:0:0:
277,217,16371,2,0,P|319:227|371:245,1,80,0|2,1:0|1:2,0:0:0:0:
472,120,16714,2,0,P|459:81|450:43,1,80,10|0,0:0|0:0,0:0:0:0:
277,217,17057,6,0,P|257:271|162:290,2,160,6|8|0,1:1|0:0|1:0,0:0:0:0:
204,39,17914,1,0,1:0:0:0:
167,144,18085,2,0,P|189:201|202:227,1,80,8|0,0:0|0:0,0:0:0:0:
333,371,18428,5,2,1:2:0:0:
164,291,18600,1,0,1:0:0:0:
384,247,18771,1,8,0:0:0:0:
298,84,18942,2,0,P|282:139|276:176,1,80,0|2,1:0|0:0,0:0:0:0:
333,371,19285,1,0,1:0:0:0:
470,205,19457,2,0,P|422:172|389:155,1,80,10|0,0:0|0:0,0:0:0:0:
164,291,19800,6,0,P|238:273|335:262,2,160,2|8|0,1:2|0:0|1:0,0:0:0:0:
19,162,20657,1,0,1:0:0:0:
47,271,20828,2,0,P|60:324|63:356,1,80,8|0,0:0|0:0,0:0:0:0:
281,344,21171,5,0,1:0:0:0:
331,210,21342,1,0,1:0:0:0:
150,170,21514,1,8,0:0:0:0:
155,323,21685,1,0,1:0:0:0:
155,323,21771,1,0,1:0:0:0:
155,323,21857,6,0,P|206:304|224:300,1,64,8|4,1:2|0:3,0:0:0:0:
331,210,22200,2,0,P|382:229|400:233,1,64,0|8,1:0|0:3,0:0:0:0:
497,62,22542,6,0,P|452:65|363:78,1,128,6|10,1:2|0:0,0:0:0:0:
268,98,23057,2,0,P|206:88|194:84,1,64,2|8,0:0|0:0,0:0:0:0:
43,51,23400,1,2,1:2:0:0:
43,51,23571,2,0,P|105:41|117:37,1,64,8|0,0:0|1:0,0:0:0:0:
177,200,23914,6,0,P|186:239|189:275,1,64,10|0,0:0|0:0,0:0:0:0:
104,322,24257,1,10,0:0:0:0:
61,223,24428,2,0,P|64:191|72:160,1,64,2|8,1:2|0:0,0:0:0:0:
188,262,24771,2,0,P|214:244|243:230,1,64,2|8,1:2|0:0,0:0:0:0:
343,296,25114,1,0,1:0:0:0:
431,208,25285,6,0,P|420:155|412:60,1,128,10|10,0:0|0:0,0:0:0:0:
326,25,25800,2,0,P|314:80|313:112,1,64,2|8,0:0|0:0,0:0:0:0:
211,162,26142,1,2,1:2:0:0:
211,162,26314,2,0,P|172:153|134:151,1,64,8|0,0:0|1:0,0:0:0:0:
8,238,26657,6,0,P|54:223|86:206,1,64,10|0,0:0|0:0,0:0:0:0:
148,151,27000,1,10,0:0:0:0:
163,50,27171,2,0,P|133:37|102:28,1,64,2|8,1:2|0:0,0:0:0:0:
45,156,27514,2,0,P|54:186|67:215,1,64,2|8,1:2|0:0,0:0:0:0:
147,279,27857,1,0,1:0:0:0:
257,195,28028,6,0,P|309:206|393:233,1,128,6|10,1:1|0:0,0:0:0:0:
306,300,28542,2,0,P|253:293|224:293,1,64,2|8,0:0|0:0,0:0:0:0:
95,315,28885,1,2,1:2:0:0:
95,315,29057,2,0,P|134:291|160:262,1,64,8|0,0:0|1:0,0:0:0:0:
107,116,29400,6,0,P|93:171|92:205,1,64,10|0,0:0|0:0,0:0:0:0:
205,60,29742,1,10,0:0:0:0:
198,162,29914,2,0,P|233:206|260:227,1,64,2|8,1:2|0:0,0:0:0:0:
296,125,30257,2,0,P|352:124|385:116,1,64,2|8,1:2|0:0,0:0:0:0:
440,186,30600,1,0,1:0:0:0:
428,302,30771,6,0,B|392:316|392:316|346:315|290:275,1,128,10|10,0:0|0:0,0:0:0:0:
238,211,31285,2,0,P|217:257|210:275,1,64,2|8,0:0|0:0,0:0:0:0:
74,267,31628,1,2,1:2:0:0:
74,267,31800,2,0,P|95:313|102:331,1,64,8|0,0:0|1:0,0:0:0:0:
150,153,32142,6,0,P|158:106|167:71,1,80,6|0,1:2|1:0,0:0:0:0:
321,170,32485,1,10,0:0:0:0:
462,56,32657,2,0,B|430:94|387:107|387:107|353:75|291:81,1,160,6|2,1:1|1:2,0:0:0:0:
68,166,33171,1,10,0:0:0:0:
75,188,33256,1,10,0:0:0:0:
89,208,33342,1,10,0:0:0:0:
107,223,33428,1,10,0:0:0:0:
131,232,33514,6,0,P|204:218|312:213,1,160,6|10,1:2|0:0,0:0:0:0:
416,232,34028,1,2,0:0:0:0:
306,341,34200,1,0,1:0:0:0:
220,245,34371,1,2,1:2:0:0:
407,152,34542,2,0,P|414:202|415:244,1,80,8|0,0:0|0:0,0:0:0:0:
213,131,34885,5,2,1:2:0:0:
343,88,35057,1,0,1:0:0:0:
184,124,35228,1,10,0:0:0:0:
272,290,35400,2,0,P|284:241|290:196,1,80,2|0,1:2|0:0,0:0:0:0:
158,118,35742,1,2,1:2:0:0:
105,303,35914,2,0,P|111:342|121:381,1,80,8|0,0:0|0:0,0:0:0:0:
288,212,36257,6,0,P|208:217|108:217,1,160,2|10,1:2|0:0,0:0:0:0:
43,60,36771,2,0,P|63:107|73:147,1,80,2|0,0:0|1:0,0:0:0:0:
7,338,37114,1,0,1:0:0:0:
128,217,37285,2,0,P|191:230|241:251,1,80,8|0,0:0|0:0,0:0:0:0:
358,346,37628,5,2,1:2:0:0:
438,210,37800,1,0,1:0:0:0:
263,140,37971,1,10,0:0:0:0:
188,320,38142,2,0,P|236:310|277:307,1,80,2|0,1:2|0:0,0:0:0:0:
438,210,38485,1,2,1:2:0:0:
275,61,38657,2,0,P|265:109|262:150,1,80,8|0,0:0|0:0,0:0:0:0:
347,355,39000,6,0,P|357:286|302:215,1,160,2|10,1:2|0:0,0:0:0:0:
113,290,39514,2,0,P|174:313|202:327,1,80,2|0,0:0|1:0,0:0:0:0:
305,216,39857,1,0,1:0:0:0:
474,265,40028,2,0,P|479:214|477:162,1,80,8|0,0:0|0:0,0:0:0:0:
266,44,40371,6,0,P|226:48|170:60,2,80,2|0|10,1:2|1:0|0:0,0:0:0:0:
439,92,40885,1,10,0:3:0:0:
199,218,41057,1,0,1:0:0:0:
368,179,41228,1,6,0:3:0:0:
267,129,41400,1,2,1:2:0:0:
267,129,41742,5,4,1:2:0:0:
186,346,42085,2,0,P|147:328|116:314,1,64,2|0,1:2|0:0,0:0:0:0:
69,253,42428,2,0,P|41:293|64:376,1,128,10|0,0:0|0:0,0:0:0:0:
326,340,43114,5,2,1:2:0:0:
267,129,43457,1,2,1:2:0:0:
460,227,43800,1,8,0:0:0:0:
244,253,44142,2,0,P|196:247|170:224,1,64,0|0,1:0|0:0,0:0:0:0:
111,185,44485,6,0,P|110:253|105:341,1,128,0|2,1:0|1:2,0:0:0:0:
324,317,45171,2,0,P|320:253|320:189,1,128,10|2,0:0|0:0,0:0:0:0:
428,45,45857,6,0,B|394:70|394:70|350:72|285:50,1,128,2|2,1:2|1:2,0:0:0:0:
197,30,46371,1,2,0:0:0:0:
192,41,46457,1,2,0:0:0:0:
187,52,46542,1,10,0:0:0:0:
125,174,46714,1,10,0:3:0:0:
243,127,46885,1,6,0:3:0:0:
243,127,47057,1,0,1:0:0:0:
48,130,47228,6,0,P|36:178|82:257,1,128,4|2,1:1|1:2,0:0:0:0:
231,321,47914,2,0,B|264:303|264:303|337:309|375:328,1,128,10|0,0:0|0:0,0:0:0:0:
487,200,48600,5,2,1:2:0:0:
271,227,48942,1,2,1:2:0:0:
179,29,49285,2,0,P|163:79|162:104,1,64,8|2,0:0|0:0,0:0:0:0:
251,87,49628,2,0,P|267:136|281:157,1,64,0|0,1:0|0:0,0:0:0:0:
430,239,49971,6,0,P|361:231|248:227,2,160,6|10|0,1:1|0:0|1:0,0:0:0:0:
265,343,50828,1,2,1:2:0:0:
191,200,51000,1,8,0:0:0:0:
191,200,51342,5,10,1:2:0:0:
333,36,51514,1,8,1:3:0:0:
429,240,51685,1,4,1:3:0:0:
429,240,52714,6,0,P|443:178|450:127,1,80,6|0,1:2|0:0,0:0:0:0:
297,28,53057,2,0,P|283:90|276:141,1,80,8|0,0:0|0:0,0:0:0:0:
278,314,53400,1,2,1:2:0:0:
157,188,53571,1,0,1:0:0:0:
336,211,53742,2,0,P|286:201|240:194,1,80,8|0,0:0|0:0,0:0:0:0:
22,112,54085,6,0,B|76:135|76:135|110:89|176:95,1,160,2|10,1:2|0:0,0:0:0:0:
247,293,54600,2,0,P|182:268|164:165,1,160,2|2,1:2|1:2,0:0:0:0:
276,35,55114,2,0,P|315:57|368:78,1,80,8|0,0:0|0:0,0:0:0:0:
467,212,55457,6,0,P|472:159|483:112,1,80,2|0,1:2|0:0,0:0:0:0:
319,239,55800,2,0,P|326:278|329:318,1,80,8|0,0:0|0:0,0:0:0:0:
146,382,56142,1,2,1:2:0:0:
209,216,56314,1,0,1:0:0:0:
40,257,56485,2,0,P|98:280|129:289,1,80,8|0,0:0|0:0,0:0:0:0:
378,157,56828,6,0,B|350:158|330:137|330:137|292:153|241:142|241:142|215:119,1,160,2|10,1:2|0:0,0:0:0:0:
393,75,57342,2,0,P|452:109|458:196,1,160,2|2,1:2|1:2,0:0:0:0:
359,288,57857,1,8,0:0:0:0:
228,254,58028,1,0,3:0:0:0:
66,372,58200,6,0,P|114:369|153:335,1,80,6|0,1:1|0:0,0:0:0:0:
290,189,58542,2,0,P|255:169|216:169,1,80,10|0,0:0|0:0,0:0:0:0:
20,288,58885,2,0,L|36:193,1,80,2|0,1:2|1:0,0:0:0:0:
133,19,59228,2,0,L|146:97,1,80,10|0,0:0|0:0,0:0:0:0:
139,352,59571,6,0,P|183:297|291:305,1,160,0|10,1:0|0:0,0:0:0:0:
492,258,60085,2,0,P|448:203|340:211,1,160,0|0,1:0|1:0,0:0:0:0:
175,130,60600,2,0,P|195:186|205:232,1,80,10|0,0:0|0:0,0:0:0:0:
329,379,60942,6,0,P|395:366|444:365,1,80,2|0,1:2|0:0,0:0:0:0:
195,287,61285,2,0,P|129:274|80:273,1,80,10|0,0:0|0:0,0:0:0:0:
96,280,61542,1,8,0:0:0:0:
96,280,61628,1,2,1:2:0:0:
252,382,61800,1,0,1:0:0:0:
308,199,61971,2,0,P|334:161|370:114,1,80,8|0,0:0|0:0,0:0:0:0:
496,17,62314,5,2,1:2:0:0:
484,197,62485,1,8,0:0:0:0:
469,189,62571,1,8,0:0:0:0:
454,181,62657,1,8,1:2:0:0:
286,72,62828,1,8,0:0:0:0:
267,79,62914,1,8,0:0:0:0:
248,87,63000,1,8,1:2:0:0:
71,182,63171,1,8,0:0:0:0:
52,166,63256,1,8,0:0:0:0:
40,146,63342,1,8,1:2:0:0:
35,122,63428,1,8,0:0:0:0:
37,98,63513,1,8,0:0:0:0:
48,77,63599,1,8,0:0:0:0:
66,60,63685,6,0,P|112:85|145:108,1,80,6|0,1:2|0:0,0:0:0:0:
224,290,64028,2,0,P|213:341|197:382,1,80,8|0,0:0|0:0,0:0:0:0:
19,264,64371,1,2,1:2:0:0:
135,193,64542,1,0,1:0:0:0:
272,197,64714,2,0,P|316:209|379:215,1,80,8|0,0:0|0:0,0:0:0:0:
487,41,65057,6,0,B|443:23|443:23|394:26|320:68,1,160,2|10,1:2|0:0,0:0:0:0:
113,108,65571,2,0,B|157:90|157:90|206:93|280:135,1,160,2|2,1:2|1:2,0:0:0:0:
369,281,66085,2,0,P|356:328|336:370,1,80,8|0,0:0|0:0,0:0:0:0:
78,317,66428,6,0,P|147:300|181:297,1,80,2|0,1:2|0:0,0:0:0:0:
308,188,66771,2,0,P|377:205|411:208,1,80,8|0,0:0|0:0,0:0:0:0:
481,31,67114,1,2,1:2:0:0:
349,61,67285,1,0,1:0:0:0:
217,100,67457,2,0,P|177:93|139:81,1,80,8|0,0:0|0:0,0:0:0:0:
25,270,67800,6,0,B|69:250|110:265|110:265|145:252|145:252|194:262,1,160,2|10,1:2|0:0,0:0:0:0:
361,318,68314,2,0,B|306:323|267:301|267:301|283:265|270:233,1,160,2|2,1:2|1:2,0:0:0:0:
381,98,68828,1,8,0:0:0:0:
356,239,69000,1,0,3:0:0:0:
170,129,69171,6,0,P|164:76|161:40,1,80,6|0,1:1|0:0,0:0:0:0:
350,49,69514,2,0,P|346:89|342:129,1,80,10|0,0:0|0:0,0:0:0:0:
258,331,69857,1,2,1:2:0:0:
258,331,70028,1,0,1:0:0:0:
69,227,70200,2,0,P|138:253|202:258,1,120,10|0,0:0|0:0,0:0:0:0:
230,251,70542,6,0,P|181:289|195:386,1,160,0|10,1:0|0:0,0:0:0:0:
364,296,71057,1,0,1:0:0:0:
414,196,71228,2,0,P|429:143|437:97,1,80,2|0,0:0|1:0,0:0:0:0:
243,68,71571,2,0,P|251:107|262:145,1,80,10|0,0:0|0:0,0:0:0:0:
364,296,71914,6,0,P|279:280|196:274,2,160,2|10|2,1:2|0:0|1:2,0:0:0:0:
474,129,72771,1,0,1:0:0:0:
373,178,72942,2,0,P|320:184|266:186,1,80,8|0,0:0|0:0,0:0:0:0:
36,167,73285,5,2,1:2:0:0:
102,17,73457,1,0,1:0:0:0:
244,98,73628,1,8,0:0:0:0:
170,260,73800,1,0,1:0:0:0:
170,260,73885,1,8,0:0:0:0:
170,260,73971,6,0,P|160:203|154:188,1,64,10|4,1:2|0:3,0:0:0:0:
244,98,74314,2,0,P|247:129|256:160,1,64,2|8,1:0|0:3,0:0:0:0:
386,231,74657,6,0,P|316:222|284:336,1,192,6|0,1:2|0:0,0:0:0:0:
343,292,75342,2,0,L|354:82,1,192,0|0,3:0|0:0,0:0:0:0:
410,16,76028,5,6,1:1:0:0:
410,16,76885,1,8,1:2:0:0:
190,51,77057,1,8,1:2:0:0:
190,51,77400,6,0,P|254:58|318:69,1,120,6|0,1:2|0:0,0:0:0:0:
344,85,77742,2,0,P|380:103|418:127,1,80,8|0,0:0|0:0,0:0:0:0:
373,286,78085,1,0,1:0:0:0:
373,286,78257,1,0,1:0:0:0:
213,194,78428,2,0,P|251:182|295:174,1,80,10|2,0:0|0:0,0:0:0:0:
174,317,78771,5,0,1:0:0:0:
109,141,78942,1,0,1:0:0:0:
290,174,79114,1,8,0:0:0:0:
89,217,79285,2,0,P|45:190|29:150,1,80,0|2,1:0|0:0,0:0:0:0:
218,63,79628,1,0,1:0:0:0:
311,250,79800,2,0,P|355:223|371:183,1,80,8|0,0:0|0:0,0:0:0:0:
444,18,80142,6,0,P|468:72|490:159,1,120,2|0,1:2|0:0,0:0:0:0:
498,167,80485,2,0,P|477:233|465:257,1,80,8|0,0:0|0:0,0:0:0:0:
311,250,80828,1,0,1:0:0:0:
431,335,81000,1,0,1:0:0:0:
311,250,81171,2,0,P|244:237|212:238,1,80,8|0,0:0|0:0,0:0:0:0:
30,310,81514,5,2,1:2:0:0:
149,296,81685,1,2,1:2:0:0:
201,142,81857,1,10,0:0:0:0:
84,122,82028,1,2,1:2:0:0:
84,122,82114,1,0,1:0:0:0:
84,122,82200,2,0,L|3:108,1,80,0|2,1:0|1:2,0:0:0:0:
200,11,82542,2,0,L|278:24,1,80,10|0,0:0|0:0,0:0:0:0:
474,122,82885,6,0,P|430:137|322:184,2,160,6|8|0,1:1|0:0|1:0,0:0:0:0:
399,283,83742,1,0,1:0:0:0:
289,257,83914,2,0,P|251:221|241:185,1,80,8|0,0:0|0:0,0:0:0:0:
351,11,84257,5,2,1:2:0:0:
168,34,84428,1,0,1:0:0:0:
325,182,84600,1,8,0:0:0:0:
146,134,84771,2,0,P|136:184|131:226,1,80,0|2,1:0|0:0,0:0:0:0:
258,318,85114,1,0,1:0:0:0:
403,195,85285,2,0,P|353:185|311:180,1,80,10|0,0:0|0:0,0:0:0:0:
128,295,85628,6,0,P|80:280|65:167,2,160,2|8|0,1:2|0:0|1:0,0:0:0:0:
306,254,86485,1,0,1:0:0:0:
259,151,86657,2,0,P|207:162|158:164,1,80,8|0,0:0|0:0,0:0:0:0:
378,27,87000,5,0,1:0:0:0:
353,188,87171,1,0,1:0:0:0:
180,164,87342,1,8,0:0:0:0:
209,6,87514,1,0,1:0:0:0:
209,6,87600,1,0,1:0:0:0:
209,6,87685,2,0,P|234:61|241:90,1,64,8|4,1:2|0:3,0:0:0:0:
353,188,88028,2,0,P|328:243|321:272,1,64,0|8,1:0|0:3,0:0:0:0:
197,364,88371,5,6,1:2:0:0:
256,192,88457,12,0,97971,0:0:0:0:
