osu file format v14

[General]
AudioFilename: audio.mp3
AudioLeadIn: 0
PreviewTime: 183505
Countdown: 0
SampleSet: Soft
StackLeniency: 0.6
Mode: 0
LetterboxInBreaks: 0
EpilepsyWarning: 1
WidescreenStoryboard: 1

[Editor]
Bookmarks: 52619,165076,176047
DistanceSpacing: 0.5
BeatDivisor: 4
GridSize: 4
TimelineZoom: 1.5

[Metadata]
Title:Get the Freedom
TitleUnicode:Get the Freedom
Artist:Kicco
ArtistUnicode:Kicco
Creator:Bellicose
Version:dahkjdas' Insane.
Source:ねこツク、さくら。
Tags:Houshou Hari Shikibe Mayu Kazato Asa Shizuku- dahkjdas meis clauson angel note lump of sugar Nekotsuku Sakura kemonomimi eroge video game visual novel vn japanese pop rock opening full version
BeatmapID:3369705
BeatmapSetID:1644227

[Difficulty]
HPDrainRate:5
CircleSize:4
OverallDifficulty:8
ApproachRate:9
SliderMultiplier:1.8
SliderTickRate:1

[Events]
//Background and Video events
0,0,"bg3.jpg",0,0
//Break Periods
2,165276,175447
//Storyboard Layer 0 (Background)
//Storyboard Layer 1 (Fail)
//Storyboard Layer 2 (Pass)
//Storyboard Layer 3 (Foreground)
Sprite,Foreground,Centre,"sb\dahkjdas.png",320,240 C,0,19704,,255,102,102 F,19,19704,20704,0,1 S,0,19704,22447,0.35,0.4 F,19,21762,22447,1,0
//Storyboard Layer 4 (Overlay)
//Storyboard Sound Samples

[TimingPoints]
505,342.857142857143,4,2,1,40,1,0
505,-200,4,2,1,40,0,0
10705,-200,4,2,1,5,0,0
10790,-111.111111111111,4,2,1,50,0,0
11476,-100,4,2,1,70,0,0
16876,-100,4,2,1,5,0,0
16962,-100,4,2,1,70,0,0
22447,-166.666666666667,4,2,1,50,0,0
22790,-166.666666666667,4,2,2,50,0,0
27933,-166.666666666667,4,2,1,50,0,0
28276,-166.666666666667,4,2,2,50,0,0
32047,-111.111111111111,4,2,1,60,0,0
33419,-111.111111111111,4,2,1,60,0,0
36076,-111.111111111111,4,2,1,5,0,0
36162,-111.111111111111,4,2,1,60,0,0
38905,-111.111111111111,4,2,1,60,0,0
41562,-111.111111111111,4,2,1,5,0,0
41647,-133.333333333333,4,2,1,50,0,0
49876,-100,4,2,1,60,0,0
50133,-100,4,2,1,5,0,0
50219,-100,4,2,1,60,0,0
51162,-100,4,2,1,5,0,0
51247,-100,4,2,1,70,0,0
51933,-200,4,2,1,70,0,0
52619,-95.2380952380952,4,2,1,75,0,1
54247,-95.2380952380952,4,2,1,5,0,1
54333,-95.2380952380952,4,2,1,75,0,1
54762,-95.2380952380952,4,2,1,5,0,1
54847,-95.2380952380952,4,2,1,75,0,1
56990,-95.2380952380952,4,2,1,5,0,1
57076,-95.2380952380952,4,2,1,75,0,1
57505,-95.2380952380952,4,2,1,5,0,1
57590,-95.2380952380952,4,2,1,75,0,1
60847,-95.2380952380952,4,2,1,75,0,1
65219,-95.2380952380952,4,2,1,5,0,1
65305,-95.2380952380952,4,2,1,75,0,1
65733,-95.2380952380952,4,2,1,5,0,1
65819,-95.2380952380952,4,2,1,75,0,1
67962,-95.2380952380952,4,2,1,5,0,1
68047,-95.2380952380952,4,2,1,75,0,1
68476,-95.2380952380952,4,2,1,5,0,1
68562,-95.2380952380952,4,2,1,75,0,1
70362,-95.2380952380952,4,2,1,5,0,1
70447,-95.2380952380952,4,2,1,75,0,1
70705,-95.2380952380952,4,2,1,5,0,1
70790,-95.2380952380952,4,2,1,75,0,1
72419,-95.2380952380952,4,2,1,5,0,1
72505,-95.2380952380952,4,2,1,75,0,1
74562,-166.666666666667,4,2,1,70,0,0
75762,-133.333333333333,4,2,1,70,0,0
76790,-100,4,2,1,70,0,0
77219,-95.2380952380952,4,2,1,5,0,0
77305,-100,4,2,1,70,0,0
82705,-95.2380952380952,4,2,1,5,0,0
82790,-100,4,2,1,70,0,0
88276,-111.111111111111,4,2,1,60,0,0
90933,-111.111111111111,4,2,1,5,0,0
91019,-111.111111111111,4,2,1,60,0,0
93762,-111.111111111111,4,2,1,60,0,0
96419,-111.111111111111,4,2,1,5,0,0
96505,-111.111111111111,4,2,1,60,0,0
107476,-133.333333333333,4,2,1,50,0,0
115705,-100,4,2,1,60,0,0
115962,-100,4,2,1,5,0,0
116047,-100,4,2,1,60,0,0
116990,-100,4,2,1,5,0,0
117076,-100,4,2,1,70,0,0
117762,-200,4,2,1,70,0,0
118447,-95.2380952380952,4,2,1,75,0,1
118705,-95.2380952380952,4,2,1,5,0,1
118790,-95.2380952380952,4,2,1,75,0,1
120076,-95.2380952380952,4,2,1,5,0,1
120162,-95.2380952380952,4,2,1,75,0,1
121190,-95.2380952380952,4,2,1,75,0,1
122819,-95.2380952380952,4,2,1,5,0,1
122905,-95.2380952380952,4,2,1,75,0,1
126933,-95.2380952380952,4,2,1,5,0,1
127019,-95.2380952380952,4,2,1,75,0,1
129676,-95.2380952380952,4,2,1,5,0,1
129762,-95.2380952380952,4,2,1,75,0,1
131047,-95.2380952380952,4,2,1,5,0,1
131133,-95.2380952380952,4,2,1,75,0,1
132162,-95.2380952380952,4,2,1,75,0,1
133790,-95.2380952380952,4,2,1,5,0,1
133876,-95.2380952380952,4,2,1,75,0,1
136190,-95.2380952380952,4,2,1,5,0,1
136276,-95.2380952380952,4,2,1,75,0,1
136533,-95.2380952380952,4,2,1,5,0,1
136619,-95.2380952380952,4,2,1,75,0,1
138247,-95.2380952380952,4,2,1,5,0,1
138333,-95.2380952380952,4,2,1,75,0,1
140390,-166.666666666667,4,2,1,70,0,0
141590,-133.333333333333,4,2,1,70,0,0
142619,-100,4,2,1,70,0,0
143133,-90.9090909090909,4,2,1,75,0,0
145276,-90.9090909090909,4,2,1,5,0,0
145362,-90.9090909090909,4,2,1,75,0,0
148876,-90.9090909090909,4,2,1,5,0,0
148962,-90.9090909090909,4,2,1,75,0,0
149390,-90.9090909090909,4,2,1,5,0,0
149476,-90.9090909090909,4,2,1,75,0,0
149562,-90.9090909090909,4,2,1,5,0,0
149647,-90.9090909090909,4,2,1,75,0,0
151962,-90.9090909090909,4,2,1,5,0,0
152047,-90.9090909090909,4,2,1,75,0,0
153419,-90.9090909090909,4,2,1,75,0,0
154105,-90.9090909090909,4,2,1,75,0,0
154362,-90.9090909090909,4,2,1,5,0,0
154447,-90.9090909090909,4,2,1,75,0,0
156762,-90.9090909090909,4,2,1,5,0,0
156847,-90.9090909090909,4,2,1,75,0,0
157105,-90.9090909090909,4,2,1,5,0,0
157190,-90.9090909090909,4,2,1,75,0,0
159505,-90.9090909090909,4,2,1,5,0,0
159590,-90.9090909090909,4,2,1,75,0,0
160190,-90.9090909090909,4,2,1,5,0,0
160276,-90.9090909090909,4,2,1,75,0,0
161990,-80,4,2,1,75,0,0
162247,-95.2380952380952,4,2,1,5,0,0
162333,-90.9090909090909,4,2,1,75,0,0
165076,-250,4,2,1,75,0,0
176047,-200,4,2,2,50,0,0
182905,-200,4,2,1,50,0,0
184276,-166.666666666667,4,2,1,40,0,0
188905,-166.666666666667,4,2,1,50,0,0
189419,-95.2380952380952,4,2,1,50,0,1
189762,-95.2380952380952,4,2,1,75,0,1
191047,-95.2380952380952,4,2,1,5,0,1
191133,-95.2380952380952,4,2,1,75,0,1
192762,-95.2380952380952,4,2,1,5,0,1
192847,-95.2380952380952,4,2,1,75,0,1
195505,-95.2380952380952,4,2,1,5,0,1
195590,-95.2380952380952,4,2,1,75,0,1
196876,-95.2380952380952,4,2,1,5,0,1
196962,-95.2380952380952,4,2,1,75,0,1
197990,-95.2380952380952,4,2,1,75,0,1
199619,-95.2380952380952,4,2,1,5,0,1
199705,-95.2380952380952,4,2,1,75,0,1
202019,-95.2380952380952,4,2,1,5,0,1
202105,-95.2380952380952,4,2,1,75,0,1
202362,-95.2380952380952,4,2,1,5,0,1
202447,-95.2380952380952,4,2,1,75,0,1
204076,-95.2380952380952,4,2,1,5,0,1
204162,-95.2380952380952,4,2,1,75,0,1
206133,-95.2380952380952,4,2,1,5,0,1
206219,-95.2380952380952,4,2,1,75,0,1
207847,-95.2380952380952,4,2,1,5,0,1
207933,-95.2380952380952,4,2,1,75,0,1
208362,-95.2380952380952,4,2,1,5,0,1
208447,-95.2380952380952,4,2,1,75,0,1
210590,-95.2380952380952,4,2,1,5,0,1
210676,-95.2380952380952,4,2,1,75,0,1
211105,-95.2380952380952,4,2,1,5,0,1
211190,-95.2380952380952,4,2,1,75,0,1
214447,-95.2380952380952,4,2,1,75,0,1
218819,-95.2380952380952,4,2,1,5,0,1
218905,-95.2380952380952,4,2,1,75,0,1
219333,-95.2380952380952,4,2,1,5,0,1
219419,-95.2380952380952,4,2,1,75,0,1
221562,-95.2380952380952,4,2,1,5,0,1
221647,-95.2380952380952,4,2,1,75,0,1
222076,-95.2380952380952,4,2,1,5,0,1
222162,-95.2380952380952,4,2,1,75,0,1
223962,-95.2380952380952,4,2,1,5,0,1
224047,-95.2380952380952,4,2,1,75,0,1
224305,-95.2380952380952,4,2,1,5,0,1
224390,-95.2380952380952,4,2,1,75,0,1
226019,-95.2380952380952,4,2,1,5,0,1
226105,-95.2380952380952,4,2,1,75,0,1
228162,-166.666666666667,4,2,1,70,0,0
229362,-133.333333333333,4,2,1,70,0,0
230390,-100,4,2,1,70,0,0
230819,-100,4,2,1,5,0,0
230905,-100,4,2,1,70,0,0
236305,-100,4,2,1,5,0,0
236390,-100,4,2,1,70,0,0
239390,-100,4,2,1,5,0,0
239476,-100,4,2,1,70,0,0
241962,-100,4,2,1,5,0,0
248733,-100,4,2,99,5,0,0

[Colours]
Combo1 : 226,143,243
Combo2 : 139,222,254
Combo3 : 253,206,240
Combo4 : 150,166,254

[HitObjects]
53,319,505,6,0,L|43:215,1,90,2|0,0:0|0:0,0:0:0:0:
147,118,1190,2,0,L|140:220,1,90,2|0,0:0|0:0,0:0:0:0:
192,286,1876,6,0,P|235:275|298:277,1,90,2|0,0:0|0:0,0:0:0:0:
341,210,2390,2,0,P|377:222|394:226,1,45,2|0,0:0|0:0,0:0:0:0:
455,293,2733,1,2,0:0:0:0:
455,293,2905,1,0,0:0:0:0:
455,293,3247,6,0,L|465:188,1,90,2|0,0:0|0:0,0:0:0:0:
350,98,3933,2,0,L|362:203,1,90,2|0,0:0|0:0,0:0:0:0:
283,255,4619,6,0,P|245:252|180:245,1,90,2|0,0:0|0:0,0:0:0:0:
105,272,5133,2,0,L|100:216,1,45,2|0,0:0|0:0,0:0:0:0:
167,159,5476,2,0,L|174:105,1,45,2|0,0:0|0:0,0:0:0:0:
20,18,5990,5,2,0:0:0:0:
56,100,6333,1,2,0:0:0:0:
145,111,6676,1,2,0:0:0:0:
206,45,7019,2,0,P|199:95|193:153,1,90,2|0,0:0|0:0,0:0:0:0:
481,183,7705,5,2,0:0:0:0:
393,164,8047,1,2,0:0:0:0:
477,196,8390,1,2,0:0:0:0:
389,176,8733,5,2,0:0:0:0:
303,202,9076,1,2,0:0:0:0:
261,281,9419,2,0,L|268:377,1,90,2|0,0:0|0:0,0:0:0:0:
371,314,10105,6,0,L|381:169,1,135,2|0,0:0|0:0,0:0:0:0:
260,37,10790,6,0,L|267:85,3,40.4999987640381,2|2|2|2,0:0|0:0|0:0|0:0,0:0:0:0:
336,104,11133,1,2,0:0:0:0:
304,110,11219,1,2,0:0:0:0:
272,116,11305,1,2,0:0:0:0:
240,122,11390,1,2,0:0:0:0:
203,127,11476,6,0,L|109:117,1,90,6|0,1:2|0:0,0:0:0:0:
4,249,11819,2,0,L|104:238,1,90,8|0,0:0|0:0,0:0:0:0:
186,227,12162,1,0,1:0:0:0:
38,158,12333,1,0,1:0:0:0:
66,331,12505,2,0,L|177:316,1,90,10|0,0:0|0:0,0:0:0:0:
292,236,12847,5,0,1:0:0:0:
309,338,13019,1,0,1:0:0:0:
186,227,13190,1,8,0:0:0:0:
341,167,13362,2,0,P|389:151|476:248,1,180,0|0,1:0|1:0,0:0:0:0:
380,327,13876,2,0,L|390:225,1,90,8|0,0:0|0:0,0:0:0:0:
249,123,14219,6,0,L|262:226,1,90,2|0,1:2|0:0,0:0:0:0:
168,338,14562,2,0,P|230:334|272:292,1,90,8|0,0:0|0:0,0:0:0:0:
351,178,14905,1,0,1:0:0:0:
186,248,15076,1,0,1:0:0:0:
340,365,15247,2,0,L|348:256,1,90,8|0,0:0|0:0,0:0:0:0:
300,109,15590,5,2,1:2:0:0:
439,200,15762,1,0,1:0:0:0:
287,99,15933,1,10,0:0:0:0:
221,260,16105,1,2,1:2:0:0:
215,272,16190,1,8,0:0:0:0:
209,284,16276,2,0,L|308:277,1,90,8|4,0:0|0:3,0:0:0:0:
377,145,16619,2,0,P|337:185|258:180,1,135,10|0,0:0|0:0,0:0:0:0:
251,174,16962,6,0,L|257:66,1,90,6|0,1:2|0:0,0:0:0:0:
143,6,17305,2,0,L|151:110,1,90,8|0,0:0|0:0,0:0:0:0:
164,192,17647,1,0,1:0:0:0:
164,192,17819,1,0,1:0:0:0:
14,271,17990,2,0,L|24:163,1,90,8|0,0:0|0:0,0:0:0:0:
33,92,18333,5,2,1:2:0:0:
175,201,18505,1,0,1:0:0:0:
21,81,18676,1,8,0:0:0:0:
97,245,18847,2,0,P|179:231|310:211,1,180,2|0,1:2|1:0,0:0:0:0:
358,130,19362,2,0,P|306:125|244:108,1,90,10|0,0:0|0:0,0:0:0:0:
182,141,19705,6,0,P|169:84|168:48,1,90,2|0,1:2|0:0,0:0:0:0:
335,6,20047,2,0,P|326:70|314:111,1,90,8|0,0:0|0:0,0:0:0:0:
271,200,20390,1,0,1:0:0:0:
407,175,20562,1,0,1:0:0:0:
252,204,20733,2,0,L|159:196,1,90,8|0,0:0|0:0,0:0:0:0:
346,253,21076,5,0,1:0:0:0:
346,253,21247,1,0,1:0:0:0:
308,121,21419,1,8,0:0:0:0:
273,301,21590,1,8,0:0:0:0:
273,301,21676,1,8,0:0:0:0:
273,301,21762,1,8,1:2:0:0:
436,263,21933,1,8,0:3:0:0:
268,201,22105,1,8,1:2:0:0:
341,365,22276,1,4,0:3:0:0:
354,231,22447,6,0,L|364:110,1,107.999996704102,6|8,1:2|0:0,0:0:0:0:
284,96,22962,1,2,0:0:0:0:
347,40,23133,2,0,L|408:36,1,53.9999983520508,8|2,0:0|1:2,0:0:0:0:
472,183,23476,1,8,0:0:0:0:
472,183,23647,1,0,1:0:0:0:
508,111,23819,6,0,P|469:100|404:141,1,107.999996704102,10|10,0:0|0:0,0:0:0:0:
376,204,24333,1,2,1:2:0:0:
426,332,24505,2,0,P|423:285|416:257,1,53.9999983520508,8|2,0:0|1:2,0:0:0:0:
293,216,24847,1,8,0:0:0:0:
293,216,25019,1,0,1:0:0:0:
339,312,25190,6,0,P|292:317|228:326,1,107.999996704102,2|10,1:2|0:0,0:0:0:0:
149,306,25705,2,0,L|144:371,1,53.9999983520508,2|8,0:0|0:0,0:0:0:0:
208,243,26047,1,2,1:2:0:0:
208,243,26219,2,0,L|201:168,1,53.9999983520508,8|0,0:0|1:0,0:0:0:0:
20,236,26562,6,0,P|61:212|135:222,1,107.999996704102,10|10,0:0|0:0,0:0:0:0:
211,106,27076,2,0,L|219:49,1,53.9999983520508,2|8,1:2|0:0,0:0:0:0:
132,64,27419,1,2,1:2:0:0:
132,64,27590,2,0,L|125:1,1,53.9999983520508,8|0,0:0|1:0,0:0:0:0:
65,124,27933,6,0,L|57:240,1,107.999996704102,6|10,1:2|0:0,0:0:0:0:
5,304,28447,2,0,P|48:317|80:316,1,53.9999983520508,2|8,0:0|0:0,0:0:0:0:
131,276,28790,1,2,1:2:0:0:
197,380,28962,2,0,P|194:339|186:305,1,53.9999983520508,8|0,0:0|1:0,0:0:0:0:
174,201,29305,6,0,P|209:190|264:248,1,107.999996704102,10|10,0:0|0:0,0:0:0:0:
308,308,29819,2,0,P|269:312|236:317,1,53.9999983520508,2|8,1:2|0:0,0:0:0:0:
174,324,30162,1,2,1:2:0:0:
261,230,30333,2,0,L|267:155,1,53.9999983520508,8|0,0:0|1:0,0:0:0:0:
383,254,30676,6,0,L|392:378,1,107.999996704102,10|10,0:0|0:0,0:0:0:0:
464,270,31190,2,0,L|467:333,1,53.9999983520508,2|8,0:0|0:0,0:0:0:0:
347,177,31533,1,2,1:2:0:0:
495,187,31705,2,0,L|434:184,1,53.9999983520508,8|0,0:0|1:0,0:0:0:0:
309,264,32047,6,0,L|211:274,1,80.9999975280763,6|0,1:2|1:0,0:0:0:0:
176,105,32390,1,10,0:0:0:0:
94,152,32562,2,2,B|160:201|160:201|237:178,1,161.999995056153,6|0,1:2|1:0,0:1:0:0:
355,26,33076,1,10,0:0:0:0:
351,58,33162,1,10,0:0:0:0:
347,89,33247,1,10,0:0:0:0:
343,121,33333,1,10,0:0:0:0:
339,153,33419,6,0,L|347:248,1,80.9999975280763,6|0,1:2|0:0,0:0:0:0:
253,198,33762,1,10,0:0:0:0:
323,316,33933,2,0,P|378:316|410:294,1,80.9999975280763,2|0,0:1|1:0,0:0:0:0:
435,222,34276,1,2,1:0:0:0:
239,279,34447,2,0,P|233:335|233:370,1,80.9999975280763,10|0,0:1|0:0,0:0:0:0:
152,216,34790,5,2,1:2:0:0:
97,312,34962,1,0,1:0:0:0:
253,274,35133,1,10,0:0:0:0:
84,315,35305,2,0,P|70:254|67:224,1,80.9999975280763,2|0,1:0|0:0,0:0:0:0:
56,123,35647,1,2,1:0:0:0:
173,172,35819,2,0,P|167:229|159:270,1,80.9999975280763,10|0,0:1|0:0,0:0:0:0:
5,356,36162,6,0,P|72:345|187:337,1,161.999995056153,2|10,1:2|0:0,0:0:0:0:
295,225,36676,2,0,P|247:220|215:210,1,80.9999975280763,2|0,0:1|1:0,0:0:0:0:
140,172,37019,1,2,1:0:0:0:
243,296,37190,2,0,L|251:389,1,80.9999975280763,10|0,0:1|0:0,0:0:0:0:
144,258,37533,5,2,1:2:0:0:
272,141,37705,1,0,1:0:0:0:
159,244,37876,1,8,0:0:0:0:
331,304,38047,2,0,P|382:301|430:296,1,80.9999975280763,2|0,1:0|0:0,0:0:0:0:
387,133,38390,1,2,1:0:0:0:
505,221,38562,2,0,P|451:215|407:210,1,80.9999975280763,10|0,0:1|0:0,0:0:0:0:
412,213,38819,1,8,0:0:0:0:
399,214,38905,6,0,P|390:165|387:123,1,80.9999975280763,2|0,1:2|0:0,0:0:0:0:
426,24,39247,1,10,0:0:0:0:
304,82,39419,2,0,P|296:134|295:177,1,80.9999975280763,2|0,0:1|1:0,0:0:0:0:
210,112,39762,1,2,1:0:0:0:
316,242,39933,2,0,P|272:244|235:223,1,80.9999975280763,10|0,0:1|0:0,0:0:0:0:
121,114,40276,5,2,1:2:0:0:
110,261,40447,1,0,1:0:0:0:
123,95,40619,1,10,0:0:0:0:
1,198,40790,2,0,P|56:189|106:182,1,80.9999975280763,8|0,0:3|1:0,0:0:0:0:
217,140,41133,1,4,0:3:0:0:
71,101,41305,1,0,1:0:0:0:
71,101,41647,6,0,B|120:109|120:109|147:130|147:130|206:138,1,135.000005149842,4|2,1:2|1:2,0:0:0:0:
448,183,42333,2,0,B|399:191|399:191|372:212|372:212|313:220,1,135.000005149842,10|0,0:0|0:0,0:0:0:0:
235,67,43019,6,0,L|248:219,1,135.000005149842,2|2,1:2|1:2,0:0:0:0:
196,342,43533,2,0,L|201:275,1,67.5000025749208,2|8,0:0|0:0,0:0:0:0:
354,268,43876,1,2,0:0:0:0:
354,268,44047,2,0,P|315:272|282:288,1,67.5000025749208,0|0,1:0|0:0,0:0:0:0:
289,283,44305,1,0,0:0:0:0:
289,283,44390,5,0,1:0:0:0:
378,156,44733,2,0,P|424:183|515:186,2,135.000005149842,2|10|2,1:2|0:0|0:0,0:0:0:0:
501,10,45762,6,0,P|446:18|426:107,1,135.000005149842,2|2,1:2|1:2,0:0:0:0:
429,226,46276,1,10,0:0:0:0:
429,226,46362,1,8,0:0:0:0:
429,226,46447,1,8,0:0:0:0:
486,142,46619,1,10,0:0:0:0:
336,183,46790,1,8,0:3:0:0:
510,261,46962,1,4,0:3:0:0:
337,299,47133,6,0,P|288:296|189:272,1,135.000005149842,4|2,1:2|1:2,0:0:0:0:
105,190,47819,2,0,P|159:190|253:165,1,135.000005149842,10|0,0:0|0:0,0:0:0:0:
329,78,48505,6,0,B|322:126|322:126|332:161|332:161|325:212,1,135.000005149842,2|2,1:2|1:2,0:0:0:0:
240,85,49019,2,0,L|236:5,1,67.5000025749208,2|8,0:0|0:0,0:0:0:0:
413,111,49362,1,2,0:0:0:0:
413,111,49533,2,0,L|436:31,1,67.5000025749208,0|0,1:0|0:0,0:0:0:0:
494,274,49876,6,0,P|456:240|364:248,1,135,6|0,1:2|0:0,0:0:0:0:
364,248,50219,1,10,0:0:0:0:
272,360,50390,2,0,P|330:344|373:311,1,90,2|0,0:0|1:0,0:0:0:0:
293,123,50733,1,2,1:2:0:0:
293,123,50905,2,0,P|277:181|284:234,1,90,8|0,0:0|0:0,0:0:0:0:
204,286,51247,5,10,1:2:0:0:
374,180,51419,1,8,1:3:0:0:
189,289,51590,1,4,1:3:0:0:
390,334,52619,6,0,P|443:318|436:197,2,188.999994232178,6|8|2,1:2|0:0|1:2,0:0:0:0:
342,145,53476,1,0,1:0:0:0:
268,264,53647,2,0,P|330:253|378:246,1,94.499997116089,8|0,0:0|0:0,0:0:0:0:
420,109,53990,6,0,P|381:67|287:80,1,141.749995674133,2|0,1:2|0:0,0:0:0:0:
282,84,54333,1,10,0:0:0:0:
194,31,54505,2,0,P|184:93|181:151,1,94.499997116089,2|0,1:2|0:0,0:0:0:0:
248,191,54847,1,2,1:2:0:0:
83,107,55019,2,0,P|92:176|107:217,1,94.499997116089,8|0,0:0|0:0,0:0:0:0:
116,216,55276,1,8,0:0:0:0:
138,222,55362,6,0,P|204:214|352:197,2,188.999994232178,2|8|2,1:2|0:0|1:2,0:0:0:0:
63,297,56219,1,0,1:0:0:0:
247,340,56390,2,0,L|233:237,1,94.499997116089,8|0,0:0|0:0,0:0:0:0:
283,125,56733,6,0,P|335:110|405:172,1,141.749995674133,2|0,1:2|0:0,0:0:0:0:
405,182,57076,1,10,0:0:0:0:
436,332,57247,2,0,P|395:300|380:248,1,94.499997116089,2|0,1:2|0:0,0:0:0:0:
479,128,57590,1,2,1:2:0:0:
323,195,57762,1,8,0:0:0:0:
471,248,57933,1,8,0:3:0:0:
476,260,58019,1,8,0:3:0:0:
481,273,58105,6,0,L|382:284,1,94.499997116089,6|0,1:2|0:0,0:0:0:0:
228,186,58447,2,0,L|323:195,1,94.499997116089,10|0,0:0|0:0,0:0:0:0:
420,150,58790,1,2,1:2:0:0:
420,150,58962,1,0,1:0:0:0:
295,285,59133,2,0,P|289:336|286:382,1,94.499997116089,10|0,0:0|0:0,0:0:0:0:
145,250,59476,6,0,P|138:190|129:143,1,94.499997116089,0|0,1:0|0:0,0:0:0:0:
232,201,59819,1,10,0:0:0:0:
63,275,59990,2,0,L|50:162,1,94.499997116089,0|0,1:0|0:0,0:0:0:0:
218,25,60333,1,0,1:0:0:0:
218,25,60505,2,0,L|205:135,1,94.499997116089,10|0,0:0|0:0,0:0:0:0:
193,138,60762,1,8,0:0:0:0:
174,152,60847,6,0,P|114:172|71:162,1,94.499997116089,2|0,1:2|0:0,0:0:0:0:
273,294,61190,2,0,P|220:290|179:261,1,94.499997116089,10|0,0:0|0:0,0:0:0:0:
167,253,61447,1,8,0:0:0:0:
167,253,61533,1,2,1:2:0:0:
255,202,61705,1,0,1:0:0:0:
142,343,61876,1,8,0:0:0:0:
370,322,62047,1,0,3:0:0:0:
383,327,62133,1,0,3:0:0:0:
396,332,62219,6,0,L|389:229,1,94.499997116089,2|8,1:2|0:0,0:0:0:0:
422,163,62476,1,8,0:0:0:0:
435,158,62562,2,0,P|490:165|512:214,1,94.499997116089,8|8,1:2|0:0,0:0:0:0:
480,275,62819,1,8,0:0:0:0:
466,279,62905,2,0,L|343:270,1,94.499997116089,8|8,1:2|0:0,0:0:0:0:
307,220,63162,1,8,0:0:0:0:
299,207,63247,2,0,L|295:131,1,47.2499985580445,8|8,1:2|0:0,0:0:0:0:
234,273,63419,2,0,L|228:331,1,47.2499985580445,8|8,0:0|0:0,0:0:0:0:
164,213,63590,6,0,P|116:192|16:281,2,188.999994232178,6|8|0,1:2|0:0|1:0,0:0:0:0:
186,118,64447,1,0,1:0:0:0:
105,281,64619,2,0,P|97:342|94:384,1,94.499997116089,8|0,0:0|0:0,0:0:0:0:
251,257,64962,6,0,P|316:248|375:309,1,141.749995674133,2|0,1:2|0:0,0:0:0:0:
380,316,65305,1,10,0:0:0:0:
497,373,65476,2,0,P|492:312|489:262,1,94.499997116089,2|0,1:2|0:0,0:0:0:0:
374,116,65819,1,2,1:2:0:0:
492,191,65990,2,0,P|435:202|389:210,1,94.499997116089,8|0,0:0|0:0,0:0:0:0:
375,208,66247,1,8,0:0:0:0:
351,202,66333,6,0,P|301:167|318:45,2,188.999994232178,2|8|2,1:2|0:0|1:2,0:0:0:0:
427,27,67190,1,0,1:0:0:0:
375,115,67362,2,0,P|440:124|488:132,1,94.499997116089,8|0,0:0|0:0,0:0:0:0:
426,243,67705,6,0,P|354:250|268:272,1,141.749995674133,2|0,1:2|0:0,0:0:0:0:
264,274,68047,1,8,0:0:0:0:
141,219,68219,2,0,P|130:169|165:128,1,94.499997116089,2|0,1:2|0:0,0:0:0:0:
271,68,68562,1,2,1:2:0:0:
137,31,68733,1,8,0:0:0:0:
242,169,68905,1,8,0:3:0:0:
250,180,68990,1,8,0:3:0:0:
258,191,69076,6,0,P|324:186|384:184,1,94.499997116089,6|0,1:2|0:0,0:0:0:0:
179,305,69419,2,0,P|110:297|72:292,1,94.499997116089,10|0,0:0|0:0,0:0:0:0:
10,168,69762,1,2,1:2:0:0:
66,292,69933,1,0,1:0:0:0:
201,189,70105,2,0,L|105:200,1,94.499997116089,10|0,0:0|0:0,0:0:0:0:
5,72,70447,6,0,L|108:86,1,94.499997116089,0|0,1:0|0:0,0:0:0:0:
266,105,70790,1,10,0:0:0:0:
266,105,70962,1,0,1:0:0:0:
185,17,71133,5,2,0:0:0:0:
232,200,71305,1,0,1:0:0:0:
364,82,71476,5,8,0:0:0:0:
166,132,71647,1,0,0:0:0:0:
316,259,71819,6,0,P|322:205|326:148,1,94.499997116089,2|0,1:2|0:0,0:0:0:0:
149,266,72162,2,0,P|155:324|165:375,1,94.499997116089,10|0,0:0|0:0,0:0:0:0:
253,372,72505,1,2,1:2:0:0:
63,318,72676,1,0,1:0:0:0:
235,200,72847,1,8,0:0:0:0:
235,200,73190,5,2,1:2:0:0:
416,276,73362,1,0,1:0:0:0:
250,294,73533,1,8,0:0:0:0:
407,178,73705,1,8,0:3:0:0:
407,178,73790,1,8,0:0:0:0:
407,178,73876,2,0,L|418:72,1,94.499997116089,10|8,1:2|0:3,0:0:0:0:
329,242,74219,1,10,1:2:0:0:
329,242,74390,1,4,0:3:0:0:
208,5,74562,6,0,B|173:128|268:89|234:209,1,215.999993408203,6|2,1:2|0:0,0:0:0:0:
41,202,75762,5,0,0:0:0:0:
41,202,75847,1,0,0:0:0:0:
41,202,75933,2,0,P|78:163|172:178,1,135.000005149842,6|2,1:2|0:0,0:0:0:0:
322,263,76447,2,0,L|320:342,1,67.5000025749208,2|0,0:0|0:0,0:0:0:0:
226,360,76790,1,10,0:0:0:0:
226,360,76962,2,0,L|232:214,1,135,8|0,0:0|0:0,0:0:0:0:
238,213,77305,6,0,L|226:111,1,90,6|0,1:2|0:0,0:0:0:0:
106,66,77647,2,0,L|120:171,1,90,8|0,0:0|0:0,0:0:0:0:
130,245,77990,1,0,1:0:0:0:
198,101,78162,1,0,1:0:0:0:
25,118,78333,2,0,L|39:216,1,90,10|0,0:0|0:0,0:0:0:0:
56,309,78676,5,0,1:0:0:0:
212,276,78847,1,0,1:0:0:0:
72,304,79019,1,8,0:0:0:0:
240,367,79190,2,0,B|250:290|250:290|238:248|238:248|247:182,1,180,0|0,1:0|1:0,0:0:0:0:
357,60,79705,2,0,L|367:150,1,90,8|0,0:0|0:0,0:0:0:0:
190,125,80047,6,0,P|228:104|281:113,1,90,2|0,1:2|0:0,0:0:0:0:
413,248,80390,2,0,L|314:238,1,90,8|0,0:0|0:0,0:0:0:0:
231,229,80733,1,0,1:0:0:0:
357,328,80905,1,0,1:0:0:0:
364,143,81076,2,0,L|271:152,1,90,8|0,0:0|0:0,0:0:0:0:
143,166,81419,5,2,1:2:0:0:
220,51,81590,1,0,1:0:0:0:
76,111,81762,1,10,0:0:0:0:
221,195,81933,1,2,1:2:0:0:
233,199,82019,1,8,0:0:0:0:
245,203,82105,2,0,L|347:198,1,90,0|4,1:0|0:3,0:0:0:0:
475,74,82447,2,0,P|440:108|342:88,1,135,10|0,0:0|0:0,0:0:0:0:
350,91,82790,6,0,L|342:0,1,90,6|0,1:2|0:0,0:0:0:0:
221,195,83133,2,0,L|226:103,1,90,8|0,0:0|0:0,0:0:0:0:
229,15,83476,1,0,1:0:0:0:
229,15,83647,1,0,1:0:0:0:
317,174,83819,2,0,P|362:179|413:154,1,90,8|0,0:0|0:0,0:0:0:0:
246,112,84162,5,2,1:2:0:0:
234,241,84333,1,0,1:0:0:0:
248,95,84505,1,8,0:0:0:0:
287,307,84676,2,0,P|230:326|154:228,1,180,2|0,1:2|1:0,0:0:0:0:
161,75,85190,2,0,B|175:123|175:123|164:173,1,90,10|0,0:0|0:0,0:0:0:0:
0,204,85533,6,0,L|110:195,1,90,2|0,1:2|0:0,0:0:0:0:
158,337,85876,2,0,B|144:289|144:289|155:239,1,90,8|0,0:0|0:0,0:0:0:0:
173,162,86219,1,0,1:0:0:0:
63,294,86390,1,0,1:0:0:0:
173,162,86562,2,0,L|165:56,1,90,8|0,0:0|0:0,0:0:0:0:
232,286,86905,5,0,1:0:0:0:
84,207,87076,1,0,1:0:0:0:
259,168,87247,1,8,0:0:0:0:
89,120,87419,1,8,0:0:0:0:
89,120,87505,1,8,0:0:0:0:
89,120,87590,1,8,1:2:0:0:
157,248,87762,1,8,0:3:0:0:
191,76,87933,1,8,1:0:0:0:
154,265,88105,1,4,0:3:0:0:
14,160,88276,6,0,L|127:152,1,80.9999975280763,6|0,1:2|0:0,0:0:0:0:
186,146,88619,1,10,0:0:0:0:
124,0,88790,2,0,P|132:44|135:101,1,80.9999975280763,2|0,0:1|1:0,0:0:0:0:
147,225,89133,1,2,1:0:0:0:
266,140,89305,2,0,L|153:148,1,80.9999975280763,10|0,0:1|0:0,0:0:0:0:
294,50,89647,5,2,1:2:0:0:
359,128,89819,1,0,1:0:0:0:
390,35,89990,1,10,0:0:0:0:
438,188,90162,2,0,P|440:134|447:77,1,80.9999975280763,2|0,1:0|0:0,0:0:0:0:
500,41,90505,1,2,1:0:0:0:
496,249,90676,2,0,P|449:273|400:264,1,80.9999975280763,10|0,0:1|0:0,0:0:0:0:
258,376,91019,6,0,P|297:344|401:364,1,161.999995056153,2|10,1:2|0:0,0:0:0:0:
493,378,91533,2,0,L|498:294,1,80.9999975280763,2|0,0:1|1:0,0:0:0:0:
505,211,91876,1,2,1:0:0:0:
384,167,92047,2,0,L|390:260,1,80.9999975280763,10|0,0:1|0:0,0:0:0:0:
400,337,92390,5,2,1:2:0:0:
306,240,92562,1,0,1:0:0:0:
469,284,92733,1,8,0:0:0:0:
315,359,92905,2,0,L|227:351,1,80.9999975280763,2|0,1:0|0:0,0:0:0:0:
195,229,93247,1,2,1:0:0:0:
47,303,93419,2,0,L|141:296,1,80.9999975280763,10|0,0:1|0:0,0:0:0:0:
139,300,93676,1,8,0:0:0:0:
150,303,93762,6,0,P|160:358|161:388,1,80.9999975280763,2|0,1:2|0:0,0:0:0:0:
195,229,94105,1,10,0:0:0:0:
336,294,94276,2,0,P|279:297|243:281,1,80.9999975280763,2|0,0:1|1:0,0:0:0:0:
182,225,94619,1,2,1:0:0:0:
305,130,94790,2,0,L|299:231,1,80.9999975280763,10|0,0:1|0:0,0:0:0:0:
431,217,95133,5,2,1:2:0:0:
297,226,95305,1,0,1:0:0:0:
390,130,95476,1,8,0:0:0:0:
432,305,95647,2,0,L|344:297,1,80.9999975280763,2|0,1:0|0:0,0:0:0:0:
216,229,95990,1,2,1:0:0:0:
216,229,96162,2,0,L|318:224,1,80.9999975280763,10|0,0:1|0:0,0:0:0:0:
379,54,96505,6,0,B|374:113|374:113|385:153|385:153|378:217,1,161.999995056153,2|10,1:2|0:0,0:0:0:0:
475,295,97019,2,0,L|466:197,1,80.9999975280763,2|0,0:1|1:0,0:0:0:0:
390,295,97362,1,2,1:0:0:0:
411,154,97533,2,0,P|459:134|502:140,1,80.9999975280763,10|0,0:1|0:0,0:0:0:0:
331,215,97876,5,6,1:2:0:0:
370,73,98047,1,0,1:0:0:0:
254,167,98219,1,10,0:0:0:0:
412,237,98390,2,2,B|353:245|353:245|319:271|319:271|250:259,1,161.999995056153,6|0,1:2|1:0,0:1:0:0:
78,197,98905,1,10,0:0:0:0:
97,222,98990,1,10,0:0:0:0:
126,234,99076,1,10,0:0:0:0:
158,234,99162,1,10,0:0:0:0:
186,216,99247,6,0,L|176:106,1,80.9999975280763,6|0,1:2|0:0,0:0:0:0:
169,47,99590,1,10,0:0:0:0:
25,95,99762,2,0,B|65:110|65:110|110:104,1,80.9999975280763,2|0,0:1|1:0,0:0:0:0:
245,80,100105,1,2,1:0:0:0:
245,80,100276,2,0,L|340:87,1,80.9999975280763,10|0,0:1|0:0,0:0:0:0:
463,16,100619,5,2,1:2:0:0:
345,87,100790,1,0,1:0:0:0:
477,3,100962,1,10,0:0:0:0:
433,176,101133,2,0,P|428:124|429:85,1,80.9999975280763,2|0,1:0|0:0,0:0:0:0:
335,181,101476,1,2,1:0:0:0:
469,257,101647,2,0,P|417:262|376:269,1,80.9999975280763,10|0,0:1|0:0,0:0:0:0:
252,146,101990,6,0,P|288:104|390:112,1,161.999995056153,2|10,1:2|0:0,0:0:0:0:
288,231,102504,2,0,P|238:234|206:224,1,80.9999975280763,2|0,0:1|1:0,0:0:0:0:
162,147,102847,1,2,1:0:0:0:
241,66,103019,2,0,P|252:133|249:166,1,80.9999975280763,10|0,0:1|0:0,0:0:0:0:
125,225,103362,5,2,1:2:0:0:
28,105,103533,1,0,1:0:0:0:
162,147,103705,1,8,0:0:0:0:
45,273,103876,2,0,L|36:184,1,80.9999975280763,2|0,1:0|0:0,0:0:0:0:
128,61,104219,1,2,1:0:0:0:
222,234,104390,2,0,P|181:218|131:224,1,80.9999975280763,10|0,0:1|0:0,0:0:0:0:
132,223,104647,1,8,0:0:0:0:
120,226,104733,6,0,L|124:125,1,80.9999975280763,2|0,1:2|0:0,0:0:0:0:
228,71,105076,1,10,0:0:0:0:
294,189,105247,2,0,L|206:177,1,80.9999975280763,2|0,0:1|1:0,0:0:0:0:
81,314,105590,1,2,1:0:0:0:
81,314,105762,2,0,L|195:305,1,80.9999975280763,10|0,0:1|0:0,0:0:0:0:
260,293,106105,5,2,1:2:0:0:
166,223,106276,1,0,1:0:0:0:
219,375,106447,1,10,0:0:0:0:
346,325,106619,2,0,L|334:218,1,80.9999975280763,8|0,0:3|1:0,0:0:0:0:
324,156,106962,1,4,0:3:0:0:
260,293,107133,1,0,1:0:0:0:
462,246,107476,6,0,P|410:230|325:246,1,135.000005149842,4|2,1:2|1:2,0:0:0:0:
206,61,108162,2,0,P|260:76|354:54,1,135.000005149842,10|0,0:0|0:0,0:0:0:0:
406,147,108847,6,0,P|337:152|257:161,1,135.000005149842,2|2,1:2|1:2,0:0:0:0:
201,206,109362,2,0,B|190:172|190:172|195:133,1,67.5000025749208,2|8,0:0|0:0,0:0:0:0:
327,40,109705,1,2,0:0:0:0:
327,40,109876,2,0,B|338:74|338:74|333:113,1,67.5000025749208,0|0,1:0|0:0,0:0:0:0:
333,105,110133,1,0,0:0:0:0:
333,105,110219,5,0,1:0:0:0:
266,257,110562,2,0,L|109:246,2,135.000005149842,2|10|2,1:2|0:0|0:0,0:0:0:0:
57,192,111590,6,0,P|90:160|181:173,1,135.000005149842,2|2,1:2|1:2,0:0:0:0:
258,65,112105,1,10,0:0:0:0:
258,65,112190,1,8,0:0:0:0:
258,65,112276,1,8,0:0:0:0:
187,182,112447,1,10,0:0:0:0:
307,142,112619,1,8,0:3:0:0:
134,98,112790,1,4,0:3:0:0:
164,268,112962,6,0,B|217:263|217:263|249:271|249:271|309:266,1,135.000005149842,4|2,1:2|1:2,0:0:0:0:
134,98,113647,2,0,B|81:93|81:93|49:101|49:101|-11:96,1,135.000005149842,10|0,0:0|0:0,0:0:0:0:
217,53,114333,6,0,B|222:102|222:102|212:138|212:138|221:199,1,135.000005149842,2|2,1:2|1:2,0:0:0:0:
143,270,114847,2,0,P|137:233|143:195,1,67.5000025749208,2|8,0:0|0:0,0:0:0:0:
284,249,115190,1,2,0:0:0:0:
284,249,115362,2,0,P|290:287|281:324,1,67.5000025749208,0|0,1:0|0:0,0:0:0:0:
85,357,115705,6,0,P|127:321|212:334,1,135,6|0,1:2|0:0,0:0:0:0:
212,336,116047,1,10,0:0:0:0:
381,365,116219,2,0,P|335:376|279:358,1,90,2|0,0:0|1:0,0:0:0:0:
234,171,116562,1,2,1:2:0:0:
234,171,116733,2,0,P|294:162|339:180,1,90,8|0,0:0|0:0,0:0:0:0:
455,218,117076,5,10,1:2:0:0:
339,291,117247,1,8,1:3:0:0:
383,102,117419,1,4,1:3:0:0:
118,179,118447,6,0,B|206:142|206:142|310:198,2,188.999994232178,6|8|2,1:2|0:0|1:2,0:0:0:0:
124,82,119304,1,0,1:0:0:0:
201,237,119476,2,0,L|208:345,1,94.499997116089,8|0,0:0|0:0,0:0:0:0:
35,239,119819,6,0,P|37:166|41:82,1,141.749995674133,2|0,1:2|0:0,0:0:0:0:
44,74,120162,1,10,0:0:0:0:
219,148,120333,2,0,P|148:156|92:160,1,94.499997116089,2|0,1:2|0:0,0:0:0:0:
283,80,120676,1,2,1:2:0:0:
294,265,120847,2,0,P|300:200|316:148,1,94.499997116089,8|0,0:0|0:0,0:0:0:0:
327,159,121105,1,8,0:0:0:0:
348,150,121190,6,0,P|416:163|421:275,2,188.999994232178,2|8|2,1:2|0:0|1:2,0:0:0:0:
432,73,122047,1,0,1:0:0:0:
265,104,122219,2,0,P|255:158|273:213,1,94.499997116089,8|0,0:0|0:0,0:0:0:0:
138,308,122562,6,0,P|152:246|137:160,1,141.749995674133,2|0,1:2|0:0,0:0:0:0:
130,147,122905,1,10,0:0:0:0:
234,274,123076,2,0,P|286:278|329:249,1,94.499997116089,2|0,1:2|0:0,0:0:0:0:
106,228,123419,1,2,1:2:0:0:
221,179,123590,1,8,0:0:0:0:
167,334,123762,1,8,0:3:0:0:
164,347,123847,1,8,0:3:0:0:
161,360,123933,6,0,L|55:354,1,94.499997116089,6|0,1:2|0:0,0:0:0:0:
11,223,124276,2,0,L|119:228,1,94.499997116089,10|0,0:0|0:0,0:0:0:0:
66,354,124618,1,2,1:2:0:0:
66,354,124790,1,0,1:0:0:0:
183,284,124962,2,0,P|197:226|176:160,1,94.499997116089,10|0,0:0|0:0,0:0:0:0:
68,48,125305,6,0,P|57:102|70:149,1,94.499997116089,0|0,1:0|0:0,0:0:0:0:
105,227,125647,1,10,0:0:0:0:
238,88,125819,2,0,L|135:95,1,94.499997116089,0|0,1:0|0:0,0:0:0:0:
326,215,126162,1,0,1:0:0:0:
326,215,126333,2,0,L|218:205,1,94.499997116089,10|0,0:0|0:0,0:0:0:0:
208,209,126590,1,8,0:0:0:0:
186,219,126676,6,0,P|147:262|145:304,1,94.499997116089,2|0,1:2|0:0,0:0:0:0:
240,135,127019,2,0,P|187:111|146:122,1,94.499997116089,10|0,0:0|0:0,0:0:0:0:
135,133,127276,1,8,0:0:0:0:
135,133,127362,1,2,1:2:0:0:
233,292,127533,1,0,1:0:0:0:
85,224,127704,1,8,0:0:0:0:
293,199,127876,1,0,3:0:0:0:
306,195,127962,1,0,3:0:0:0:
319,191,128047,6,0,L|438:195,1,94.499997116089,2|8,1:2|0:0,0:0:0:0:
490,242,128305,1,8,0:0:0:0:
493,228,128390,2,0,P|502:154|502:110,1,94.499997116089,8|8,1:2|0:0,0:0:0:0:
455,58,128647,1,8,0:0:0:0:
444,47,128733,2,0,P|391:50|362:78,1,94.499997116089,8|8,1:2|0:0,0:0:0:0:
290,135,128990,1,8,0:0:0:0:
280,145,129076,2,0,L|342:154,1,47.2499985580445,8|8,1:2|0:0,0:0:0:0:
442,210,129247,2,0,L|390:216,1,47.2499985580445,8|8,0:0|0:0,0:0:0:0:
243,288,129419,6,0,B|276:263|329:274|329:274|368:310|432:301,2,188.999994232178,6|8|0,1:2|0:0|1:0,0:0:0:0:
300,365,130275,1,0,1:0:0:0:
154,340,130447,2,0,P|151:281|147:214,1,94.499997116089,8|0,0:0|0:0,0:0:0:0:
231,79,130790,6,0,P|276:104|275:190,1,141.749995674133,2|0,1:2|0:0,0:0:0:0:
261,204,131133,1,10,0:0:0:0:
92,164,131305,2,0,L|204:155,1,94.499997116089,2|0,1:2|0:0,0:0:0:0:
309,294,131647,1,2,1:2:0:0:
309,294,131819,2,0,L|213:289,1,94.499997116089,8|0,0:0|0:0,0:0:0:0:
191,286,132076,1,8,0:0:0:0:
170,273,132162,6,0,B|157:200|157:200|171:159|171:159|156:72,2,188.999994232178,2|8|2,1:2|0:0|1:2,0:0:0:0:
82,141,133018,1,0,1:0:0:0:
245,215,133190,2,0,P|306:211|365:204,1,94.499997116089,8|0,0:0|0:0,0:0:0:0:
308,2,133533,6,0,P|260:30|285:128,1,141.749995674133,2|0,1:2|0:0,0:0:0:0:
277,126,133876,1,8,0:0:0:0:
419,197,134047,2,0,P|423:142|424:86,1,94.499997116089,2|0,1:2|0:0,0:0:0:0:
399,5,134390,1,2,1:2:0:0:
512,63,134562,1,8,0:0:0:0:
345,136,134733,1,8,0:3:0:0:
332,143,134819,1,8,0:3:0:0:
320,150,134905,6,0,L|204:136,1,94.499997116089,6|0,1:2|0:0,0:0:0:0:
137,50,135247,2,0,L|38:60,1,94.499997116089,10|0,0:0|0:0,0:0:0:0:
235,17,135590,1,2,1:2:0:0:
152,141,135762,1,0,1:0:0:0:
243,4,135933,2,0,L|256:114,1,94.499997116089,10|0,0:0|0:0,0:0:0:0:
143,235,136276,6,0,L|153:121,1,94.499997116089,0|0,1:0|0:0,0:0:0:0:
160,42,136619,1,10,0:0:0:0:
160,42,136790,1,0,1:0:0:0:
39,122,136962,5,2,0:0:0:0:
229,100,137133,1,0,1:0:0:0:
74,18,137305,5,8,0:0:0:0:
99,200,137476,1,0,0:0:0:0:
229,100,137647,6,0,L|222:5,1,94.499997116089,2|0,1:2|0:0,0:0:0:0:
91,105,137990,2,0,L|99:211,1,94.499997116089,10|0,0:0|0:0,0:0:0:0:
49,298,138333,1,2,1:2:0:0:
186,174,138505,1,0,1:0:0:0:
10,161,138676,1,8,0:0:0:0:
10,161,139019,5,2,1:2:0:0:
127,251,139190,1,0,1:0:0:0:
95,66,139362,1,8,0:0:0:0:
280,179,139533,1,8,0:3:0:0:
280,179,139619,1,8,0:0:0:0:
280,179,139705,2,0,L|183:173,1,94.499997116089,10|8,1:2|0:3,0:0:0:0:
102,167,140047,1,10,1:2:0:0:
102,167,140219,1,4,0:3:0:0:
242,86,140390,6,0,B|318:98|318:98|363:132|363:132|463:117,1,215.999993408203,6|2,1:2|0:0,0:0:0:0:
491,258,141590,5,0,0:0:0:0:
491,258,141676,1,0,0:0:0:0:
491,258,141762,2,0,P|456:227|357:237,1,135.000005149842,6|2,1:2|0:0,0:0:0:0:
411,308,142276,2,0,L|414:379,1,67.5000025749208,2|0,0:0|0:0,0:0:0:0:
285,297,142619,1,10,0:0:0:0:
285,297,142790,2,2,L|293:150,1,135,8|0,0:0|0:0,0:1:0:0:
293,137,143133,5,6,1:2:0:0:
293,137,143305,1,2,0:0:0:0:
203,227,143476,2,0,L|103:232,1,99.0000030212403,10|2,0:1|0:0,0:0:0:0:
233,26,143819,2,0,L|133:31,1,99.0000030212403,2|2,1:0|1:2,0:0:0:0:
104,139,144162,2,0,L|4:144,1,99.0000030212403,10|2,0:1|0:0,0:0:0:0:
196,136,144505,5,2,1:0:0:0:
196,136,144676,1,2,1:2:0:0:
46,53,144847,1,10,0:1:0:0:
89,229,145019,2,2,L|248:216,1,148.50000453186,2|0,1:0|0:0,0:1:0:0:
261,214,145362,1,2,1:0:0:0:
334,119,145533,1,10,0:0:0:0:
445,245,145705,6,2,P|390:320|287:300,1,198.000006042481,2|2,0:1|0:0,0:1:0:0:
340,139,146219,2,0,L|355:243,1,99.0000030212403,10|0,0:1|0:0,0:0:0:0:
425,142,146562,1,2,1:0:0:0:
269,63,146733,1,0,1:0:0:0:
438,148,146905,1,10,0:1:0:0:
277,235,147076,1,2,0:1:0:0:
266,245,147162,1,2,0:1:0:0:
255,255,147247,6,0,L|262:135,1,99.0000030212403,2|0,1:0|1:0,0:0:0:0:
325,66,147590,1,10,0:1:0:0:
176,131,147762,1,2,1:2:0:0:
176,131,147847,1,2,0:0:0:0:
176,131,147933,2,0,B|144:137|144:137|117:130,1,49.5000015106202,2|2,0:1|0:0,0:0:0:0:
239,16,148105,2,0,L|245:101,1,49.5000015106202,2|2,1:2|0:0,0:0:0:0:
255,192,148276,1,10,0:1:0:0:
387,132,148447,1,2,0:3:0:0:
399,124,148533,1,2,0:3:0:0:
412,116,148619,6,2,P|404:214|401:284,1,148.50000453186,6|0,1:2|0:0,0:1:0:0:
402,288,148962,1,8,0:0:0:0:
212,312,149133,2,0,P|236:364|332:357,1,148.50000453186,2|0,0:1|0:0,0:0:0:0:
337,351,149476,1,2,1:0:0:0:
309,210,149647,2,0,L|186:225,1,99.0000030212403,10|2,0:1|0:0,0:0:0:0:
81,132,149990,5,2,1:3:0:0:
113,143,150075,1,2,0:3:0:0:
147,143,150161,1,2,1:3:0:0:
179,129,150247,1,2,0:3:0:0:
203,105,150332,1,8,0:0:0:0:
217,73,150418,1,2,0:3:0:0:
214,38,150505,6,2,B|199:113|199:113|218:157|218:157|207:242,1,198.000006042481,2|0,1:0|1:0,0:1:0:0:
193,323,151019,1,10,0:0:0:0:
308,202,151190,1,2,0:0:0:0:
131,264,151362,5,2,1:3:0:0:
277,319,151533,1,0,0:0:0:0:
214,157,151705,1,10,0:1:0:0:
214,157,151876,1,0,0:0:0:0:
113,270,152047,5,2,1:0:0:0:
269,236,152219,1,2,1:2:0:0:
130,150,152390,1,10,0:1:0:0:
183,320,152562,1,2,0:0:0:0:
183,320,152647,1,2,0:0:0:0:
183,320,152733,5,2,1:0:0:0:
21,245,152905,1,0,1:0:0:0:
103,382,153076,2,0,L|95:275,1,99.0000030212403,10|8,0:1|0:0,0:0:0:0:
98,258,153333,1,8,0:0:0:0:
118,229,153419,1,10,1:2:0:0:
147,210,153505,1,8,0:0:0:0:
181,206,153590,1,8,0:0:0:0:
214,215,153676,1,8,0:0:0:0:
236,241,153762,1,10,1:2:0:0:
260,265,153847,1,8,0:0:0:0:
293,274,153933,1,8,0:0:0:0:
327,269,154019,1,8,0:0:0:0:
354,247,154105,6,0,L|345:131,1,99.0000030212403,6|0,1:2|0:0,0:0:0:0:
337,53,154447,1,8,0:0:0:0:
512,101,154619,6,0,L|391:93,1,99.0000030212403,2|2,0:1|1:2,0:0:0:0:
258,201,154962,1,2,1:2:0:0:
258,201,155133,2,0,L|378:188,1,99.0000030212403,10|0,0:1|0:0,0:0:0:0:
390,184,155390,1,2,0:0:0:0:
390,184,155476,5,2,1:2:0:0:
272,106,155647,1,2,1:0:0:0:
330,277,155819,1,10,0:0:0:0:
330,277,155990,1,2,1:2:0:0:
474,176,156162,5,2,0:1:0:0:
332,255,156333,1,0,1:0:0:0:
477,281,156505,5,10,0:1:0:0:
325,149,156676,1,2,0:0:0:0:
242,317,156847,6,0,B|231:258|231:258|241:218|241:218|228:142,1,148.50000453186,2|0,1:0|0:0,0:0:0:0:
225,137,157190,1,10,0:0:0:0:
140,28,157362,2,0,L|136:135,1,99.0000030212403,2|0,0:0|1:0,0:0:0:0:
40,253,157705,1,0,1:0:0:0:
40,253,157876,2,0,L|31:138,1,99.0000030212403,10|2,0:1|0:0,0:0:0:0:
163,43,158219,6,0,L|159:99,1,49.5000015106202,2|2,1:3|0:3,0:0:0:0:
123,226,158390,2,0,L|120:152,1,49.5000015106202,2|2,1:3|0:3,0:0:0:0:
245,52,158562,2,0,L|241:108,1,49.5000015106202,8|2,0:0|0:3,0:0:0:0:
205,235,158733,2,0,L|202:161,1,49.5000015106202,2|2,1:3|0:3,0:0:0:0:
318,136,158905,5,2,0:0:0:0:
349,121,158990,1,2,0:2:0:0:
383,121,159076,1,2,1:2:0:0:
415,134,159162,1,2,0:2:0:0:
437,162,159247,2,0,L|433:270,1,99.0000030212403,10|0,0:0|0:0,0:0:0:0:
366,327,159590,6,0,L|297:321,1,49.5000015106202,4|0,1:2|0:0,0:0:0:0:
351,233,159762,2,2,B|277:246|277:246|240:277|240:277|146:267,1,198.000006042481,2|0,0:1|0:0,0:1:0:0:
95,357,160276,6,0,L|175:348,1,49.5000015106202,2|0,1:0|0:0,0:0:0:0:
93,196,160447,1,0,1:0:0:0:
93,196,160533,2,0,L|29:201,1,49.5000015106202,2|8,0:1|0:0,0:0:0:0:
13,286,160705,1,0,0:0:0:0:
13,286,160790,2,0,L|101:278,1,49.5000015106202,2|0,0:1|0:0,0:0:0:0:
145,276,160962,5,2,1:0:0:0:
164,98,161133,2,0,P|181:150|179:211,1,99.0000030212403,2|8,1:0|0:0,0:0:0:0:
93,7,161476,2,2,P|136:56|278:36,1,198.000006042481,2|0,1:0|1:0,0:1:0:0:
361,46,161905,1,2,0:0:0:0:
346,37,161990,2,0,B|302:6|302:6|324:129,1,168.75,10|0,0:0|0:0,0:0:0:0:
263,191,162333,6,0,B|337:212|337:212|408:168,1,148.50000453186,0|0,1:0|0:0,0:0:0:0:
484,129,162676,1,10,0:1:0:0:
481,158,162762,1,2,0:0:0:0:
478,187,162847,1,2,0:0:0:0:
475,216,162933,1,10,0:0:0:0:
470,245,163019,2,0,L|410:237,1,49.5000015106202,2|0,1:0|0:0,0:0:0:0:
355,177,163190,2,0,L|287:188,1,49.5000015106202,2|0,1:2|0:0,0:0:0:0:
234,239,163362,2,0,L|176:231,2,49.5000015106202,10|2|2,0:1|0:0|0:0,0:0:0:0:
99,85,163705,5,2,1:2:0:0:
214,150,163876,1,2,1:2:0:0:
186,6,164047,1,10,0:1:0:0:
36,158,164219,1,8,0:0:0:0:
31,172,164305,1,8,0:0:0:0:
27,186,164390,2,0,L|139:178,1,99.0000030212403,10|8,1:0|0:3,0:0:0:0:
301,160,164733,1,8,1:0:0:0:
155,86,164905,1,4,0:3:0:0:
206,282,165076,1,4,1:0:0:0:
364,322,176047,6,0,L|377:136,1,180,6|0,0:0|0:0,0:0:0:0:
278,73,177419,2,0,L|265:252,1,180,2|0,0:0|0:0,0:0:0:0:
267,356,178790,6,0,P|157:261|362:287,1,540,2|0,0:0|0:0,0:0:0:0:
6,194,181533,5,6,0:0:0:0:
110,179,181876,1,2,0:0:0:0:
6,180,182219,5,2,0:0:0:0:
115,164,182562,1,2,0:0:0:0:
191,247,182905,1,2,0:0:0:0:
66,369,183590,6,0,L|58:272,1,90,2|0,0:0|0:0,0:0:0:0:
0,93,184276,6,0,P|73:97|107:228,1,215.999993408203,2|0,0:0|0:0,0:0:0:0:
58,279,185647,6,0,L|186:270,1,107.999996704102,2|0,0:0|0:0,0:0:0:0:
252,261,186162,1,2,0:0:0:0:
241,377,186505,1,2,0:0:0:0:
417,303,187019,6,0,B|346:341|346:341|356:193,1,215.999993408203,2|0,0:0|0:0,0:0:0:0:
434,111,188390,6,0,L|443:227,1,107.999996704102,2|0,0:0|0:0,0:0:0:0:
350,147,188905,2,0,L|354:216,1,53.9999983520508,2|0,0:0|0:0,0:0:0:0:
353,200,189247,1,2,0:0:0:0:
256,121,189419,5,2,0:0:0:0:
258,154,189505,1,2,0:0:0:0:
260,186,189590,1,2,0:0:0:0:
262,219,189676,1,2,0:0:0:0:
265,252,189762,6,0,L|273:364,1,94.499997116089,6|0,1:2|0:0,0:0:0:0:
155,381,190105,2,0,L|147:273,1,94.499997116089,10|0,0:0|0:0,0:0:0:0:
84,226,190447,1,2,1:2:0:0:
84,226,190619,1,0,1:0:0:0:
235,324,190790,2,0,P|284:330|341:294,1,94.499997116089,10|0,0:0|0:0,0:0:0:0:
267,244,191133,6,0,L|257:141,1,94.499997116089,0|0,1:0|0:0,0:0:0:0:
414,281,191476,1,10,0:0:0:0:
414,281,191647,2,0,L|406:386,1,94.499997116089,0|0,1:0|0:0,0:0:0:0:
274,331,191990,1,0,1:0:0:0:
380,198,192162,2,0,P|447:197|487:231,1,94.499997116089,10|0,0:0|0:0,0:0:0:0:
277,61,192505,6,0,L|289:171,1,94.499997116089,2|0,1:2|0:0,0:0:0:0:
298,241,192847,1,10,0:0:0:0:
298,241,193019,1,0,0:0:0:0:
191,164,193190,1,2,1:2:0:0:
373,118,193362,1,0,1:0:0:0:
174,168,193533,2,0,L|58:160,1,94.499997116089,8|0,0:0|0:0,0:0:0:0:
261,50,193876,6,0,L|160:61,1,94.499997116089,2|8,1:2|0:0,0:0:0:0:
86,17,194133,1,8,0:0:0:0:
69,10,194219,2,0,P|44:55|58:114,1,94.499997116089,8|8,1:2|0:0,0:0:0:0:
42,188,194476,1,8,0:0:0:0:
31,201,194562,2,0,L|139:194,1,94.499997116089,8|8,1:2|0:0,0:0:0:0:
197,144,194819,1,8,0:0:0:0:
211,132,194905,2,0,L|218:192,1,47.2499985580445,8|8,1:2|0:0,0:0:0:0:
280,244,195076,2,0,L|353:232,1,47.2499985580445,8|8,0:0|0:0,0:0:0:0:
408,181,195247,6,0,B|419:254|419:254|402:300|402:300|412:373,2,188.999994232178,6|8|0,1:2|0:0|1:0,0:0:0:0:
321,35,196105,1,0,1:0:0:0:
468,116,196276,2,0,P|418:95|363:111,1,94.499997116089,8|0,0:0|0:0,0:0:0:0:
210,260,196619,6,0,P|263:282|330:219,1,141.749995674133,2|0,1:2|0:0,0:0:0:0:
334,214,196962,1,10,0:0:0:0:
171,171,197133,2,0,P|160:111|159:59,1,94.499997116089,2|0,1:2|0:0,0:0:0:0:
277,18,197476,1,2,1:2:0:0:
277,18,197647,2,0,P|278:78|269:131,1,94.499997116089,8|0,0:0|0:0,0:0:0:0:
266,134,197905,1,8,0:0:0:0:
252,152,197990,6,0,P|186:150|48:130,2,188.999994232178,2|8|2,1:2|0:0|1:2,0:0:0:0:
198,51,198847,1,0,1:0:0:0:
158,182,199019,2,0,P|145:231|146:307,1,94.499997116089,8|0,0:0|0:0,0:0:0:0:
149,297,199276,1,8,0:0:0:0:
165,313,199362,6,0,P|231:326|291:272,1,141.749995674133,2|0,1:2|0:0,0:0:0:0:
294,260,199705,1,8,0:0:0:0:
61,262,199876,2,0,L|73:370,1,94.499997116089,2|0,1:2|0:0,0:0:0:0:
208,241,200219,1,2,1:2:0:0:
208,241,200390,2,0,L|199:131,1,94.499997116089,8|8,0:0|0:3,0:0:0:0:
198,123,200647,1,8,0:3:0:0:
198,123,200733,5,6,1:2:0:0:
291,174,200905,1,0,0:0:0:0:
122,197,201076,5,10,0:0:0:0:
280,91,201247,1,0,0:0:0:0:
300,281,201419,5,2,1:2:0:0:
142,194,201590,1,0,1:0:0:0:
314,287,201762,2,0,L|318:175,1,94.499997116089,10|0,0:0|0:0,0:0:0:0:
198,51,202105,6,0,L|206:161,1,94.499997116089,0|0,1:0|0:0,0:0:0:0:
168,224,202447,1,10,0:0:0:0:
285,93,202619,2,0,P|344:79|405:92,1,94.499997116089,0|2,1:0|0:0,0:0:0:0:
123,154,202962,1,0,1:0:0:0:
123,154,203133,2,0,P|68:153|22:126,1,94.499997116089,10|0,0:0|0:0,0:0:0:0:
16,119,203390,1,8,0:0:0:0:
4,98,203476,6,0,L|17:218,1,94.499997116089,2|0,1:2|0:0,0:0:0:0:
207,13,203819,2,0,L|201:131,1,94.499997116089,10|0,0:0|0:0,0:0:0:0:
195,193,204162,1,2,1:2:0:0:
122,63,204333,1,0,1:0:0:0:
286,145,204505,2,0,L|394:139,1,94.499997116089,8|0,0:0|0:0,0:0:0:0:
473,81,204847,5,2,1:2:0:0:
429,211,205019,1,0,1:0:0:0:
358,87,205190,5,8,0:0:0:0:
500,163,205362,1,0,1:0:0:0:
373,271,205533,5,8,0:0:0:0:
349,275,205619,1,8,0:0:0:0:
325,279,205705,1,8,0:3:0:0:
302,283,205790,1,4,0:3:0:0:
278,288,205876,2,0,L|216:299,1,47.2499985580445,8|0,1:2|0:0,0:0:0:0:
162,360,206047,2,0,L|106:353,1,47.2499985580445,8|0,0:0|0:0,0:0:0:0:
30,287,206219,6,0,P|63:228|181:249,2,188.999994232178,6|8|2,1:2|0:0|1:2,0:0:0:0:
118,301,207076,1,0,1:0:0:0:
33,154,207247,2,0,P|24:97|18:42,1,94.499997116089,8|0,0:0|0:0,0:0:0:0:
28,38,207505,1,8,0:0:0:0:
43,20,207590,6,0,P|110:11|149:83,1,141.749995674133,2|0,1:2|0:0,0:0:0:0:
143,88,207933,1,10,0:0:0:0:
233,30,208105,2,0,P|239:92|244:136,1,94.499997116089,2|0,1:2|0:0,0:0:0:0:
311,193,208447,1,2,1:2:0:0:
204,334,208619,2,0,L|194:227,1,94.499997116089,8|0,0:0|0:0,0:0:0:0:
200,216,208876,1,8,0:0:0:0:
213,196,208962,6,0,B|274:209|274:209|316:241|316:241|402:223,2,188.999994232178,2|8|2,1:2|0:0|1:2,0:0:0:0:
338,147,209819,1,0,1:0:0:0:
241,0,209990,2,0,P|220:45|236:101,1,94.499997116089,8|0,0:0|0:0,0:0:0:0:
242,106,210247,1,8,0:0:0:0:
264,113,210333,6,0,L|436:96,1,141.749995674133,2|0,1:2|0:0,0:0:0:0:
422,96,210676,1,10,0:0:0:0:
330,227,210847,2,0,P|369:188|424:187,1,94.499997116089,2|0,1:2|0:0,0:0:0:0:
494,186,211190,1,2,1:2:0:0:
338,108,211362,1,8,0:0:0:0:
401,260,211533,1,8,0:3:0:0:
405,273,211619,1,8,0:3:0:0:
408,286,211705,6,0,L|407:387,1,94.499997116089,6|0,1:2|0:0,0:0:0:0:
246,279,212047,2,0,L|243:158,1,94.499997116089,10|0,0:0|0:0,0:0:0:0:
332,223,212390,1,2,1:2:0:0:
332,223,212562,1,0,1:0:0:0:
269,362,212733,2,0,P|211:361|175:321,1,94.499997116089,10|0,0:0|0:0,0:0:0:0:
332,223,213076,6,0,L|453:215,1,94.499997116089,0|0,1:0|0:0,0:0:0:0:
247,112,213419,1,10,0:0:0:0:
247,112,213590,2,0,L|380:121,1,94.499997116089,0|0,1:0|0:0,0:0:0:0:
192,292,213933,1,0,1:0:0:0:
192,292,214105,2,0,L|310:287,1,94.499997116089,10|0,0:0|0:0,0:0:0:0:
309,282,214362,1,8,0:0:0:0:
328,269,214447,6,0,P|346:203|337:150,1,94.499997116089,2|0,1:2|0:0,0:0:0:0:
211,28,214790,2,0,P|213:94|229:137,1,94.499997116089,10|0,0:0|0:0,0:0:0:0:
259,204,215133,1,2,1:2:0:0:
297,66,215305,1,0,1:0:0:0:
253,221,215476,1,8,0:0:0:0:
129,136,215647,1,0,3:0:0:0:
116,128,215733,1,0,3:0:0:0:
103,120,215819,6,0,L|112:243,1,94.499997116089,2|8,1:2|0:0,0:0:0:0:
78,298,216076,1,8,0:0:0:0:
69,312,216162,2,0,P|129:297|195:313,1,94.499997116089,8|8,1:2|0:0,0:0:0:0:
244,334,216419,1,8,0:0:0:0:
257,345,216505,2,0,L|256:219,1,94.499997116089,8|8,1:2|0:0,0:0:0:0:
283,170,216762,1,8,0:0:0:0:
290,155,216847,2,0,L|212:147,1,47.2499985580445,8|8,1:2|0:0,0:0:0:0:
362,220,217019,2,0,L|425:212,1,47.2499985580445,8|8,0:0|0:0,0:0:0:0:
483,128,217190,6,0,P|452:74|337:82,2,188.999994232178,6|8|0,1:2|0:0|1:0,0:0:0:0:
312,189,218047,1,0,1:0:0:0:
409,237,218219,2,0,L|399:123,1,94.499997116089,8|0,0:0|0:0,0:0:0:0:
392,120,218476,1,8,0:0:0:0:
372,105,218562,6,0,P|303:104|237:33,1,141.749995674133,2|0,1:2|0:0,0:0:0:0:
243,36,218905,1,10,0:0:0:0:
76,139,219076,2,0,L|190:131,1,94.499997116089,2|0,1:2|0:0,0:0:0:0:
266,122,219419,1,2,1:2:0:0:
120,48,219590,1,8,0:0:0:0:
163,222,219762,1,0,3:0:0:0:
166,235,219847,1,0,3:0:0:0:
169,248,219933,6,0,B|237:240|237:240|290:257|290:257|360:247,2,188.999994232178,2|8|2,1:2|0:0|1:2,0:0:0:0:
243,155,220790,1,0,1:0:0:0:
83,173,220962,2,0,P|69:231|84:288,1,94.499997116089,8|0,0:0|0:0,0:0:0:0:
89,282,221219,1,8,0:0:0:0:
108,295,221305,6,0,P|177:291|245:350,1,141.749995674133,2|0,1:2|0:0,0:0:0:0:
243,352,221647,1,8,0:0:0:0:
299,250,221819,2,0,L|304:136,1,94.499997116089,2|0,1:2|0:0,0:0:0:0:
339,336,222162,1,2,1:2:0:0:
418,168,222333,2,0,P|465:188|479:245,1,94.499997116089,8|8,0:0|0:3,0:0:0:0:
487,248,222590,1,8,0:3:0:0:
481,271,222676,6,0,B|356:291|414:228|294:250,2,188.999994232178,6|10|2,1:2|0:0|1:2,0:0:0:0:
336,335,223533,1,0,1:0:0:0:
352,162,223705,2,0,L|357:62,1,94.499997116089,10|0,0:0|0:0,0:0:0:0:
117,211,224047,6,0,P|168:188|229:196,1,94.499997116089,0|0,1:0|0:0,0:0:0:0:
140,11,224390,1,10,0:0:0:0:
270,111,224562,2,0,P|221:94|164:99,1,94.499997116089,0|2,1:0|0:0,0:0:0:0:
6,185,224905,1,0,1:0:0:0:
93,49,225076,2,0,L|92:155,1,94.499997116089,8|0,0:0|0:0,0:0:0:0:
92,167,225333,1,8,0:0:0:0:
101,188,225419,6,0,P|149:221|224:218,1,94.499997116089,2|0,1:2|0:0,0:0:0:0:
240,317,225762,2,0,P|286:281|306:209,1,94.499997116089,10|0,0:0|0:0,0:0:0:0:
308,111,226105,1,2,1:2:0:0:
208,228,226276,1,0,1:0:0:0:
404,207,226447,1,8,0:0:0:0:
229,144,226619,1,0,3:0:0:0:
229,144,226705,1,0,3:0:0:0:
229,144,226790,5,2,1:2:0:0:
252,320,226962,1,0,1:0:0:0:
387,212,227133,2,0,L|285:227,1,94.499997116089,8|0,0:0|0:3,0:0:0:0:
99,114,227476,5,10,1:2:0:0:
197,243,227647,1,8,0:3:0:0:
230,132,227819,5,10,1:2:0:0:
66,215,227990,1,4,0:3:0:0:
223,347,228162,6,0,L|230:121,1,215.999993408203,6|2,1:2|0:0,0:0:0:0:
315,222,229362,5,0,0:0:0:0:
315,222,229447,1,0,0:0:0:0:
315,222,229533,2,0,L|456:214,1,135.000005149842,6|2,1:2|0:0,0:0:0:0:
498,324,230047,2,0,L|414:317,1,67.5000025749208,2|0,0:0|0:0,0:0:0:0:
347,310,230390,1,10,0:0:0:0:
380,126,230562,1,8,0:0:0:0:
380,126,230905,6,0,L|383:23,1,90,6|0,1:2|0:0,0:0:0:0:
204,91,231247,2,0,L|214:205,1,90,8|0,0:0|0:0,0:0:0:0:
302,194,231590,1,0,1:0:0:0:
126,143,231762,1,0,1:0:0:0:
288,22,231933,2,0,L|296:117,1,90,10|0,0:0|0:0,0:0:0:0:
218,186,232276,5,0,1:0:0:0:
374,143,232447,1,0,1:0:0:0:
247,96,232619,1,8,0:0:0:0:
269,255,232790,2,0,P|216:276|140:173,1,180,0|0,1:0|1:0,0:0:0:0:
180,46,233305,2,0,P|205:102|196:156,1,90,8|0,0:0|0:0,0:0:0:0:
31,120,233647,6,0,L|136:110,1,90,2|0,1:2|0:0,0:0:0:0:
155,213,233990,2,0,L|268:220,1,90,8|0,0:0|0:0,0:0:0:0:
380,125,234334,1,0,1:0:0:0:
262,221,234505,1,0,1:0:0:0:
281,48,234676,2,0,L|291:158,1,90,8|0,0:0|0:0,0:0:0:0:
313,293,235019,5,2,1:2:0:0:
180,206,235190,1,0,1:0:0:0:
330,299,235362,1,10,0:0:0:0:
236,365,235533,1,2,1:2:0:0:
223,370,235619,1,8,0:0:0:0:
210,375,235705,2,0,P|199:317|212:267,1,90,8|4,0:0|0:3,0:0:0:0:
319,176,236047,2,0,P|389:173|421:236,1,135,10|0,0:0|0:0,0:0:0:0:
421,235,236390,6,0,L|417:340,1,90,6|0,1:2|0:0,0:0:0:0:
305,373,236733,2,0,L|295:255,1,90,8|0,0:0|0:0,0:0:0:0:
288,184,237076,1,0,1:0:0:0:
288,184,237247,1,0,1:0:0:0:
204,248,237419,2,0,L|211:342,1,90,8|0,0:0|0:0,0:0:0:0:
366,227,237762,5,2,1:2:0:0:
205,145,237933,1,0,1:0:0:0:
298,288,238105,1,8,0:0:0:0:
387,134,238276,6,0,P|324:134|284:30,1,180,2|0,1:2|1:0,0:0:0:0:
457,82,238790,2,0,P|475:144|463:193,1,90,10|0,0:0|0:0,0:0:0:0:
390,220,239047,1,8,0:0:0:0:
378,232,239133,6,0,P|334:221|301:163,1,90,2|0,1:2|0:0,0:0:0:0:
353,13,239476,2,0,L|363:124,1,90,8|0,0:0|0:0,0:0:0:0:
227,212,239819,1,0,1:0:0:0:
362,124,239990,1,0,1:0:0:0:
192,64,240162,1,8,0:0:0:0:
343,124,240333,1,0,0:0:0:0:
160,149,240505,5,0,1:0:0:0:
283,47,240676,1,0,1:0:0:0:
255,240,240847,1,8,0:0:0:0:
136,154,241019,1,8,0:0:0:0:
136,154,241105,1,8,0:0:0:0:
136,154,241190,1,8,1:2:0:0:
292,130,241362,1,8,0:3:0:0:
101,65,241533,5,8,1:2:0:0:
272,134,241704,1,4,0:3:0:0:
79,223,241876,1,6,1:2:0:0:
256,192,241962,12,4,248733,0:0:0:0:
