osu file format v14

[General]
AudioFilename: audio.mp3
AudioLeadIn: 0
PreviewTime: 51942
Countdown: 0
SampleSet: Normal
StackLeniency: 0.6
Mode: 1
LetterboxInBreaks: 0
WidescreenStoryboard: 0

[Editor]
Bookmarks: 11571,41742,52694,88371
DistanceSpacing: 0.4
BeatDivisor: 4
GridSize: 16
TimelineZoom: 1.5

[Metadata]
Title:Get the Freedom
TitleUnicode:Get the Freedom
Artist:Kicco
ArtistUnicode:Kicco
Creator:Bellicose
Version:Ron's Futsuu
Source:ねこツク、さくら。
Tags:meis clauson angel note lump of sugar Nekotsuku Sakura kemonomimi eroge video game visual novel vn japanese pop opening short version sodarose superdaloubot [r] ron jpop j-pop op 羽生みいな hanyu miina
BeatmapID:2441756
BeatmapSetID:1159892

[Difficulty]
HPDrainRate:7
CircleSize:4
OverallDifficulty:3
ApproachRate:9
SliderMultiplier:1.4
SliderTickRate:1

[Events]
//Background and Video events
0,0,"bg.jpg",0,0
//Break Periods
//Storyboard Layer 0 (Background)
//Storyboard Layer 1 (Fail)
//Storyboard Layer 2 (Pass)
//Storyboard Layer 3 (Foreground)
//Storyboard Layer 4 (Overlay)
//Storyboard Sound Samples

[TimingPoints]
600,342.857142857143,4,1,0,60,1,0
10800,-100,4,1,0,70,0,0
11485,-100,4,1,0,80,0,0
22714,-100,4,1,0,70,0,0
32057,-100,4,1,0,80,0,0
41914,-100,4,1,0,70,0,0
51171,-100,4,1,0,80,0,0
52714,-100,4,1,0,90,0,1
74657,-100,4,1,0,80,0,0
89742,-100,4,1,0,70,0,0
91114,-100,4,1,0,60,0,0
92485,-100,4,1,0,50,0,0
93857,-100,4,1,0,40,0,0
95228,-100,4,1,0,30,0,0

[Colours]
Combo1 : 252,163,214
Combo2 : 255,230,253
Combo3 : 254,201,249
Combo4 : 227,174,253

[HitObjects]
256,192,600,5,0,0:0:0:0:
256,192,1971,1,0,0:0:0:0:
256,192,3342,1,8,0:0:0:0:
256,192,4714,1,8,0:0:0:0:
256,192,6085,1,0,0:0:0:0:
256,192,6771,1,8,0:0:0:0:
256,192,7114,1,8,0:0:0:0:
256,192,7457,1,0,0:0:0:0:
256,192,8142,1,8,0:0:0:0:
256,192,8828,1,0,0:0:0:0:
256,192,9171,1,0,0:0:0:0:
256,192,9514,1,8,0:0:0:0:
256,192,10200,1,0,0:0:0:0:
256,192,11571,5,4,0:0:0:0:
256,192,11914,1,8,0:0:0:0:
256,192,12257,1,0,0:0:0:0:
256,192,12428,1,0,0:0:0:0:
256,192,12600,1,8,0:0:0:0:
256,192,12942,1,0,0:0:0:0:
256,192,13285,1,8,0:0:0:0:
256,192,13628,1,0,0:0:0:0:
256,192,14314,1,0,0:0:0:0:
256,192,14657,1,8,0:0:0:0:
256,192,15000,1,0,0:0:0:0:
256,192,15171,1,0,0:0:0:0:
256,192,15342,1,8,0:0:0:0:
256,192,15685,1,0,0:0:0:0:
256,192,16028,1,8,0:0:0:0:
256,192,16714,1,8,0:0:0:0:
256,192,17057,1,4,0:0:0:0:
256,192,17742,1,0,0:0:0:0:
256,192,17914,1,0,0:0:0:0:
256,192,18085,1,8,0:0:0:0:
256,192,18428,1,8,0:0:0:0:
256,192,18771,1,8,0:0:0:0:
256,192,18942,1,0,0:0:0:0:
256,192,19285,1,0,0:0:0:0:
256,192,19457,1,8,0:0:0:0:
256,192,19800,1,0,0:0:0:0:
256,192,20485,1,0,0:0:0:0:
256,192,20657,1,0,0:0:0:0:
256,192,20828,1,8,0:0:0:0:
256,192,21171,1,8,0:0:0:0:
256,192,21514,1,8,0:0:0:0:
256,192,21857,1,8,0:0:0:0:
256,192,22028,1,0,0:0:0:0:
256,192,22200,1,0,0:0:0:0:
256,192,22542,1,12,0:0:0:0:
256,192,23400,1,0,0:0:0:0:
256,192,23742,1,8,0:0:0:0:
256,192,23914,1,0,0:0:0:0:
256,192,24257,1,8,0:0:0:0:
256,192,24428,1,0,0:0:0:0:
256,192,24771,1,0,0:0:0:0:
256,192,25114,1,0,0:0:0:0:
256,192,25285,1,8,0:0:0:0:
256,192,25628,1,0,0:0:0:0:
256,192,26142,1,0,0:0:0:0:
256,192,26485,1,8,0:0:0:0:
256,192,26657,1,0,0:0:0:0:
256,192,27000,1,8,0:0:0:0:
256,192,27171,1,0,0:0:0:0:
256,192,27514,1,0,0:0:0:0:
256,192,27685,1,8,0:0:0:0:
256,192,28028,1,12,0:0:0:0:
256,192,28886,1,0,0:0:0:0:
256,192,29228,1,8,0:0:0:0:
256,192,29400,1,0,0:0:0:0:
256,192,29743,1,8,0:0:0:0:
256,192,29914,1,0,0:0:0:0:
256,192,30257,1,0,0:0:0:0:
256,192,30600,1,0,0:0:0:0:
256,192,30771,1,8,0:0:0:0:
256,192,31114,1,0,0:0:0:0:
256,192,31628,1,0,0:0:0:0:
256,192,31800,1,8,0:0:0:0:
256,192,32143,1,12,0:0:0:0:
256,192,32657,1,12,0:0:0:0:
256,192,33000,1,0,0:0:0:0:
256,192,33171,1,8,0:0:0:0:
256,192,33514,1,4,0:0:0:0:
256,192,34200,1,0,0:0:0:0:
256,192,34372,1,0,0:0:0:0:
256,192,34543,1,8,0:0:0:0:
256,192,34886,1,0,0:0:0:0:
256,192,35229,1,8,0:0:0:0:
256,192,35914,1,8,0:0:0:0:
256,192,36257,1,0,0:0:0:0:
256,192,36600,1,8,0:0:0:0:
256,192,37114,1,0,0:0:0:0:
256,192,37286,1,8,0:0:0:0:
256,192,37629,1,0,0:0:0:0:
256,192,37972,1,8,0:0:0:0:
256,192,38142,1,0,0:0:0:0:
256,192,38486,1,0,0:0:0:0:
256,192,38657,1,8,0:0:0:0:
256,192,39000,1,0,0:0:0:0:
256,192,39686,1,0,0:0:0:0:
256,192,39858,1,0,0:0:0:0:
256,192,40029,1,8,0:0:0:0:
256,192,40372,1,0,0:0:0:0:
256,192,40715,1,8,0:0:0:0:
256,192,41400,1,8,0:0:0:0:
256,192,41742,1,4,0:0:0:0:
256,192,42085,1,0,0:0:0:0:
256,192,42428,1,8,0:0:0:0:
256,192,43114,1,0,0:0:0:0:
256,192,43457,1,8,0:0:0:0:
256,192,43800,1,8,0:0:0:0:
256,192,44485,1,0,0:0:0:0:
256,192,44828,1,0,0:0:0:0:
256,192,45171,1,8,0:0:0:0:
256,192,45857,1,0,0:0:0:0:
256,192,46200,1,0,0:0:0:0:
256,192,46542,1,8,0:0:0:0:
256,192,46714,1,8,0:0:0:0:
256,192,46885,1,0,0:0:0:0:
256,192,47228,1,4,0:0:0:0:
256,192,47571,1,0,0:0:0:0:
256,192,47914,1,8,0:0:0:0:
256,192,48600,1,0,0:0:0:0:
256,192,48943,1,8,0:0:0:0:
256,192,49286,1,8,0:0:0:0:
256,192,49971,1,4,0:0:0:0:
256,192,50314,1,8,0:0:0:0:
256,192,50657,1,0,0:0:0:0:
256,192,50828,1,0,0:0:0:0:
256,192,51000,1,8,0:0:0:0:
256,192,51342,1,12,0:0:0:0:
256,192,51514,1,12,0:0:0:0:
256,192,51685,1,12,0:0:0:0:
256,192,52714,1,4,0:0:0:0:
256,192,53057,1,8,0:0:0:0:
256,192,53400,1,8,0:0:0:0:
256,192,53571,1,0,0:0:0:0:
256,192,53742,1,8,0:0:0:0:
256,192,54085,1,0,0:0:0:0:
256,192,54428,1,8,0:0:0:0:
256,192,54600,1,0,0:0:0:0:
256,192,54942,1,8,0:0:0:0:
256,192,55457,1,0,0:0:0:0:
256,192,55800,1,8,0:0:0:0:
256,192,56142,1,0,0:0:0:0:
256,192,56314,1,0,0:0:0:0:
256,192,56485,1,8,0:0:0:0:
256,192,56828,1,0,0:0:0:0:
256,192,57171,1,8,0:0:0:0:
256,192,57342,1,0,0:0:0:0:
256,192,57685,1,8,0:0:0:0:
256,192,58200,1,4,0:0:0:0:
256,192,58542,1,8,0:0:0:0:
256,192,58885,1,8,0:0:0:0:
256,192,59057,1,0,0:0:0:0:
256,192,59228,1,8,0:0:0:0:
256,192,59571,1,0,0:0:0:0:
256,192,59914,1,8,0:0:0:0:
256,192,60600,1,8,0:0:0:0:
256,192,60942,1,0,0:0:0:0:
256,192,61285,1,8,0:0:0:0:
256,192,61628,1,8,0:0:0:0:
256,192,61800,1,0,0:0:0:0:
256,192,61971,1,8,0:0:0:0:
256,192,62314,1,8,0:0:0:0:
256,192,62657,1,0,0:0:0:0:
256,192,62828,1,0,0:0:0:0:
256,192,63000,1,8,0:0:0:0:
256,192,63171,1,0,0:0:0:0:
256,192,63342,1,8,0:0:0:0:
256,192,63685,1,4,0:0:0:0:
256,192,64028,1,8,0:0:0:0:
256,192,64371,1,8,0:0:0:0:
256,192,64542,1,0,0:0:0:0:
256,192,64713,1,8,0:0:0:0:
256,192,65056,1,0,0:0:0:0:
256,192,65399,1,8,0:0:0:0:
256,192,65571,1,0,0:0:0:0:
256,192,65913,1,8,0:0:0:0:
256,192,66428,1,0,0:0:0:0:
256,192,66771,1,8,0:0:0:0:
256,192,67113,1,0,0:0:0:0:
256,192,67285,1,0,0:0:0:0:
256,192,67456,1,8,0:0:0:0:
256,192,67799,1,0,0:0:0:0:
256,192,68142,1,8,0:0:0:0:
256,192,68313,1,0,0:0:0:0:
256,192,68656,1,8,0:0:0:0:
256,192,69171,1,4,0:0:0:0:
256,192,69513,1,8,0:0:0:0:
256,192,69856,1,8,0:0:0:0:
256,192,70028,1,0,0:0:0:0:
256,192,70199,1,8,0:0:0:0:
256,192,70885,1,8,0:0:0:0:
256,192,71228,1,0,0:0:0:0:
256,192,71571,1,8,0:0:0:0:
256,192,71913,1,0,0:0:0:0:
256,192,72256,1,0,0:0:0:0:
256,192,72599,1,8,0:0:0:0:
256,192,72771,1,0,0:0:0:0:
256,192,72942,1,8,0:0:0:0:
256,192,73285,1,0,0:0:0:0:
256,192,73456,1,0,0:0:0:0:
256,192,73628,1,8,0:0:0:0:
256,192,73799,1,0,0:0:0:0:
256,192,73971,1,8,0:0:0:0:
256,192,74313,1,8,0:0:0:0:
256,192,74657,1,4,0:0:0:0:
256,192,76028,1,4,0:0:0:0:
256,192,76714,1,8,0:0:0:0:
256,192,76885,1,0,0:0:0:0:
256,192,77057,1,0,0:0:0:0:
256,192,77400,1,4,0:0:0:0:
256,192,77743,1,8,0:0:0:0:
256,192,78086,1,0,0:0:0:0:
256,192,78257,1,0,0:0:0:0:
256,192,78429,1,8,0:0:0:0:
256,192,78771,1,0,0:0:0:0:
256,192,79114,1,8,0:0:0:0:
256,192,79457,1,0,0:0:0:0:
256,192,80143,1,0,0:0:0:0:
256,192,80486,1,8,0:0:0:0:
256,192,80829,1,0,0:0:0:0:
256,192,81000,1,0,0:0:0:0:
256,192,81171,1,8,0:0:0:0:
256,192,81514,1,0,0:0:0:0:
256,192,81857,1,8,0:0:0:0:
256,192,82543,1,8,0:0:0:0:
256,192,82886,1,4,0:0:0:0:
256,192,83571,1,0,0:0:0:0:
256,192,83914,1,8,0:0:0:0:
256,192,84086,1,0,0:0:0:0:
256,192,84257,1,8,0:0:0:0:
256,192,84600,1,8,0:0:0:0:
256,192,84943,1,0,0:0:0:0:
256,192,85114,1,0,0:0:0:0:
256,192,85286,1,8,0:0:0:0:
256,192,85629,1,0,0:0:0:0:
256,192,86314,1,0,0:0:0:0:
256,192,86486,1,0,0:0:0:0:
256,192,86657,1,8,0:0:0:0:
256,192,87000,1,8,0:0:0:0:
256,192,87343,1,8,0:0:0:0:
256,192,87686,1,8,0:0:0:0:
256,192,87857,1,0,0:0:0:0:
256,192,88029,1,0,0:0:0:0:
256,192,88371,1,12,0:0:0:0:
256,192,88542,8,0,97971,0:0:0:0:
