osu file format v14

[General]
AudioFilename: audio.mp3
AudioLeadIn: 0
PreviewTime: 183505
Countdown: 0
SampleSet: Soft
StackLeniency: 0.6
Mode: 0
LetterboxInBreaks: 0
EpilepsyWarning: 1
WidescreenStoryboard: 1

[Editor]
Bookmarks: 52619,165076,176047
DistanceSpacing: 2.8
BeatDivisor: 4
GridSize: 4
TimelineZoom: 2.5

[Metadata]
Title:Get the Freedom
TitleUnicode:Get the Freedom
Artist:Kicco
ArtistUnicode:Kicco
Creator:Bellicose
Version:Promise.
Source:ねこツク、さくら。
Tags:Houshou Hari Shikibe Mayu Kazato Asa Shizuku- dahkjdas meis clauson angel note lump of sugar Nekotsuku Sakura kemonomimi eroge video game visual novel vn japanese pop rock opening full version
BeatmapID:3356266
BeatmapSetID:1644227

[Difficulty]
HPDrainRate:6
CircleSize:4
OverallDifficulty:9
ApproachRate:9.2
SliderMultiplier:1.8
SliderTickRate:1

[Events]
//Background and Video events
0,0,"bg1.jpg",0,0
//Break Periods
2,80247,87706
2,165276,175477
//Storyboard Layer 0 (Background)
//Storyboard Layer 1 (Fail)
//Storyboard Layer 2 (Pass)
//Storyboard Layer 3 (Foreground)
Sprite,Foreground,Centre,"sb\Bellicose.png",320,240 C,0,19704,,255,102,102 F,19,19704,20704,0,1 S,0,19704,22447,0.35,0.4 F,19,21762,22447,1,0
//Storyboard Layer 4 (Overlay)
//Storyboard Sound Samples

[TimingPoints]
505,342.857142857143,4,2,1,40,1,0
505,-166.666666666667,4,2,1,40,0,0
10105,-133.333333333333,4,2,1,40,0,0
10705,-133.333333333333,4,2,1,5,0,0
10790,-100,4,2,1,50,0,0
11476,-100,4,2,1,70,0,0
16876,-100,4,2,1,5,0,0
16962,-100,4,2,1,70,0,0
22447,-133.333333333333,4,2,1,50,0,0
22790,-133.333333333333,4,2,2,50,0,0
27933,-133.333333333333,4,2,1,50,0,0
28276,-133.333333333333,4,2,2,50,0,0
32047,-133.333333333333,4,2,1,60,0,0
32562,-90.9090909090909,4,2,1,60,0,0
33419,-111.111111111111,4,2,1,60,0,0
36076,-111.111111111111,4,2,1,5,0,0
36162,-111.111111111111,4,2,1,60,0,0
38819,-111.111111111111,4,2,1,5,0,0
38905,-111.111111111111,4,2,1,60,0,0
41562,-111.111111111111,4,2,1,5,0,0
41647,-133.333333333333,4,2,1,50,0,0
49876,-100,4,2,1,60,0,0
50133,-111.111111111111,4,2,1,5,0,0
50219,-100,4,2,1,60,0,0
51162,-111.111111111111,4,2,1,5,0,0
51247,-76.9230769230769,4,2,1,70,0,0
51933,-133.333333333333,4,2,1,70,0,0
52619,-90.9090909090909,4,2,1,75,0,1
54762,-90.9090909090909,4,2,1,5,0,1
54847,-90.9090909090909,4,2,1,75,0,1
57505,-90.9090909090909,4,2,1,5,0,1
57590,-90.9090909090909,4,2,1,75,0,1
60762,-90.9090909090909,4,2,1,5,0,1
60847,-90.9090909090909,4,2,1,75,0,1
65733,-90.9090909090909,4,2,1,5,0,1
65819,-90.9090909090909,4,2,1,75,0,1
68476,-90.9090909090909,4,2,1,5,0,1
68562,-90.9090909090909,4,2,1,75,0,1
70105,-76.9230769230769,4,2,1,75,0,1
70362,-90.9090909090909,4,2,1,5,0,1
70447,-76.9230769230769,4,2,1,75,0,1
70705,-90.9090909090909,4,2,1,5,0,1
70790,-90.9090909090909,4,2,1,75,0,1
72419,-90.9090909090909,4,2,1,5,0,1
72505,-90.9090909090909,4,2,1,75,0,1
74562,-133.333333333333,4,2,1,70,0,1
76790,-90.9090909090909,4,2,1,70,0,1
77305,-100,4,2,1,70,0,0
88276,-111.111111111111,4,2,1,60,0,0
90933,-111.111111111111,4,2,1,5,0,0
91019,-111.111111111111,4,2,1,60,0,0
93676,-111.111111111111,4,2,1,5,0,0
93762,-111.111111111111,4,2,1,60,0,0
96419,-111.111111111111,4,2,1,5,0,0
96505,-111.111111111111,4,2,1,60,0,0
98390,-90.9090909090909,4,2,1,60,0,0
99247,-111.111111111111,4,2,1,60,0,0
107476,-133.333333333333,4,2,1,50,0,0
115705,-100,4,2,1,60,0,0
115962,-100,4,2,1,5,0,0
116047,-100,4,2,1,60,0,0
116990,-100,4,2,1,5,0,0
117076,-76.9230769230769,4,2,1,70,0,0
118447,-90.9090909090909,4,2,1,75,0,1
118705,-90.9090909090909,4,2,1,5,0,1
118790,-90.9090909090909,4,2,1,75,0,1
120076,-90.9090909090909,4,2,1,5,0,1
120162,-90.9090909090909,4,2,1,75,0,1
121105,-90.9090909090909,4,2,1,5,0,1
121190,-90.9090909090909,4,2,1,75,0,1
122819,-90.9090909090909,4,2,1,5,0,1
122905,-90.9090909090909,4,2,1,75,0,1
126933,-90.9090909090909,4,2,1,5,0,1
127019,-90.9090909090909,4,2,1,75,0,1
129676,-90.9090909090909,4,2,1,5,0,1
129762,-90.9090909090909,4,2,1,75,0,1
131047,-90.9090909090909,4,2,1,5,0,1
131133,-90.9090909090909,4,2,1,75,0,1
132076,-90.9090909090909,4,2,1,5,0,1
132162,-90.9090909090909,4,2,1,75,0,1
133790,-90.9090909090909,4,2,1,5,0,1
133876,-90.9090909090909,4,2,1,75,0,1
135933,-76.9230769230769,4,2,1,75,0,1
136190,-90.9090909090909,4,2,1,5,0,1
136276,-76.9230769230769,4,2,1,75,0,1
136533,-90.9090909090909,4,2,1,5,0,1
136619,-90.9090909090909,4,2,1,75,0,1
138247,-90.9090909090909,4,2,1,5,0,1
138333,-90.9090909090909,4,2,1,75,0,1
140390,-133.333333333333,4,2,1,70,0,0
142619,-90.9090909090909,4,2,1,70,0,0
143133,-83.3333333333333,4,2,1,75,0,1
145276,-83.3333333333333,4,2,1,5,0,1
145362,-83.3333333333333,4,2,1,75,0,1
145705,-76.9230769230769,4,2,1,75,0,1
146047,-83.3333333333333,4,2,1,75,0,1
148876,-83.3333333333333,4,2,1,5,0,1
148962,-83.3333333333333,4,2,1,75,0,1
149133,-76.9230769230769,4,2,1,75,0,1
149390,-83.3333333333333,4,2,1,5,0,1
149476,-83.3333333333333,4,2,1,75,0,1
149562,-83.3333333333333,4,2,1,5,0,1
149647,-83.3333333333333,4,2,1,75,0,1
150505,-66.6666666666667,4,2,1,75,0,1
150847,-83.3333333333333,4,2,1,75,0,1
151705,-76.9230769230769,4,2,1,75,0,1
151962,-83.3333333333333,4,2,1,5,0,1
152047,-83.3333333333333,4,2,1,75,0,1
154362,-83.3333333333333,4,2,1,5,0,1
154447,-83.3333333333333,4,2,1,75,0,1
156762,-83.3333333333333,4,2,1,5,0,1
156847,-83.3333333333333,4,2,1,75,0,1
159247,-66.6666666666667,4,2,1,75,0,1
159505,-83.3333333333333,4,2,1,5,0,1
159590,-66.6666666666667,4,2,1,75,0,1
159762,-83.3333333333333,4,2,1,75,0,1
159933,-66.6666666666667,4,2,1,75,0,1
160190,-83.3333333333333,4,2,1,5,0,1
160276,-83.3333333333333,4,2,1,75,0,1
161133,-71.4285714285714,4,2,1,75,0,1
161476,-133.333333333333,4,2,1,75,0,1
161819,-58.8235294117647,4,2,1,75,0,1
162333,-83.3333333333333,4,2,1,75,0,1
165076,-133.333333333333,4,2,1,75,0,0
176047,-250,4,2,2,50,0,0
178790,-166.666666666667,4,2,2,50,0,0
182905,-100,4,2,1,50,0,0
183590,-166.666666666667,4,2,1,50,0,0
184276,-166.666666666667,4,2,1,40,0,0
188905,-125,4,2,1,50,0,0
189247,-66.6666666666667,4,2,1,50,0,0
189762,-90.9090909090909,4,2,1,75,0,1
191047,-90.9090909090909,4,2,1,5,0,1
191133,-90.9090909090909,4,2,1,75,0,1
192762,-90.9090909090909,4,2,1,5,0,1
192847,-90.9090909090909,4,2,1,75,0,1
195505,-90.9090909090909,4,2,1,5,0,1
195590,-90.9090909090909,4,2,1,75,0,1
196876,-90.9090909090909,4,2,1,5,0,1
196962,-90.9090909090909,4,2,1,75,0,1
197905,-90.9090909090909,4,2,1,5,0,1
197990,-90.9090909090909,4,2,1,75,0,1
199619,-90.9090909090909,4,2,1,5,0,1
199705,-90.9090909090909,4,2,1,75,0,1
201762,-76.9230769230769,4,2,1,75,0,1
202019,-90.9090909090909,4,2,1,5,0,1
202105,-76.9230769230769,4,2,1,75,0,1
202362,-90.9090909090909,4,2,1,5,0,1
202447,-90.9090909090909,4,2,1,75,0,1
204076,-90.9090909090909,4,2,1,5,0,1
204162,-90.9090909090909,4,2,1,75,0,1
206133,-90.9090909090909,4,2,1,5,0,1
206219,-90.9090909090909,4,2,1,75,0,1
208362,-90.9090909090909,4,2,1,5,0,1
208447,-90.9090909090909,4,2,1,75,0,1
211105,-90.9090909090909,4,2,1,5,0,1
211190,-90.9090909090909,4,2,1,75,0,1
214362,-90.9090909090909,4,2,1,5,0,1
214447,-90.9090909090909,4,2,1,75,0,1
219333,-90.9090909090909,4,2,1,5,0,1
219419,-90.9090909090909,4,2,1,75,0,1
222076,-90.9090909090909,4,2,1,5,0,1
222162,-90.9090909090909,4,2,1,75,0,1
223705,-76.9230769230769,4,2,1,75,0,1
223962,-90.9090909090909,4,2,1,5,0,1
224047,-76.9230769230769,4,2,1,75,0,1
224305,-90.9090909090909,4,2,1,5,0,1
224390,-90.9090909090909,4,2,1,75,0,1
226019,-90.9090909090909,4,2,1,5,0,1
226105,-90.9090909090909,4,2,1,75,0,1
228162,-133.333333333333,4,2,1,70,0,0
230562,-90.9090909090909,4,2,1,70,0,0
230819,-90.9090909090909,4,2,1,5,0,0
230905,-100,4,2,1,70,0,0
236305,-100,4,2,1,5,0,0
236390,-100,4,2,1,70,0,0
239390,-100,4,2,1,5,0,0
239476,-100,4,2,1,70,0,0
241876,-263.157894736842,4,2,1,70,0,0
241962,-263.157894736842,4,2,1,5,0,0
248733,-263.157894736842,4,2,99,5,0,0

[Colours]
Combo1 : 226,143,243
Combo2 : 139,222,254
Combo3 : 253,206,240
Combo4 : 150,166,254

[HitObjects]
121,78,505,6,0,P|38:95|3:114,1,107.999996704102,2|0,0:0|0:0,0:0:0:0:
195,28,1190,2,0,P|237:61|244:123,1,107.999996704102,2|0,0:0|0:0,0:0:0:0:
497,190,1876,6,0,P|453:224|452:288,1,107.999996704102,2|0,0:0|0:0,0:0:0:0:
366,221,2390,2,0,P|322:238|301:252,1,53.9999983520508,2|0,0:0|0:0,0:0:0:0:
401,134,2733,2,0,P|384:88|380:11,1,107.999996704102,2|0,0:0|0:0,0:0:0:0:
263,104,3247,6,0,B|251:171|227:132|211:218,1,107.999996704102,2|0,0:0|0:0,0:0:0:0:
36,284,3933,2,0,B|48:351|72:312|88:398,1,107.999996704102,2|0,0:0|0:0,0:0:0:0:
121,173,4619,6,0,P|59:182|4:201,1,107.999996704102,2|0,0:0|0:0,0:0:0:0:
84,93,5133,2,0,P|95:57|107:36,1,53.9999983520508,2|0,0:0|0:0,0:0:0:0:
206,152,5476,2,0,P|195:116|183:95,1,53.9999983520508,2|0,0:0|0:0,0:0:0:0:
24,275,5990,5,2,0:0:0:0:
172,345,6333,5,2,0:0:0:0:
339,203,6676,5,2,0:0:0:0:
479,150,7019,6,0,B|510:131|510:131|500:97|500:97|515:45,1,107.999996704102,2|0,0:0|0:0,0:0:0:0:
436,227,7705,2,0,P|445:288|488:339,2,107.999996704102,2|2|2,0:0|0:0|0:0,0:0:0:0:
501,57,8733,5,2,0:0:0:0:
383,136,9076,5,2,0:0:0:0:
197,18,9419,6,0,P|147:50|100:38,1,107.999996704102,2|0,0:0|0:0,0:0:0:0:
330,2,10105,6,0,B|317:147|276:49|253:230,1,236.250009012223,2|0,0:0|0:0,0:0:0:0:
197,277,10790,2,0,P|204:298|210:320,3,45,2|2|2|2,0:0|0:0|0:0|0:0,0:0:0:0:
283,354,11133,5,2,0:0:0:0:
321,341,11219,1,2,0:0:0:0:
362,361,11305,1,2,0:0:0:0:
408,336,11390,1,2,0:0:0:0:
456,369,11476,6,0,P|485:338|465:276,1,90,6|0,1:2|0:0,0:0:0:0:
380,103,11819,2,0,P|440:118|496:117,1,90,8|0,0:0|0:0,0:0:0:0:
346,255,12162,1,0,1:0:0:0:
510,197,12333,1,0,1:0:0:0:
306,34,12505,2,0,B|276:51|276:51|259:87|291:118,1,90,10|0,0:0|0:0,0:0:0:0:
218,289,12847,5,0,1:0:0:0:
374,127,13019,1,0,1:0:0:0:
303,354,13190,1,8,0:0:0:0:
173,169,13362,2,0,B|72:140|105:213|-6:200,1,180,0|0,1:0|1:0,0:0:0:0:
187,39,13876,1,8,0:0:0:0:
181,54,14219,6,0,P|231:72|276:70,1,90,2|0,1:2|0:0,0:0:0:0:
140,277,14562,2,0,P|181:260|226:259,1,90,8|0,0:0|0:0,0:0:0:0:
69,113,14905,1,0,1:0:0:0:
260,171,15076,1,0,1:0:0:0:
50,358,15247,2,0,P|28:327|55:268,1,90,8|0,0:0|0:0,0:0:0:0:
272,358,15590,5,2,1:2:0:0:
151,188,15762,1,0,1:0:0:0:
346,253,15933,5,10,0:0:0:0:
142,317,16105,1,2,1:2:0:0:
142,317,16190,1,8,0:0:0:0:
142,317,16276,1,8,0:0:0:0:
277,149,16447,1,4,0:3:0:0:
473,373,16619,2,0,B|477:278|509:339|513:223,1,135,10|0,0:0|0:0,0:0:0:0:
430,204,16962,6,0,B|393:230|393:230|331:205,1,90,6|0,1:2|0:0,0:0:0:0:
469,36,17305,2,0,P|510:76|488:139,1,90,8|0,0:0|0:0,0:0:0:0:
295,11,17647,1,0,1:0:0:0:
413,117,17819,1,0,1:0:0:0:
188,262,17990,2,0,P|182:225|165:161,1,90,8|0,0:0|0:0,0:0:0:0:
288,309,18333,5,2,1:2:0:0:
73,183,18505,1,0,1:0:0:0:
273,103,18676,1,8,0:0:0:0:
78,304,18847,2,0,B|138:290|138:290|162:253|162:253|244:231,1,180,2|0,1:2|1:0,0:0:0:0:
468,281,19362,1,10,0:0:0:0:
483,294,19705,6,0,P|505:272|492:202,1,90,2|0,1:2|0:0,0:0:0:0:
356,16,20047,2,0,P|334:38|347:108,1,90,8|0,0:0|0:0,0:0:0:0:
510,39,20390,1,0,1:0:0:0:
371,192,20562,1,0,1:0:0:0:
214,18,20733,2,0,P|147:42|107:50,1,90,8|0,0:0|0:0,0:0:0:0:
59,271,21076,5,0,1:0:0:0:
254,159,21247,1,0,1:0:0:0:
35,114,21419,1,8,0:0:0:0:
250,315,21590,1,8,0:0:0:0:
250,315,21676,1,8,0:0:0:0:
250,315,21762,5,8,1:2:0:0:
4,194,21933,1,8,0:3:0:0:
273,83,22105,5,8,1:2:0:0:
82,366,22276,1,4,0:3:0:0:
222,206,22447,6,0,B|311:179|281:242|365:231,1,135.000005149842,6|8,1:2|0:0,0:0:0:0:
438,198,22962,2,0,P|455:176|450:129,1,67.5000025749208,2|8,0:0|0:0,0:0:0:0:
402,39,23305,1,2,1:2:0:0:
402,39,23476,2,0,P|442:33|477:15,1,67.5000025749208,8|0,0:0|1:0,0:0:0:0:
343,111,23819,1,10,0:0:0:0:
337,103,24162,5,10,0:0:0:0:
367,185,24333,1,2,1:2:0:0:
451,208,24505,1,8,0:0:0:0:
512,151,24676,1,2,1:2:0:0:
427,129,24847,1,8,0:0:0:0:
359,192,25019,1,0,1:0:0:0:
241,143,25190,6,0,P|279:213|268:272,1,135.000005149842,2|10,1:2|0:0,0:0:0:0:
197,384,25705,2,0,P|182:355|187:317,1,67.5000025749208,2|8,0:0|0:0,0:0:0:0:
90,308,26047,1,2,1:2:0:0:
90,308,26219,2,0,P|50:316|22:326,1,67.5000025749208,8|0,0:0|1:0,0:0:0:0:
138,227,26562,1,10,0:0:0:0:
145,233,26905,5,10,0:0:0:0:
226,216,27076,1,2,1:2:0:0:
269,137,27247,1,8,0:0:0:0:
253,49,27419,1,2,1:2:0:0:
183,2,27590,1,8,0:0:0:0:
100,21,27762,1,0,1:0:0:0:
0,63,27933,6,0,B|20:78|31:104|31:104|71:110|115:126,1,135.000005149842,6|10,1:2|0:0,0:0:0:0:
226,196,28447,2,0,P|273:175|316:170,1,67.5000025749208,2|8,0:0|0:0,0:0:0:0:
205,102,28790,1,2,1:2:0:0:
205,102,28962,2,0,P|222:67|208:30,1,67.5000025749208,8|0,0:0|1:0,0:0:0:0:
139,218,29305,1,10,0:0:0:0:
134,208,29647,5,10,0:0:0:0:
55,230,29819,1,2,1:2:0:0:
0,296,29990,1,8,0:0:0:0:
81,314,30162,1,2,1:2:0:0:
160,290,30333,1,8,0:0:0:0:
219,228,30505,1,0,1:0:0:0:
313,376,30676,6,0,B|322:332|322:332|350:304|350:304|361:227,1,135.000005149842,10|10,0:0|0:0,0:0:0:0:
467,213,31190,2,0,P|480:258|502:300,1,67.5000025749208,2|8,0:0|0:0,0:0:0:0:
328,136,31533,1,2,1:2:0:0:
328,136,31705,2,0,B|299:155|299:155|237:141,1,67.5000025749208,8|0,0:0|1:0,0:0:0:0:
499,90,32047,5,6,1:2:0:0:
290,6,32219,1,0,1:0:0:0:
511,109,32390,1,10,0:0:0:0:
374,309,32562,2,2,B|249:271|249:271|224:314|182:316,1,198.000006042481,6|0,1:2|1:0,0:1:0:0:
36,205,33076,5,10,0:0:0:0:
48,170,33162,1,10,0:0:0:0:
84,137,33247,1,10,0:0:0:0:
135,131,33333,1,10,0:0:0:0:
190,155,33419,6,0,B|216:58|147:100|179:-18,1,161.999995056153,6|10,1:2|0:0,0:0:0:0:
377,173,33933,2,0,P|312:187|267:213,1,80.9999975280763,2|0,0:1|1:0,0:0:0:0:
428,58,34276,1,2,1:0:0:0:
319,6,34447,2,0,P|292:65|319:87,1,80.9999975280763,10|0,0:1|0:0,0:0:0:0:
380,333,34790,5,2,1:2:0:0:
480,146,34962,1,0,1:0:0:0:
295,211,35133,1,10,0:0:0:0:
505,293,35305,2,0,B|517:322|517:322|511:356|463:368,1,80.9999975280763,2|0,1:0|0:0,0:0:0:0:
402,204,35647,1,2,1:0:0:0:
246,309,35819,2,0,B|176:332|176:332|153:303|120:291,1,121.499996292114,10|0,0:1|0:0,0:0:0:0:
59,282,36162,6,0,B|151:286|101:225|211:223,1,161.999995056153,2|10,1:2|0:0,0:0:0:0:
20,67,36676,2,0,P|13:108|-3:161,1,80.9999975280763,2|0,0:1|1:0,0:0:0:0:
156,8,37019,1,2,1:0:0:0:
229,93,37190,2,0,P|189:119|147:108,1,80.9999975280763,10|0,0:1|0:0,0:0:0:0:
20,351,37533,5,2,1:2:0:0:
217,207,37705,1,0,1:0:0:0:
44,249,37876,1,8,0:0:0:0:
240,380,38047,2,0,P|229:340|222:301,1,80.9999975280763,2|0,1:0|0:0,0:0:0:0:
326,141,38390,1,2,1:0:0:0:
490,252,38562,2,0,B|472:227|446:211|446:211|499:144,1,121.499996292114,10|0,0:1|0:0,0:0:0:0:
512,241,38905,6,0,B|456:260|456:260|418:253|418:253|338:285,1,161.999995056153,2|10,1:2|0:0,0:0:0:0:
147,170,39419,2,0,B|178:194|178:194|234:184,1,80.9999975280763,2|0,0:1|1:0,0:0:0:0:
386,149,39762,1,2,1:0:0:0:
250,304,39933,2,0,P|240:343|234:383,1,80.9999975280763,10|0,0:1|0:0,0:0:0:0:
209,103,40276,5,2,1:2:0:0:
358,250,40447,1,0,1:0:0:0:
206,75,40619,1,10,0:0:0:0:
67,275,40790,2,0,P|25:282|-13:297,1,80.9999975280763,8|0,0:3|1:0,0:0:0:0:
199,199,41133,1,4,0:3:0:0:
120,29,41305,2,0,P|77:73|8:41,1,121.499996292114,0|0,1:0|0:0,0:0:0:0:
0,43,41647,6,0,B|23:129|50:78|62:179,1,135.000005149842,4|2,1:2|1:2,0:0:0:0:
120,384,42333,2,0,B|129:300|156:351|179:265,1,135.000005149842,10|0,0:0|0:0,0:0:0:0:
347,12,43019,6,0,B|332:49|332:49|224:71,1,135.000005149842,2|2,1:2|1:2,0:0:0:0:
426,116,43533,2,0,P|479:131|518:151,1,67.5000025749208,2|8,0:0|0:0,0:0:0:0:
321,159,43876,1,2,0:0:0:0:
321,159,44047,2,0,B|340:201|340:201|370:221|370:221|386:278,1,135.000005149842,0|0,1:0|1:0,0:0:0:0:
501,120,44733,6,0,P|451:78|466:16,2,135.000005149842,2|10|2,1:2|0:0|0:0,0:0:0:0:
300,202,45762,2,0,B|276:194|248:182|248:182|219:232|164:219,1,135.000005149842,2|2,1:2|1:2,0:0:0:0:
369,275,46276,1,10,0:0:0:0:
369,275,46362,1,8,0:0:0:0:
369,275,46447,1,8,0:0:0:0:
219,97,46619,1,10,0:0:0:0:
390,162,46790,1,8,0:3:0:0:
161,309,46962,1,4,0:3:0:0:
434,384,47133,6,0,B|443:300|470:351|493:265,1,135.000005149842,4|2,1:2|1:2,0:0:0:0:
440,17,47819,2,0,B|433:38|420:58|420:58|441:119|504:117,1,135.000005149842,10|0,0:0|0:0,0:0:0:0:
253,236,48505,6,0,B|290:245|290:245|312:224|312:224|378:205,1,135.000005149842,2|2,1:2|1:2,0:0:0:0:
254,46,49019,2,0,P|298:60|342:63,1,67.5000025749208,2|8,0:0|0:0,0:0:0:0:
161,186,49362,1,2,0:0:0:0:
161,186,49533,2,0,P|151:140|131:101,1,67.5000025749208,0|0,1:0|0:0,0:0:0:0:
250,367,49876,6,0,B|295:366|309:314|309:314|291:289|292:268,1,135,6|0,1:2|0:0,0:0:0:0:
367,214,50219,2,0,P|407:244|456:227,1,90,10|2,0:0|0:0,0:0:0:0:
193,301,50562,1,0,1:0:0:0:
391,123,50733,1,2,1:2:0:0:
126,15,50905,2,0,B|147:106|173:40|192:149,1,135,8|0,0:0|0:0,0:0:0:0:
280,93,51247,6,0,P|301:53|334:24,1,58.4999973220826,10|0,1:2|0:0,0:0:0:0:
100,184,51419,6,0,P|55:185|13:171,1,58.4999973220826,8|0,1:3|0:0,0:0:0:0:
280,301,51591,6,0,P|303:339|311:382,1,58.4999973220826,4|0,1:3|0:0,0:0:0:0:
0,216,52619,6,0,B|28:218|49:226|49:226|73:207|100:193,1,99.0000030212403,6|0,1:2|0:0,0:0:0:0:
240,31,52962,2,0,P|186:26|122:4,1,99.0000030212403,8|0,0:0|0:0,0:0:0:0:
296,189,53305,1,2,1:2:0:0:
109,110,53476,1,0,1:0:0:0:
339,49,53647,1,8,0:0:0:0:
209,268,53819,1,0,3:0:0:0:
209,268,53905,1,0,3:0:0:0:
209,268,53990,6,0,B|338:231|338:231|356:272|401:289,1,198.000006042481,2|10,1:2|0:0,0:0:0:0:
203,118,54505,2,0,B|117:68|142:143|40:79,1,148.50000453186,2|0,1:2|0:0,0:0:0:0:
6,148,54847,1,2,1:2:0:0:
181,19,55019,1,8,0:0:0:0:
120,289,55190,1,0,3:0:0:0:
120,289,55276,1,0,3:0:0:0:
120,289,55362,6,0,P|138:243|147:194,1,99.0000030212403,2|0,1:2|0:0,0:0:0:0:
390,94,55705,2,0,P|433:137|426:185,1,99.0000030212403,8|0,0:0|0:0,0:0:0:0:
312,378,56047,1,2,1:2:0:0:
512,259,56219,1,0,1:0:0:0:
290,195,56390,1,8,0:0:0:0:
450,370,56562,1,0,3:0:0:0:
450,370,56647,1,0,3:0:0:0:
450,370,56733,6,0,B|401:247|401:247|433:213|438:168,1,198.000006042481,2|10,1:2|0:0,0:0:0:0:
213,104,57247,2,0,B|241:90|264:85|264:85|282:54|282:54|319:55|369:19,1,148.50000453186,2|0,1:2|0:0,0:0:0:0:
409,9,57590,1,2,1:2:0:0:
276,223,57762,1,8,0:0:0:0:
500,127,57933,1,8,0:3:0:0:
232,22,58105,6,0,P|287:41|361:53,1,99.0000030212403,6|0,1:2|0:0,0:0:0:0:
160,202,58447,2,0,P|151:154|136:107,1,99.0000030212403,10|0,0:0|0:0,0:0:0:0:
366,185,58790,2,0,P|328:216|294:253,1,99.0000030212403,2|0,1:2|1:0,0:0:0:0:
70,54,59133,2,0,B|78:178|133:93|138:276,2,198.000006042481,10|0|10,0:0|1:0|0:0,0:0:0:0:
246,160,59990,2,0,P|222:117|237:71,1,99.0000030212403,0|0,1:0|0:0,0:0:0:0:
3,232,60333,1,0,1:0:0:0:
123,375,60505,2,0,B|133:334|183:325|183:325|214:364|266:335,1,148.50000453186,10|0,0:0|0:0,0:0:0:0:
346,374,60847,6,0,P|337:334|312:258,1,99.0000030212403,2|0,1:2|0:0,0:0:0:0:
497,127,61190,2,0,P|520:169|505:215,1,99.0000030212403,10|0,0:0|0:0,0:0:0:0:
478,244,61447,1,8,0:0:0:0:
478,244,61533,1,2,1:2:0:0:
320,60,61705,1,0,1:0:0:0:
177,227,61876,2,0,P|191:179|203:131,1,99.0000030212403,8|0,0:0|0:0,0:0:0:0:
334,260,62219,5,2,1:2:0:0:
119,63,62390,1,8,0:0:0:0:
119,63,62476,1,8,0:0:0:0:
119,63,62562,1,8,1:2:0:0:
377,153,62733,1,8,0:0:0:0:
377,153,62819,1,8,0:0:0:0:
377,153,62905,1,8,1:2:0:0:
88,362,63076,1,8,0:0:0:0:
88,362,63162,1,8,0:0:0:0:
88,362,63247,1,8,1:2:0:0:
34,348,63333,1,8,0:0:0:0:
2,303,63419,1,8,0:0:0:0:
3,247,63505,1,8,0:0:0:0:
40,209,63590,6,0,P|115:224|162:241,1,99.0000030212403,6|0,1:2|0:0,0:0:0:0:
284,23,63933,2,0,B|303:52|303:52|295:94|248:115,1,99.0000030212403,8|0,0:0|0:0,0:0:0:0:
349,292,64276,1,0,1:0:0:0:
162,113,64447,1,0,1:0:0:0:
386,197,64619,1,8,0:0:0:0:
193,384,64790,1,0,3:0:0:0:
193,384,64876,1,0,3:0:0:0:
193,384,64962,6,0,B|183:247|146:336|123:199,1,198.000006042481,2|10,1:2|0:0,0:0:0:0:
358,272,65476,2,0,B|384:280|403:299|403:299|527:250,1,148.50000453186,2|0,1:2|0:0,0:0:0:0:
512,190,65819,1,2,1:2:0:0:
333,361,65990,1,8,0:0:0:0:
460,124,66162,1,0,3:0:0:0:
460,124,66247,1,0,3:0:0:0:
460,124,66333,6,0,B|433:113|433:113|408:78|446:27,1,99.0000030212403,2|0,1:2|0:0,0:0:0:0:
257,242,66676,2,0,P|205:253|144:282,1,99.0000030212403,8|0,0:0|0:0,0:0:0:0:
18,92,67019,1,2,1:2:0:0:
201,167,67190,1,0,1:0:0:0:
0,267,67362,1,8,0:0:0:0:
131,38,67533,1,0,3:0:0:0:
131,38,67619,1,0,3:0:0:0:
131,38,67705,6,0,B|175:-6|242:3|242:3|255:56|320:62,1,198.000006042481,2|8,1:2|0:0,0:0:0:0:
385,264,68219,2,0,P|405:167|433:100,1,148.50000453186,2|0,1:2|0:0,0:0:0:0:
398,47,68562,1,2,1:2:0:0:
235,139,68733,1,8,0:0:0:0:
493,221,68905,1,8,0:3:0:0:
211,122,69076,6,0,P|234:185|238:237,1,99.0000030212403,6|0,1:2|0:0,0:0:0:0:
325,12,69419,2,0,P|376:55|405:98,1,99.0000030212403,10|0,0:0|0:0,0:0:0:0:
48,180,69762,2,0,P|65:133|71:84,1,99.0000030212403,2|0,1:2|1:0,0:0:0:0:
361,300,70105,2,0,B|326:308|296:291|296:291|227:294|208:371,1,175.499991966248,10|0,0:0|0:0,0:0:0:0:
303,384,70447,6,0,B|292:267|251:347|236:189,1,175.499991966248,0|0,1:0|0:0,0:0:0:0:
281,158,70790,1,10,0:0:0:0:
139,253,70962,1,0,1:0:0:0:
253,26,71133,2,0,P|326:48|374:55,1,99.0000030212403,2|0,0:0|1:0,0:0:0:0:
149,112,71476,1,8,0:0:0:0:
437,235,71647,1,0,3:0:0:0:
437,235,71733,1,0,3:0:0:0:
437,235,71819,6,0,P|458:199|433:128,1,99.0000030212403,2|0,1:2|0:0,0:0:0:0:
278,266,72162,2,0,B|247:275|247:275|210:264|210:264|106:301,1,148.50000453186,10|0,0:0|0:0,0:0:0:0:
73,247,72505,1,2,1:2:0:0:
251,365,72676,1,0,1:0:0:0:
157,128,72847,1,8,0:0:0:0:
165,104,73190,5,2,1:2:0:0:
0,303,73362,1,0,1:0:0:0:
241,190,73533,1,8,0:0:0:0:
29,129,73705,1,8,0:3:0:0:
29,129,73790,1,8,0:0:0:0:
29,129,73876,5,10,1:2:0:0:
258,284,74047,1,8,0:3:0:0:
509,178,74219,5,10,1:2:0:0:
252,315,74390,1,4,0:3:0:0:
173,47,74562,6,0,B|157:167|122:89|95:230,1,202.500007724762,6|0,1:2|0:0,0:0:0:0:
147,352,75247,2,0,P|185:291|317:276,1,202.500007724762,2|0,0:0|0:0,0:0:0:0:
392,341,75933,5,6,1:2:0:0:
484,48,76276,6,0,P|429:66|390:71,1,67.5000025749208,2|0,0:0|0:0,0:0:0:0:
502,63,76790,5,10,0:0:0:0:
297,14,76962,2,0,B|307:86|332:141|332:141|365:156|386:190,1,198.000006042481,8|6,0:0|1:2,0:0:0:0:
256,192,77390,12,4,80047,1:0:0:0:
147,197,88276,6,0,B|43:230|43:230|57:200|43:158,1,161.999995056153,6|10,1:2|0:0,0:0:0:0:
188,23,88790,2,0,B|220:48|220:48|271:34,1,80.9999975280763,2|0,0:1|1:0,0:0:0:0:
93,82,89133,1,2,1:0:0:0:
274,141,89305,2,0,P|255:200|247:254,1,80.9999975280763,10|0,0:1|0:0,0:0:0:0:
73,360,89647,5,2,1:2:0:0:
146,186,89819,1,0,1:0:0:0:
0,268,89990,1,10,0:0:0:0:
213,360,90162,2,0,P|247:333|292:339,1,80.9999975280763,2|0,1:0|0:0,0:0:0:0:
359,171,90505,1,2,1:0:0:0:
507,226,90676,2,0,P|444:240|378:268,1,121.499996292114,10|0,0:1|0:0,0:0:0:0:
310,233,91019,6,0,B|301:127|343:189|332:72,1,161.999995056153,2|10,1:2|0:0,0:0:0:0:
488,0,91533,2,0,P|505:60|526:99,1,80.9999975280763,2|0,0:1|1:0,0:0:0:0:
482,246,91876,1,2,1:0:0:0:
350,151,92047,2,0,P|384:174|449:154,1,80.9999975280763,10|0,0:1|0:0,0:0:0:0:
241,247,92390,5,2,1:2:0:0:
74,118,92562,1,0,1:0:0:0:
242,61,92733,1,8,0:0:0:0:
84,257,92905,2,0,P|23:241|-27:237,1,80.9999975280763,2|0,1:0|0:0,0:0:0:0:
182,171,93247,1,2,1:0:0:0:
51,46,93419,2,0,B|25:73|25:73|28:126|84:145,1,121.499996292114,10|0,0:1|0:0,0:0:0:0:
142,72,93762,6,0,B|185:84|217:55|217:55|219:45|219:45|249:19|305:30,1,161.999995056153,2|10,1:2|0:0,0:0:0:0:
384,211,94276,2,0,P|357:273|351:312,1,80.9999975280763,2|0,0:1|1:0,0:0:0:0:
229,167,94619,1,2,1:0:0:0:
393,94,94790,2,0,P|347:120|306:98,1,80.9999975280763,10|0,0:1|0:0,0:0:0:0:
169,299,95133,5,2,1:2:0:0:
307,371,95305,1,0,1:0:0:0:
222,188,95476,1,8,0:0:0:0:
47,363,95647,2,0,P|72:329|53:275,1,80.9999975280763,2|0,1:0|0:0,0:0:0:0:
272,252,95990,1,2,1:0:0:0:
154,139,96162,2,0,P|170:195|182:265,1,121.499996292114,10|0,0:1|0:0,0:0:0:0:
230,342,96505,6,0,P|282:281|384:311,1,161.999995056153,2|10,1:2|0:0,0:0:0:0:
434,58,97019,2,0,P|376:45|331:28,1,80.9999975280763,2|0,0:1|1:0,0:0:0:0:
476,201,97362,1,2,1:0:0:0:
245,121,97533,2,0,P|284:148|329:138,1,80.9999975280763,10|0,0:1|0:0,0:0:0:0:
512,298,97876,5,6,1:2:0:0:
442,40,98047,1,0,1:0:0:0:
242,228,98219,1,10,0:0:0:0:
447,124,98390,2,2,B|461:156|461:156|441:242|405:177|378:294,1,198.000006042481,6|0,1:2|1:0,0:1:0:0:
194,384,98905,5,10,0:0:0:0:
180,343,98990,1,10,0:0:0:0:
143,309,99076,1,10,0:0:0:0:
89,306,99162,1,10,0:0:0:0:
41,341,99247,1,6,1:2:0:0:
291,59,99590,6,0,P|300:107|319:155,1,80.9999975280763,10|2,0:0|0:1,0:0:0:0:
207,16,99933,1,0,1:0:0:0:
402,97,100105,1,2,1:0:0:0:
242,211,100276,2,0,B|158:183|180:253|56:227,1,161.999995056153,10|2,0:1|1:2,0:0:0:0:
219,305,100790,5,0,1:0:0:0:
18,169,100962,1,10,0:0:0:0:
196,105,101133,2,0,P|156:98|117:87,1,80.9999975280763,2|0,1:0|0:0,0:0:0:0:
21,300,101476,1,2,1:0:0:0:
171,200,101647,2,0,P|197:238|184:279,1,80.9999975280763,10|0,0:1|0:0,0:0:0:0:
382,383,101990,6,0,P|317:319|352:231,1,161.999995056153,2|10,1:2|0:0,0:0:0:0:
486,132,102505,1,2,0:1:0:0:
414,2,102676,2,0,P|360:15|328:31,1,80.9999975280763,0|2,1:0|1:0,0:0:0:0:
432,237,103019,2,0,B|452:218|487:215|487:215|525:166|505:112,1,161.999995056153,10|2,0:1|1:2,0:0:0:0:
210,208,103533,5,0,1:0:0:0:
383,145,103705,1,8,0:0:0:0:
222,21,103876,2,0,P|237:58|245:97,1,80.9999975280763,2|0,1:0|0:0,0:0:0:0:
181,318,104219,1,2,1:0:0:0:
13,213,104390,2,0,B|45:235|45:235|103:221,1,80.9999975280763,10|0,0:1|0:0,0:0:0:0:
344,317,104733,6,0,B|312:339|312:339|265:329|265:329|165:368,1,161.999995056153,2|10,1:2|0:0,0:0:0:0:
310,217,105247,1,2,0:1:0:0:
128,101,105419,2,0,P|178:117|213:120,1,80.9999975280763,0|2,1:0|1:0,0:0:0:0:
26,279,105762,2,0,B|134:270|72:230|194:232,1,161.999995056153,10|2,0:1|1:2,0:0:0:0:
391,153,106276,5,0,1:0:0:0:
293,46,106447,1,10,0:0:0:0:
494,157,106619,2,0,P|499:116|512:78,1,80.9999975280763,8|0,0:3|1:0,0:0:0:0:
269,298,106962,1,4,0:3:0:0:
497,252,107133,1,0,1:0:0:0:
503,270,107476,6,0,B|418:298|418:298|449:308|464:337,1,135.000005149842,4|2,1:2|1:2,0:0:0:0:
259,141,108162,2,0,B|344:169|344:169|313:179|298:208,1,135.000005149842,10|0,0:0|0:0,0:0:0:0:
69,342,108847,6,0,B|104:355|125:365|125:365|147:340|200:307,1,135.000005149842,2|2,1:2|1:2,0:0:0:0:
65,221,109362,2,0,P|30:228|-15:245,1,67.5000025749208,2|8,0:0|0:0,0:0:0:0:
173,224,109705,1,2,0:0:0:0:
173,224,109876,2,0,B|158:127|133:193|108:83,1,135.000005149842,0|0,1:0|1:0,0:0:0:0:
297,0,110562,6,0,B|279:40|279:40|240:55|240:55|206:123,2,135.000005149842,2|10|2,1:2|0:0|0:0,0:0:0:0:
346,183,111590,2,0,P|418:198|495:221,1,135.000005149842,2|2,1:2|1:2,0:0:0:0:
323,277,112105,1,10,0:0:0:0:
323,277,112190,1,8,0:0:0:0:
323,277,112276,1,8,0:0:0:0:
456,107,112447,1,10,0:0:0:0:
236,183,112619,1,8,0:3:0:0:
469,302,112790,1,4,0:3:0:0:
224,384,112962,6,0,P|179:341|89:365,1,135.000005149842,4|2,1:2|1:2,0:0:0:0:
244,155,113647,2,0,B|268:160|287:172|287:172|346:156|356:104,1,135.000005149842,10|0,0:0|0:0,0:0:0:0:
75,27,114333,6,0,P|102:95|120:165,1,135.000005149842,2|2,1:2|1:2,0:0:0:0:
232,4,114847,2,0,P|208:45|196:83,1,67.5000025749208,2|8,0:0|0:0,0:0:0:0:
30,239,115190,1,2,0:0:0:0:
30,239,115362,2,0,P|11:215|20:169,1,67.5000025749208,0|0,1:0|0:0,0:0:0:0:
307,125,115705,6,0,B|307:160|283:186|283:186|244:179|197:206,1,135,6|0,1:2|0:0,0:0:0:0:
294,271,116047,2,0,P|342:280|396:303,1,90,10|2,0:0|0:0,0:0:0:0:
208,94,116390,1,0,1:0:0:0:
419,195,116562,1,2,1:2:0:0:
171,377,116733,2,0,B|168:289|131:355|117:232,1,135,8|0,0:0|0:0,0:0:0:0:
67,158,117076,6,0,P|104:162|134:173,1,58.4999973220826,10|0,1:2|0:0,0:0:0:0:
231,10,117247,6,0,P|246:44|251:75,1,58.4999973220826,8|0,1:3|0:0,0:0:0:0:
463,62,117419,6,0,P|441:92|416:112,1,58.4999973220826,4|0,1:3|0:0,0:0:0:0:
501,307,118447,6,0,P|405:270|332:257,1,148.50000453186,6|0,1:2|0:0,0:0:0:0:
285,200,118790,2,0,P|261:151|285:107,1,99.0000030212403,8|0,0:0|0:0,0:0:0:0:
176,264,119133,1,2,1:2:0:0:
385,142,119305,1,0,1:0:0:0:
216,17,119476,2,0,P|147:39|78:47,1,99.0000030212403,8|0,0:0|0:0,0:0:0:0:
30,33,119733,1,8,0:0:0:0:
30,33,119819,6,0,B|39:137|76:57|88:192,1,148.50000453186,2|0,1:2|0:0,0:0:0:0:
44,235,120162,1,10,0:0:0:0:
272,135,120333,1,2,1:2:0:0:
281,115,120676,1,2,1:2:0:0:
165,365,120847,2,0,P|222:320|295:335,1,148.50000453186,8|0,0:0|0:0,0:0:0:0:
373,369,121190,6,0,B|400:309|418:246|418:246|383:216|371:166,1,198.000006042481,2|8,1:2|0:0,0:0:0:0:
156,84,121705,1,0,3:0:0:0:
156,84,121790,1,0,3:0:0:0:
156,84,121876,1,2,1:2:0:0:
374,0,122047,1,0,1:0:0:0:
229,232,122219,2,0,P|248:184|264:124,1,99.0000030212403,8|0,0:0|0:0,0:0:0:0:
482,58,122562,6,0,P|405:119|440:192,1,148.50000453186,2|0,1:2|0:0,0:0:0:0:
451,226,122905,1,10,0:0:0:0:
287,58,123076,1,2,1:2:0:0:
267,49,123419,1,2,1:2:0:0:
500,142,123590,1,8,0:0:0:0:
316,336,123762,1,8,0:3:0:0:
316,336,123847,1,8,0:3:0:0:
316,336,123933,6,0,P|390:359|435:381,1,99.0000030212403,6|0,1:2|0:0,0:0:0:0:
290,142,124276,2,0,P|271:187|258:235,1,99.0000030212403,10|0,0:0|0:0,0:0:0:0:
483,114,124619,2,0,P|435:100|389:82,1,99.0000030212403,2|0,1:2|1:0,0:0:0:0:
98,210,124962,1,10,0:0:0:0:
85,187,125305,6,0,B|220:159|137:230|275:218,1,198.000006042481,0|10,1:0|0:0,0:0:0:0:
183,11,125819,2,0,P|96:29|43:29,1,99.0000030212403,0|0,1:0|0:0,0:0:0:0:
247,118,126162,1,0,1:0:0:0:
3,225,126333,1,10,0:0:0:0:
189,363,126505,1,0,3:0:0:0:
189,363,126590,1,0,3:0:0:0:
189,363,126676,6,0,P|169:293|156:216,1,148.50000453186,2|0,1:2|0:0,0:0:0:0:
108,138,127019,2,0,P|62:146|20:116,1,99.0000030212403,10|0,0:0|0:0,0:0:0:0:
7,81,127276,1,8,0:0:0:0:
7,81,127362,1,2,1:2:0:0:
231,142,127533,1,0,1:0:0:0:
62,352,127705,2,0,P|114:364|164:384,1,99.0000030212403,8|0,0:0|0:0,0:0:0:0:
392,225,128047,5,2,1:2:0:0:
129,265,128219,1,8,0:0:0:0:
129,265,128305,1,8,0:0:0:0:
129,265,128390,1,8,1:2:0:0:
394,354,128562,1,8,0:0:0:0:
394,354,128647,1,8,0:0:0:0:
394,354,128733,1,8,1:2:0:0:
242,63,128905,1,8,0:0:0:0:
242,63,128990,1,8,0:0:0:0:
242,63,129076,1,8,1:2:0:0:
284,94,129162,1,8,0:0:0:0:
338,89,129247,1,8,0:0:0:0:
382,56,129333,1,8,0:0:0:0:
396,5,129419,6,0,B|420:44|420:44|407:90|407:90|434:96|468:144,1,148.50000453186,6|0,1:2|0:0,0:0:0:0:
505,211,129762,2,0,P|432:232|388:253,1,99.0000030212403,8|0,0:0|0:0,0:0:0:0:
195,188,130105,1,0,1:0:0:0:
418,348,130276,1,0,1:0:0:0:
325,133,130447,2,0,P|306:179|294:227,1,99.0000030212403,8|0,0:0|0:0,0:0:0:0:
290,316,130705,1,8,0:0:0:0:
290,316,130790,6,0,B|383:306|329:264|432:264,1,148.50000453186,2|0,1:2|0:0,0:0:0:0:
449,191,131133,1,10,0:0:0:0:
206,278,131305,1,2,1:2:0:0:
196,299,131647,1,2,1:2:0:0:
283,48,131819,2,0,P|215:98|134:63,1,148.50000453186,8|0,0:0|0:0,0:0:0:0:
74,37,132162,6,0,B|34:108|72:167|72:167|113:175|146:210,1,198.000006042481,2|8,1:2|0:0,0:0:0:0:
378,101,132676,1,0,3:0:0:0:
378,101,132762,1,0,3:0:0:0:
378,101,132847,1,2,1:2:0:0:
200,0,133019,1,0,1:0:0:0:
331,213,133190,2,0,P|309:257|298:305,1,99.0000030212403,8|0,0:0|0:0,0:0:0:0:
204,93,133533,6,0,B|109:106|153:58|59:70,1,148.50000453186,2|0,1:2|0:0,0:0:0:0:
0,120,133876,1,8,0:0:0:0:
239,178,134047,1,2,1:2:0:0:
257,163,134391,1,2,1:2:0:0:
19,334,134562,1,8,0:0:0:0:
123,176,134733,1,8,0:3:0:0:
123,176,134819,1,8,0:3:0:0:
123,176,134905,6,0,P|145:220|156:268,1,99.0000030212403,6|0,1:2|0:0,0:0:0:0:
379,382,135247,2,0,P|357:338|346:290,1,99.0000030212403,10|0,0:0|0:0,0:0:0:0:
459,58,135590,2,0,P|481:102|492:150,1,99.0000030212403,2|0,1:2|1:0,0:0:0:0:
192,0,135933,2,0,P|182:83|296:121,1,175.499991966248,10|0,0:0|0:0,0:0:0:0:
322,75,136276,6,0,B|293:190|258:109|235:257,1,175.499991966248,0|0,1:0|0:0,0:0:0:0:
190,284,136619,1,10,0:0:0:0:
373,182,136790,1,0,1:0:0:0:
143,105,136962,2,0,P|165:61|176:13,1,99.0000030212403,2|0,0:0|1:0,0:0:0:0:
277,151,137305,1,8,0:0:0:0:
20,271,137476,1,0,3:0:0:0:
20,271,137562,1,0,3:0:0:0:
20,271,137647,6,0,P|64:236|120:251,1,99.0000030212403,2|0,1:2|0:0,0:0:0:0:
280,383,137990,2,0,B|305:368|330:366|330:366|359:330|364:272,1,148.50000453186,10|0,0:0|0:0,0:0:0:0:
405,210,138333,1,2,1:2:0:0:
203,306,138505,1,0,1:0:0:0:
303,119,138676,1,8,0:0:0:0:
296,97,139019,5,2,1:2:0:0:
474,266,139190,1,0,1:0:0:0:
220,181,139362,1,8,0:0:0:0:
441,68,139533,1,8,0:3:0:0:
441,68,139619,1,8,0:0:0:0:
441,68,139705,5,10,1:2:0:0:
264,276,139876,1,8,0:3:0:0:
16,146,140047,5,10,1:2:0:0:
268,302,140219,1,4,0:3:0:0:
501,185,140390,6,0,B|391:149|391:149|355:197|302:187,1,202.500007724762,6|0,1:2|0:0,0:0:0:0:
184,233,141076,2,0,B|213:80|241:208|271:26,1,202.500007724762,2|0,0:0|0:0,0:0:0:0:
372,7,141762,5,6,1:2:0:0:
40,180,142105,6,0,P|70:166|103:157,1,67.5000025749208,2|0,0:0|0:0,0:0:0:0:
18,166,142619,5,10,0:0:0:0:
176,6,142790,2,2,P|142:52|38:41,1,148.50000453186,8|0,0:0|0:0,0:1:0:0:
1,155,143133,5,6,1:2:0:0:
253,244,143305,1,2,0:0:0:0:
154,146,143476,2,0,P|129:216|117:273,1,107.999996704102,10|2,0:1|0:0,0:0:0:0:
336,121,143819,2,0,P|283:107|233:88,1,107.999996704102,2|2,1:0|1:2,0:0:0:0:
168,331,144162,2,0,P|220:344|270:363,1,107.999996704102,10|2,0:1|0:0,0:0:0:0:
512,210,144505,5,2,1:0:0:0:
341,254,144676,1,2,1:2:0:0:
499,118,144847,1,10,0:1:0:0:
320,18,145019,2,2,B|344:116|371:44|402:171,1,161.999995056153,2|0,1:0|0:0,0:1:0:0:
422,82,145362,1,2,1:0:0:0:
273,166,145533,1,10,0:0:0:0:
501,257,145705,2,2,B|436:244|393:284|393:284|375:278|375:278|314:309|313:382,1,233.999989288331,2|2,0:1|0:0,0:1:0:0:
163,120,146219,6,0,P|110:107|60:88,1,107.999996704102,10|0,0:1|0:0,0:0:0:0:
203,224,146562,1,2,1:0:0:0:
0,165,146733,1,0,1:0:0:0:
210,38,146905,1,10,0:1:0:0:
82,275,147076,1,2,0:1:0:0:
82,275,147162,1,2,0:1:0:0:
82,275,147247,6,0,P|116:325|94:372,1,107.999996704102,2|0,1:0|1:0,0:0:0:0:
307,185,147590,1,10,0:1:0:0:
150,121,147762,1,2,1:2:0:0:
150,121,147847,1,2,0:0:0:0:
150,121,147933,2,0,P|164:154|168:191,1,53.9999983520508,2|2,0:1|0:0,0:0:0:0:
238,280,148105,2,0,P|264:285|288:297,1,53.9999983520508,2|2,1:2|0:0,0:0:0:0:
408,211,148276,2,0,P|455:192|527:181,1,107.999996704102,10|2,0:1|0:3,0:0:0:0:
479,94,148533,1,2,0:3:0:0:
479,94,148619,6,2,P|407:98|364:3,1,161.999995056153,6|0,1:2|0:0,0:1:0:0:
288,8,148962,1,8,0:0:0:0:
99,224,149133,2,0,B|99:161|170:148|170:148|193:167|193:167|226:161,1,175.499991966248,2|0,0:1|0:0,0:0:0:0:
300,197,149476,2,0,P|312:159|343:110,1,53.9999983520508,2|0,1:0|0:0,0:0:0:0:
470,286,149647,2,0,B|483:318|483:318|461:384|391:362,1,107.999996704102,10|2,0:1|0:0,0:0:0:0:
509,210,149990,5,2,1:3:0:0:
465,185,150076,1,2,0:3:0:0:
417,191,150162,1,2,1:3:0:0:
385,227,150247,1,2,0:3:0:0:
376,274,150333,1,8,0:0:0:0:
334,298,150419,1,2,0:3:0:0:
285,291,150505,2,2,B|274:268|240:260|240:260|374:236|306:363|462:327,1,270.000010299683,2|0,1:0|1:0,0:1:0:0:
505,85,151019,2,0,P|444:78|411:118,1,107.999996704102,10|2,0:0|0:0,0:0:0:0:
133,66,151362,5,2,1:3:0:0:
129,38,151476,2,0,P|164:42|219:68,1,71.9999978027344,2|2,0:3|0:3,0:0:0:0:
344,6,151705,2,0,B|313:116|291:31|249:174,1,175.499991966248,10|0,0:1|0:0,0:0:0:0:
206,216,152047,1,2,1:0:0:0:
428,318,152219,1,2,1:2:0:0:
344,161,152390,1,10,0:1:0:0:
177,375,152562,1,2,0:0:0:0:
177,375,152647,1,2,0:0:0:0:
177,375,152733,6,0,P|258:345|309:340,1,107.999996704102,2|0,1:0|1:0,0:0:0:0:
55,140,153076,2,0,P|49:164|30:209,1,53.9999983520508,10|2,0:1|0:0,0:0:0:0:
2,320,153247,1,8,0:0:0:0:
2,320,153333,1,8,0:0:0:0:
2,320,153419,1,10,1:2:0:0:
48,329,153505,1,8,0:0:0:0:
94,315,153590,1,8,0:0:0:0:
125,278,153676,1,8,0:0:0:0:
128,229,153762,1,10,1:2:0:0:
159,192,153847,1,8,0:0:0:0:
204,175,153933,1,8,0:0:0:0:
252,184,154019,1,8,0:0:0:0:
284,220,154105,6,0,P|318:83|342:28,1,161.999995056153,6|0,1:2|0:0,0:0:0:0:
248,4,154447,2,0,P|204:33|141:10,1,107.999996704102,8|2,0:0|0:1,0:0:0:0:
0,232,154790,1,2,1:2:0:0:
198,136,154962,1,2,1:2:0:0:
38,30,155133,2,0,P|60:85|70:142,1,107.999996704102,10|2,0:1|0:0,0:0:0:0:
151,374,155476,5,2,1:2:0:0:
304,227,155647,2,0,B|324:255|324:255|308:312|257:305,1,107.999996704102,2|10,1:0|0:0,0:0:0:0:
93,240,155990,1,2,1:2:0:0:
274,92,156162,2,0,P|323:113|376:124,1,107.999996704102,2|0,0:1|1:0,0:0:0:0:
183,232,156505,2,0,B|300:215|232:282|371:284,1,161.999995056153,10|0,0:1|0:0,0:0:0:0:
414,358,156847,6,0,P|421:304|438:253,1,107.999996704102,2|2,1:0|0:0,0:0:0:0:
512,58,157190,2,0,P|497:122|347:130,1,215.999993408203,10|0,0:0|1:0,0:0:0:0:
214,4,157705,1,0,1:0:0:0:
395,53,157876,2,0,P|341:60|290:77,1,107.999996704102,10|2,0:1|0:0,0:0:0:0:
36,161,158219,5,2,1:3:0:0:
61,179,158305,1,2,0:3:0:0:
92,185,158390,1,2,1:3:0:0:
124,180,158476,1,2,0:3:0:0:
151,162,158562,1,8,0:0:0:0:
170,123,158647,1,2,0:3:0:0:
208,105,158733,1,2,1:3:0:0:
251,106,158819,1,2,0:3:0:0:
287,130,158905,1,2,0:0:0:0:
290,76,158990,1,2,0:2:0:0:
325,34,159076,1,2,1:2:0:0:
378,26,159162,1,2,0:2:0:0:
430,43,159247,2,0,B|444:67|469:88|469:88|423:154|394:254,1,202.500007724762,10|0,0:0|0:0,0:0:0:0:
410,343,159590,6,0,P|496:332|513:277,1,135.000005149842,4|0,1:2|0:0,0:0:0:0:
505,216,159847,1,2,0:1:0:0:
505,216,159933,2,2,B|352:219|473:264|269:262,1,202.500007724762,10|0,0:1|0:0,0:1:0:0:
214,167,160276,2,0,P|264:160|328:144,1,107.999996704102,2|0,1:0|1:0,0:0:0:0:
204,266,160533,1,2,0:1:0:0:
204,266,160619,2,0,P|177:261|150:260,1,53.9999983520508,8|0,0:0|0:0,0:0:0:0:
236,362,160790,2,0,P|267:366|331:382,1,53.9999983520508,2|0,0:1|0:0,0:0:0:0:
223,145,160962,5,2,1:0:0:0:
29,242,161133,2,0,B|13:227|-15:226|-15:226|64:195,1,125.999996154785,2|8,1:0|0:0,0:0:0:0:
304,268,161476,6,2,B|276:232|276:232|238:249|238:249|218:238|170:237,1,135.000005149842,2|0,1:0|1:0,0:1:0:0:
218,119,161905,1,2,0:0:0:0:
218,119,161990,2,0,B|173:156|173:219|173:219|127:249|127:249|97:318|114:385,1,306.000005836487,10|0,0:0|1:0,0:0:0:0:
0,109,162676,6,0,P|29:101|72:86,1,53.9999983520508,10|2,0:1|0:0,0:0:0:0:
304,34,162847,1,2,0:0:0:0:
304,34,162933,1,10,0:0:0:0:
304,34,163019,1,2,1:0:0:0:
73,212,163190,1,2,1:2:0:0:
177,7,163362,2,0,B|194:33|194:33|196:74|154:97,1,107.999996704102,10|0,0:1|0:0,0:0:0:0:
318,354,163705,5,2,1:2:0:0:
355,316,163790,1,2,0:2:0:0:
406,326,163876,1,2,1:2:0:0:
231,197,164047,1,10,0:1:0:0:
438,127,164219,1,8,0:0:0:0:
438,127,164305,1,8,0:0:0:0:
438,127,164390,5,10,1:0:0:0:
204,321,164562,1,8,0:3:0:0:
512,203,164733,5,8,1:0:0:0:
258,21,164905,1,4,0:3:0:0:
343,226,165076,5,4,1:0:0:0:
80,123,176047,6,0,B|92:174|81:278|48:168|33:284|52:340,1,216,6|0,0:0|0:0,0:0:0:0:
195,100,177419,2,0,B|210:150|271:235|245:122|315:216|325:262,1,216,2|0,0:0|0:0,0:0:0:0:
112,45,178790,2,0,B|23:-5|-112:137|26:293|116:150|185:277|185:277|182:132|332:211|374:6|184:-49|133:39,1,863.999973632813,2|6,0:0|0:0,0:0:0:0:
150,139,181876,5,2,0:0:0:0:
357,59,182219,5,2,0:0:0:0:
122,131,182562,5,2,0:0:0:0:
468,225,182905,6,0,P|477:162|502:58,1,135,2|0,0:0|0:0,0:0:0:0:
481,205,183590,6,0,P|416:190|357:311,2,215.999993408203,2|2|0,0:0|0:0|0:0,0:0:0:0:
367,9,185647,6,0,P|294:30|206:45,1,161.999995056153,2|0,0:0|0:0,0:0:0:0:
105,117,186505,2,0,P|140:159|195:154,1,107.999996704102,2|0,0:0|0:0,0:0:0:0:
318,131,187019,2,0,B|288:274|263:172|231:346,1,215.999993408203,2|0,0:0|0:0,0:0:0:0:
45,375,188390,6,0,P|28:312|2:268,1,107.999996704102,2|0,0:0|0:0,0:0:0:0:
0,182,188905,2,0,P|44:136|132:149,1,144,2|0,0:0|0:0,0:0:0:0:
232,364,189419,2,0,L|199:355,6,33.7500012874604,2|2|2|2|2|2|2,0:0|0:0|0:0|0:0|0:0|0:0|0:0,0:0:0:0:
175,251,189762,6,0,P|231:263|288:282,1,99.0000030212403,6|0,1:2|0:0,0:0:0:0:
512,165,190105,2,0,P|475:198|442:235,1,99.0000030212403,10|0,0:0|0:0,0:0:0:0:
425,272,190362,1,8,0:0:0:0:
425,272,190447,1,2,1:2:0:0:
214,168,190619,1,0,1:0:0:0:
302,0,190790,2,0,B|309:28|328:52|328:52|315:87|315:87|331:115|334:153,1,148.50000453186,10|0,0:0|0:0,0:0:0:0:
223,77,191133,6,0,B|362:82|274:29|443:35,1,198.000006042481,0|10,1:0|0:0,0:0:0:0:
508,256,191647,2,0,P|482:221|507:155,1,99.0000030212403,0|0,1:0|0:0,0:0:0:0:
255,290,191990,1,0,1:0:0:0:
433,375,192162,1,10,0:0:0:0:
367,173,192333,1,0,3:0:0:0:
367,173,192419,1,0,3:0:0:0:
367,173,192505,6,0,B|318:149|318:149|286:207|211:181,1,148.50000453186,2|0,1:2|0:0,0:0:0:0:
169,125,192847,2,0,B|162:88|162:88|139:75|139:75|107:13,1,99.0000030212403,10|0,0:0|0:0,0:0:0:0:
132,0,193105,1,8,0:0:0:0:
132,0,193190,1,2,1:2:0:0:
341,58,193362,1,0,1:0:0:0:
141,232,193533,2,0,P|118:291|107:339,1,99.0000030212403,8|0,0:0|0:0,0:0:0:0:
0,121,193876,5,2,1:2:0:0:
271,210,194047,1,8,0:0:0:0:
271,210,194133,1,8,0:0:0:0:
271,210,194219,1,8,1:2:0:0:
25,379,194390,1,8,0:0:0:0:
25,379,194476,1,8,0:0:0:0:
25,379,194562,1,8,1:2:0:0:
144,69,194733,1,8,0:0:0:0:
144,69,194819,1,8,0:0:0:0:
144,69,194905,1,8,1:2:0:0:
181,29,194990,1,8,0:0:0:0:
235,24,195076,1,8,0:0:0:0:
278,57,195162,1,8,0:0:0:0:
291,110,195247,6,0,B|379:75|379:75|412:105|450:96,1,148.50000453186,6|0,1:2|0:0,0:0:0:0:
501,160,195590,2,0,B|488:196|488:196|468:213|468:213|451:257,1,99.0000030212403,8|0,0:0|0:0,0:0:0:0:
296,382,195933,1,0,1:0:0:0:
369,187,196105,1,0,1:0:0:0:
146,244,196276,2,0,P|98:229|50:221,1,99.0000030212403,8|0,0:0|0:0,0:0:0:0:
0,135,196533,1,8,0:0:0:0:
0,135,196619,6,0,P|75:96|66:24,1,148.50000453186,2|0,1:2|0:0,0:0:0:0:
149,6,196962,1,10,0:0:0:0:
250,215,197133,1,2,1:2:0:0:
242,238,197476,1,2,1:2:0:0:
425,22,197647,2,0,P|362:39|260:54,1,148.50000453186,8|0,0:0|0:0,0:0:0:0:
208,113,197990,6,0,B|247:236|266:145|309:291,1,198.000006042481,2|8,1:2|0:0,0:0:0:0:
136,222,198505,1,0,3:0:0:0:
136,222,198590,1,0,3:0:0:0:
136,222,198676,1,2,1:2:0:0:
357,166,198847,1,0,1:0:0:0:
431,378,199019,2,0,P|459:296|488:245,1,99.0000030212403,8|0,0:0|0:0,0:0:0:0:
310,65,199362,6,0,P|366:127|457:89,1,148.50000453186,2|0,1:2|0:0,0:0:0:0:
497,86,199705,1,8,0:0:0:0:
267,182,199876,1,2,1:2:0:0:
240,190,200219,1,2,1:2:0:0:
471,374,200390,1,8,0:0:0:0:
372,232,200562,1,8,0:3:0:0:
372,232,200647,1,8,0:3:0:0:
372,232,200733,6,0,P|419:218|464:198,1,99.0000030212403,6|0,1:2|0:0,0:0:0:0:
250,380,201076,2,0,P|295:359|342:346,1,99.0000030212403,10|0,0:0|0:0,0:0:0:0:
202,117,201419,2,0,P|249:103|294:83,1,99.0000030212403,2|0,1:2|1:0,0:0:0:0:
45,327,201762,2,0,P|76:268|190:273,1,175.499991966248,10|0,0:0|0:0,0:0:0:0:
239,352,202105,6,0,B|264:233|290:321|321:143,1,175.499991966248,0|0,1:0|0:0,0:0:0:0:
369,139,202447,1,10,0:0:0:0:
211,7,202619,1,0,1:0:0:0:
99,208,202790,2,0,P|30:188|-13:185,1,99.0000030212403,2|0,0:0|1:0,0:0:0:0:
260,256,203133,1,8,0:0:0:0:
105,68,203305,1,0,3:0:0:0:
105,68,203390,1,0,3:0:0:0:
105,68,203476,6,0,P|139:102|205:91,1,99.0000030212403,2|0,1:2|0:0,0:0:0:0:
398,0,203819,2,0,B|356:12|356:12|323:56|324:116,1,148.50000453186,10|0,0:0|0:0,0:0:0:0:
356,182,204162,1,2,1:2:0:0:
241,23,204333,1,0,1:0:0:0:
458,102,204505,1,8,0:0:0:0:
479,94,204847,5,2,1:2:0:0:
235,191,205019,1,0,1:0:0:0:
400,23,205190,1,8,0:0:0:0:
339,301,205362,1,0,1:0:0:0:
104,155,205533,1,8,0:0:0:0:
104,155,205619,1,8,0:0:0:0:
104,155,205705,2,0,P|142:143|169:130,1,49.5000015106202,8|4,0:3|0:3,0:0:0:0:
327,210,205876,2,0,B|433:216|372:246|482:254,1,148.50000453186,8|0,1:2|0:0,0:0:0:0:
503,166,206219,6,0,P|506:107|459:78,1,99.0000030212403,6|0,1:2|0:0,0:0:0:0:
269,12,206562,2,0,P|251:60|241:118,1,99.0000030212403,8|0,0:0|0:0,0:0:0:0:
345,331,206905,1,2,1:2:0:0:
391,106,207076,1,0,1:0:0:0:
152,190,207247,1,8,0:0:0:0:
418,242,207419,1,0,3:0:0:0:
418,242,207505,1,0,3:0:0:0:
418,242,207590,6,0,B|354:218|354:218|285:247|226:285,1,198.000006042481,2|10,1:2|0:0,0:0:0:0:
12,371,208105,2,0,P|94:307|75:238,1,148.50000453186,2|0,1:2|0:0,0:0:0:0:
51,204,208447,1,2,1:2:0:0:
206,358,208619,1,8,0:0:0:0:
131,102,208790,1,0,3:0:0:0:
131,102,208876,1,0,3:0:0:0:
131,102,208962,6,0,B|169:131|169:131|228:116,1,99.0000030212403,2|0,1:2|0:0,0:0:0:0:
448,12,209305,2,0,P|401:45|352:23,1,99.0000030212403,8|0,0:0|0:0,0:0:0:0:
223,229,209647,1,2,1:2:0:0:
421,130,209819,1,0,1:0:0:0:
206,29,209990,1,8,0:0:0:0:
379,219,210162,1,0,3:0:0:0:
379,219,210247,1,0,3:0:0:0:
379,219,210333,6,0,B|355:282|355:282|306:313|306:313|282:384,1,198.000006042481,2|10,1:2|0:0,0:0:0:0:
291,133,210847,2,0,B|378:97|378:97|396:124|442:136,1,148.50000453186,2|0,1:2|0:0,0:0:0:0:
483,176,211190,1,2,1:2:0:0:
236,264,211362,1,8,0:0:0:0:
303,21,211533,1,8,0:3:0:0:
82,164,211705,6,0,P|132:206|159:243,1,99.0000030212403,6|0,1:2|0:0,0:0:0:0:
320,107,212047,2,0,P|303:153|297:202,1,99.0000030212403,10|0,0:0|0:0,0:0:0:0:
119,29,212390,2,0,P|167:21|213:3,1,99.0000030212403,2|0,1:2|1:0,0:0:0:0:
290,311,212733,2,0,B|272:293|237:290|237:290|198:263|181:211|206:167,1,198.000006042481,10|0,0:0|1:0,0:0:0:0:
306,330,213419,5,10,0:0:0:0:
119,384,213590,2,0,P|71:356|11:379,1,99.0000030212403,0|0,1:0|0:0,0:0:0:0:
230,242,213933,1,0,1:0:0:0:
67,76,214105,2,0,B|52:173|20:99|0:250,1,148.50000453186,10|0,0:0|0:0,0:0:0:0:
81,266,214447,6,0,P|119:239|109:171,1,99.0000030212403,2|0,1:2|0:0,0:0:0:0:
314,15,214790,2,0,P|247:36|186:48,1,99.0000030212403,10|0,0:0|0:0,0:0:0:0:
179,32,215047,1,8,0:0:0:0:
179,32,215133,1,2,1:2:0:0:
417,101,215305,1,0,1:0:0:0:
311,269,215476,2,0,P|378:248|439:236,1,99.0000030212403,8|0,0:0|0:0,0:0:0:0:
505,40,215819,5,2,1:2:0:0:
250,135,215990,1,8,0:0:0:0:
250,135,216076,1,8,0:0:0:0:
250,135,216162,1,8,1:2:0:0:
512,297,216333,1,8,0:0:0:0:
512,297,216419,1,8,0:0:0:0:
512,297,216505,1,8,1:2:0:0:
349,12,216676,1,8,0:0:0:0:
349,12,216762,1,8,0:0:0:0:
349,12,216847,1,8,1:2:0:0:
322,59,216933,1,8,0:0:0:0:
341,109,217019,1,8,0:0:0:0:
384,141,217105,1,8,0:0:0:0:
437,137,217190,6,0,P|459:42|471:11,1,99.0000030212403,6|0,1:2|0:0,0:0:0:0:
348,277,217533,2,0,P|305:309|243:289,1,99.0000030212403,8|0,0:0|0:0,0:0:0:0:
58,145,217876,1,0,1:0:0:0:
276,199,218047,1,0,1:0:0:0:
103,374,218219,1,8,0:0:0:0:
194,113,218390,1,0,3:0:0:0:
194,113,218476,1,0,3:0:0:0:
194,113,218562,6,0,B|214:133|227:155|227:155|292:175|387:189,1,198.000006042481,2|10,1:2|0:0,0:0:0:0:
206,326,219076,2,0,B|102:314|170:360|34:363,1,148.50000453186,2|0,1:2|0:0,0:0:0:0:
10,305,219419,1,2,1:2:0:0:
278,369,219590,1,8,0:0:0:0:
200,119,219762,1,0,3:0:0:0:
200,119,219847,1,0,3:0:0:0:
200,119,219933,6,0,P|222:175|234:234,1,99.0000030212403,2|0,1:2|0:0,0:0:0:0:
395,21,220276,2,0,P|435:67|420:117,1,99.0000030212403,8|0,0:0|0:0,0:0:0:0:
346,271,220619,1,2,1:2:0:0:
283,48,220790,1,0,1:0:0:0:
446,206,220962,1,8,0:0:0:0:
167,283,221133,1,0,3:0:0:0:
167,283,221219,1,0,3:0:0:0:
167,283,221305,6,0,B|192:214|205:150|205:150|175:126|162:87,1,198.000006042481,2|8,1:2|0:0,0:0:0:0:
394,3,221819,2,0,P|362:82|342:168,1,148.50000453186,2|0,1:2|0:0,0:0:0:0:
360,217,222162,1,2,1:2:0:0:
244,17,222333,1,8,0:0:0:0:
466,102,222505,1,8,0:3:0:0:
233,206,222676,6,0,P|164:220|111:249,1,99.0000030212403,6|0,1:2|0:0,0:0:0:0:
349,16,223019,2,0,P|303:34|254:41,1,99.0000030212403,10|0,0:0|0:0,0:0:0:0:
436,300,223362,2,0,P|367:314|314:343,1,99.0000030212403,2|0,1:2|1:0,0:0:0:0:
20,238,223705,2,0,B|148:228|55:190|236:180,1,175.499991966248,10|0,0:0|0:0,0:0:0:0:
254,265,224047,6,0,B|240:213|221:170|221:170|238:130|283:133,1,175.499991966248,0|0,1:0|0:0,0:0:0:0:
345,179,224390,1,10,0:0:0:0:
257,2,224562,1,0,1:0:0:0:
65,96,224733,2,0,P|83:46|95:2,1,99.0000030212403,2|0,0:0|1:0,0:0:0:0:
279,132,225076,1,8,0:0:0:0:
37,281,225247,1,0,3:0:0:0:
37,281,225333,1,0,3:0:0:0:
37,281,225419,6,0,B|75:249|75:249|129:264,1,99.0000030212403,2|0,1:2|0:0,0:0:0:0:
327,380,225762,2,0,B|339:328|339:328|368:299|368:299|385:247,1,148.50000453186,10|0,0:0|0:0,0:0:0:0:
423,180,226105,1,2,1:2:0:0:
243,336,226276,1,0,1:0:0:0:
472,277,226447,1,8,0:0:0:0:
489,291,226790,5,2,1:2:0:0:
276,136,226962,1,0,1:0:0:0:
393,345,227133,1,8,0:0:0:0:
509,110,227305,1,8,0:3:0:0:
509,110,227390,1,8,0:0:0:0:
509,110,227476,5,10,1:2:0:0:
250,255,227647,1,8,0:3:0:0:
30,51,227819,5,10,1:2:0:0:
245,279,227990,1,4,0:3:0:0:
400,10,228162,6,0,B|409:24|419:46|419:46|384:143|358:52|317:183|317:183,1,202.500007724762,6|0,1:2|0:0,0:0:0:0:
222,107,228847,2,0,P|177:166|52:144,1,202.500007724762,2|0,0:0|0:0,0:0:0:0:
6,262,229533,5,6,1:2:0:0:
311,364,229876,6,0,P|272:350|225:347,1,67.5000025749208,2|0,0:0|0:0,0:0:0:0:
339,346,230390,5,10,0:0:0:0:
132,378,230562,2,0,P|153:283|173:224,1,148.50000453186,8|0,0:0|0:0,0:0:0:0:
101,158,230905,6,0,P|67:181|10:168,1,90,6|0,1:2|0:0,0:0:0:0:
204,11,231247,2,0,P|227:81|242:113,1,90,8|0,0:0|0:0,0:0:0:0:
397,212,231590,1,0,1:0:0:0:
324,31,231762,1,0,1:0:0:0:
191,219,231933,2,0,P|186:266|246:299,1,90,10|0,0:0|0:0,0:0:0:0:
425,126,232276,5,0,1:0:0:0:
501,307,232447,1,0,1:0:0:0:
301,198,232619,1,8,0:0:0:0:
503,70,232790,2,0,B|378:65|470:116|294:112,1,180,0|0,1:0|1:0,0:0:0:0:
74,190,233305,1,8,0:0:0:0:
65,206,233647,6,0,P|131:217|179:238,1,90,2|0,1:2|0:0,0:0:0:0:
297,7,233990,2,0,P|254:20|209:25,1,90,8|0,0:0|0:0,0:0:0:0:
15,101,234333,1,0,1:0:0:0:
244,157,234505,1,0,1:0:0:0:
110,4,234676,2,0,B|95:28|95:28|95:57|130:78,1,90,8|0,0:0|0:0,0:0:0:0:
342,242,235019,5,2,1:2:0:0:
379,39,235190,1,0,1:0:0:0:
232,173,235362,5,10,0:0:0:0:
446,150,235533,1,2,1:2:0:0:
446,150,235619,1,8,0:0:0:0:
446,150,235705,1,8,0:0:0:0:
262,50,235876,1,4,0:3:0:0:
155,316,236047,2,0,B|145:219|120:276|96:169,1,135,10|0,0:0|0:0,0:0:0:0:
150,115,236390,6,0,P|210:135|266:141,1,90,6|0,1:2|0:0,0:0:0:0:
469,267,236733,2,0,P|427:297|372:279,1,90,8|0,0:0|0:0,0:0:0:0:
345,91,237076,1,0,1:0:0:0:
500,174,237247,1,0,1:0:0:0:
272,318,237419,2,0,P|290:249|308:210,1,90,8|0,0:0|0:0,0:0:0:0:
183,31,237762,5,2,1:2:0:0:
403,199,237933,1,0,1:0:0:0:
451,0,238105,1,8,0:0:0:0:
244,148,238276,2,0,B|140:189|140:189|103:153|49:156,1,180,2|0,1:2|1:0,0:0:0:0:
243,351,238790,1,10,0:0:0:0:
247,375,239133,6,0,P|299:327|378:356,1,135,2|0,1:2|0:0,0:0:0:0:
440,371,239476,2,0,P|461:294|473:264,1,90,8|0,0:0|0:0,0:0:0:0:
483,245,239733,1,8,0:0:0:0:
483,245,239819,1,0,1:0:0:0:
363,61,239990,1,0,1:0:0:0:
220,216,240162,2,0,P|262:201|306:191,1,90,8|0,0:0|0:0,0:0:0:0:
167,90,240505,5,0,1:0:0:0:
401,165,240676,1,0,1:0:0:0:
247,15,240847,1,8,0:0:0:0:
135,248,241019,1,8,0:0:0:0:
135,248,241105,1,8,0:0:0:0:
135,248,241190,5,8,1:2:0:0:
349,44,241362,1,8,0:3:0:0:
58,118,241533,5,8,1:2:0:0:
407,316,241705,1,4,0:3:0:0:
186,142,241876,6,0,B|13:71|240:-100|500:-167|788:208|628:332|418:455|316:262|456:255|463:109|317:-57|-12:38|17:276|17:436|237:466|379:387|314:265|255:267,1,1367.99998330078,6|4,1:2|0:0,0:0:0:0:
