osu file format v14

[General]
AudioFilename: audio.mp3
AudioLeadIn: 0
PreviewTime: 183505
Countdown: 0
SampleSet: Soft
StackLeniency: 0.7
Mode: 0
LetterboxInBreaks: 0
EpilepsyWarning: 1
WidescreenStoryboard: 1

[Editor]
Bookmarks: 52619,165076,176047
DistanceSpacing: 0.9
BeatDivisor: 4
GridSize: 4
TimelineZoom: 2.5

[Metadata]
Title:Get the Freedom
TitleUnicode:Get the Freedom
Artist:Kicco
ArtistUnicode:Kicco
Creator:Bellicose
Version:Normal.
Source:ねこツク、さくら。
Tags:Houshou Hari Shikibe Mayu Kazato Asa Shizuku- dahkjdas meis clauson angel note lump of sugar Nekotsuku Sakura kemonomimi eroge video game visual novel vn japanese pop rock opening full version
BeatmapID:3376538
BeatmapSetID:1644227

[Difficulty]
HPDrainRate:4
CircleSize:3.2
OverallDifficulty:4
ApproachRate:5.5
SliderMultiplier:1.1
SliderTickRate:1

[Events]
//Background and Video events
0,0,"bg5.jpg",0,0
//Break Periods
2,80247,87151
2,165276,174922
2,184476,188637
//Storyboard Layer 0 (Background)
//Storyboard Layer 1 (Fail)
//Storyboard Layer 2 (Pass)
//Storyboard Layer 3 (Foreground)
Sprite,Foreground,Centre,"sb\Bellicose.png",320,240 C,0,19704,,255,102,102 F,19,19704,20704,0,1 S,0,19704,22447,0.35,0.4 F,19,21762,22447,1,0
//Storyboard Layer 4 (Overlay)
//Storyboard Sound Samples

[TimingPoints]
505,342.857142857143,4,2,1,40,1,0
505,-111.111111111111,4,2,1,40,0,0
10105,-111.111111111111,4,2,1,40,0,0
10705,-100,4,2,1,5,0,0
10790,-100,4,2,1,50,0,0
11476,-100,4,2,1,70,0,0
16876,-100,4,2,1,5,0,0
16962,-100,4,2,1,70,0,0
22447,-111.111111111111,4,2,1,50,0,0
22790,-111.111111111111,4,2,2,50,0,0
27933,-111.111111111111,4,2,1,50,0,0
28276,-111.111111111111,4,2,2,50,0,0
32047,-100,4,2,1,60,0,0
32562,-100,4,2,1,60,0,0
33419,-105.263157894737,4,2,1,60,0,0
36076,-105.263157894737,4,2,1,5,0,0
36162,-105.263157894737,4,2,1,60,0,0
38819,-105.263157894737,4,2,1,5,0,0
38905,-105.263157894737,4,2,1,60,0,0
41562,-105.263157894737,4,2,1,5,0,0
41647,-111.111111111111,4,2,1,50,0,0
49876,-100,4,2,1,60,0,0
50133,-100,4,2,1,5,0,0
50219,-100,4,2,1,60,0,0
51162,-100,4,2,1,5,0,0
51247,-100,4,2,1,70,0,0
51933,-100,4,2,1,70,0,0
52619,-90.9090909090909,4,2,1,75,0,1
54762,-90.9090909090909,4,2,1,5,0,1
54847,-90.9090909090909,4,2,1,75,0,1
57505,-90.9090909090909,4,2,1,5,0,1
57590,-90.9090909090909,4,2,1,75,0,1
60762,-90.9090909090909,4,2,1,5,0,1
60847,-90.9090909090909,4,2,1,75,0,1
65733,-90.9090909090909,4,2,1,5,0,1
65819,-90.9090909090909,4,2,1,75,0,1
68476,-90.9090909090909,4,2,1,5,0,1
68562,-90.9090909090909,4,2,1,75,0,1
70105,-90.9090909090909,4,2,1,75,0,1
70362,-90.9090909090909,4,2,1,5,0,1
70447,-90.9090909090909,4,2,1,75,0,1
70705,-90.9090909090909,4,2,1,5,0,1
70790,-90.9090909090909,4,2,1,75,0,1
72419,-90.9090909090909,4,2,1,5,0,1
72505,-90.9090909090909,4,2,1,75,0,1
74562,-111.111111111111,4,2,1,70,0,1
76790,-100,4,2,1,70,0,1
77305,-100,4,2,1,70,0,0
88276,-105.263157894737,4,2,1,60,0,0
90933,-105.263157894737,4,2,1,5,0,0
91019,-105.263157894737,4,2,1,60,0,0
93676,-105.263157894737,4,2,1,5,0,0
93762,-105.263157894737,4,2,1,60,0,0
96419,-105.263157894737,4,2,1,5,0,0
96505,-105.263157894737,4,2,1,60,0,0
98390,-105.263157894737,4,2,1,60,0,0
99247,-105.263157894737,4,2,1,60,0,0
107390,-105.263157894737,4,2,1,5,0,0
107476,-111.111111111111,4,2,1,50,0,0
115705,-100,4,2,1,60,0,0
115962,-100,4,2,1,5,0,0
116047,-100,4,2,1,60,0,0
116990,-100,4,2,1,5,0,0
117076,-100,4,2,1,70,0,0
118447,-90.9090909090909,4,2,1,75,0,1
118705,-90.9090909090909,4,2,1,5,0,1
118790,-90.9090909090909,4,2,1,75,0,1
120076,-90.9090909090909,4,2,1,5,0,1
120162,-90.9090909090909,4,2,1,75,0,1
121105,-90.9090909090909,4,2,1,5,0,1
121190,-90.9090909090909,4,2,1,75,0,1
122819,-90.9090909090909,4,2,1,5,0,1
122905,-90.9090909090909,4,2,1,75,0,1
126933,-90.9090909090909,4,2,1,5,0,1
127019,-90.9090909090909,4,2,1,75,0,1
129676,-90.9090909090909,4,2,1,5,0,1
129762,-90.9090909090909,4,2,1,75,0,1
131047,-90.9090909090909,4,2,1,5,0,1
131133,-90.9090909090909,4,2,1,75,0,1
132076,-90.9090909090909,4,2,1,5,0,1
132162,-90.9090909090909,4,2,1,75,0,1
133790,-90.9090909090909,4,2,1,5,0,1
133876,-90.9090909090909,4,2,1,75,0,1
135933,-90.9090909090909,4,2,1,75,0,1
136190,-90.9090909090909,4,2,1,5,0,1
136276,-90.9090909090909,4,2,1,75,0,1
136533,-90.9090909090909,4,2,1,5,0,1
136619,-90.9090909090909,4,2,1,75,0,1
137905,-90.9090909090909,4,2,1,5,0,1
137990,-90.9090909090909,4,2,1,75,0,1
140390,-111.111111111111,4,2,1,70,0,0
142619,-100,4,2,1,70,0,0
143133,-90.9090909090909,4,2,1,75,0,1
145276,-90.9090909090909,4,2,1,5,0,1
145362,-90.9090909090909,4,2,1,75,0,1
145705,-90.9090909090909,4,2,1,75,0,1
146047,-90.9090909090909,4,2,1,75,0,1
148876,-90.9090909090909,4,2,1,5,0,1
148962,-90.9090909090909,4,2,1,75,0,1
149133,-90.9090909090909,4,2,1,75,0,1
149390,-90.9090909090909,4,2,1,5,0,1
149476,-90.9090909090909,4,2,1,75,0,1
149562,-90.9090909090909,4,2,1,5,0,1
149647,-90.9090909090909,4,2,1,75,0,1
150505,-90.9090909090909,4,2,1,75,0,1
150847,-90.9090909090909,4,2,1,75,0,1
151619,-90.9090909090909,4,2,1,5,0,1
151705,-90.9090909090909,4,2,1,75,0,1
152047,-90.9090909090909,4,2,1,75,0,1
154362,-90.9090909090909,4,2,1,5,0,1
154447,-90.9090909090909,4,2,1,75,0,1
156762,-90.9090909090909,4,2,1,5,0,1
156847,-90.9090909090909,4,2,1,75,0,1
159247,-90.9090909090909,4,2,1,75,0,1
159505,-90.9090909090909,4,2,1,5,0,1
159590,-90.9090909090909,4,2,1,75,0,1
159762,-90.9090909090909,4,2,1,75,0,1
159933,-90.9090909090909,4,2,1,75,0,1
160190,-90.9090909090909,4,2,1,5,0,1
160276,-90.9090909090909,4,2,1,75,0,1
161133,-90.9090909090909,4,2,1,75,0,1
161476,-90.9090909090909,4,2,1,75,0,1
161819,-90.9090909090909,4,2,1,75,0,1
162333,-90.9090909090909,4,2,1,75,0,1
165076,-100,4,2,1,75,0,0
176047,-111.111111111111,4,2,2,50,0,0
178790,-111.111111111111,4,2,2,50,0,0
182905,-111.111111111111,4,2,1,50,0,0
183590,-111.111111111111,4,2,1,50,0,0
184276,-111.111111111111,4,2,1,40,0,0
188905,-100,4,2,1,50,0,0
189247,-100,4,2,1,50,0,0
189762,-90.9090909090909,4,2,1,75,0,1
191047,-90.9090909090909,4,2,1,5,0,1
191133,-90.9090909090909,4,2,1,75,0,1
192762,-90.9090909090909,4,2,1,5,0,1
192847,-90.9090909090909,4,2,1,75,0,1
195505,-90.9090909090909,4,2,1,5,0,1
195590,-90.9090909090909,4,2,1,75,0,1
196876,-90.9090909090909,4,2,1,5,0,1
196962,-90.9090909090909,4,2,1,75,0,1
197905,-90.9090909090909,4,2,1,5,0,1
197990,-90.9090909090909,4,2,1,75,0,1
199619,-90.9090909090909,4,2,1,5,0,1
199705,-90.9090909090909,4,2,1,75,0,1
201762,-90.9090909090909,4,2,1,75,0,1
202019,-90.9090909090909,4,2,1,5,0,1
202105,-90.9090909090909,4,2,1,75,0,1
202362,-90.9090909090909,4,2,1,5,0,1
202447,-90.9090909090909,4,2,1,75,0,1
203733,-90.9090909090909,4,2,1,5,0,1
203819,-90.9090909090909,4,2,1,75,0,1
206133,-90.9090909090909,4,2,1,5,0,1
206219,-90.9090909090909,4,2,1,75,0,1
208362,-90.9090909090909,4,2,1,5,0,1
208447,-90.9090909090909,4,2,1,75,0,1
211105,-90.9090909090909,4,2,1,5,0,1
211190,-90.9090909090909,4,2,1,75,0,1
214362,-90.9090909090909,4,2,1,5,0,1
214447,-90.9090909090909,4,2,1,75,0,1
219333,-90.9090909090909,4,2,1,5,0,1
219419,-90.9090909090909,4,2,1,75,0,1
222076,-90.9090909090909,4,2,1,5,0,1
222162,-90.9090909090909,4,2,1,75,0,1
223705,-90.9090909090909,4,2,1,75,0,1
223962,-90.9090909090909,4,2,1,5,0,1
224047,-90.9090909090909,4,2,1,75,0,1
224305,-90.9090909090909,4,2,1,5,0,1
224390,-90.9090909090909,4,2,1,75,0,1
226019,-90.9090909090909,4,2,1,5,0,1
226105,-90.9090909090909,4,2,1,75,0,1
228162,-111.111111111111,4,2,1,70,0,0
230390,-100,4,2,1,70,0,0
230819,-100,4,2,1,5,0,0
230905,-100,4,2,1,70,0,0
236305,-100,4,2,1,5,0,0
236390,-100,4,2,1,70,0,0
239390,-100,4,2,1,5,0,0
239476,-100,4,2,1,70,0,0
241876,-100,4,2,1,70,0,0
241962,-100,4,2,1,5,0,0
248733,-100,4,2,99,5,0,0

[Colours]
Combo1 : 226,143,243
Combo2 : 139,222,254
Combo3 : 253,206,240
Combo4 : 150,166,254

[HitObjects]
107,56,505,6,0,P|186:115|284:91,1,197.99999395752,2|2,0:0|0:0,0:0:0:0:
342,34,1533,1,0,0:0:0:0:
429,50,1876,2,0,P|409:123|395:210,1,148.49999546814,2|2,0:0|0:0,0:0:0:0:
473,240,2733,2,0,P|489:302|459:346,1,98.9999969787599,2|0,0:0|0:0,0:0:0:0:
436,353,3247,6,0,B|316:301|369:396|241:360,1,197.99999395752,2|2,0:0|0:0,0:0:0:0:
159,373,4276,1,0,0:0:0:0:
72,353,4619,2,0,P|54:278|72:251,1,98.9999969787599,2|0,0:0|0:0,0:0:0:0:
91,228,5133,2,0,P|149:211|203:203,1,98.9999969787599,2|2,0:0|0:0,0:0:0:0:
314,245,5990,6,0,P|322:196|337:149,1,98.9999969787599,2|2,0:0|0:0,0:0:0:0:
379,70,6676,1,2,0:0:0:0:
310,12,7019,2,0,P|253:40|215:23,1,98.9999969787599,2|0,0:0|0:0,0:0:0:0:
146,75,7705,2,0,P|57:58|26:56,2,98.9999969787599,2|2|2,0:0|0:0|0:0,0:0:0:0:
129,162,8733,6,0,P|40:145|9:143,2,98.9999969787599,2|2|2,0:0|0:0|0:0,0:0:0:0:
213,133,9762,1,0,0:0:0:0:
265,205,10105,2,0,B|381:216|335:133|445:145,1,197.99999395752,2|2,0:0|0:0,0:0:0:0:
412,340,11476,6,0,P|484:342|510:370,2,110,6|8|0,1:2|0:0|1:0,0:0:0:0:
322,377,12505,1,10,0:0:0:0:
322,377,12676,2,0,P|315:323|299:249,1,110,2|0,0:0|1:0,0:0:0:0:
333,228,13190,2,0,P|345:179|350:166,1,55,8|0,0:0|1:0,0:0:0:0:
307,144,13533,2,0,P|250:172|198:152,1,110,2|8,0:0|0:0,0:0:0:0:
118,116,14219,6,0,P|132:57|151:0,2,110,2|8|0,1:2|0:0|1:0,0:0:0:0:
77,143,15076,1,0,1:0:0:0:
77,143,15247,1,8,0:0:0:0:
8,214,15590,2,0,P|43:254|32:313,1,110,2|10,1:2|0:0,0:0:0:0:
24,355,16105,2,0,P|85:336|140:330,1,110,2|4,1:2|0:3,0:0:0:0:
169,360,16619,1,10,0:0:0:0:
252,306,16962,6,0,P|308:344|357:326,2,110,6|8|0,1:2|0:0|1:0,0:0:0:0:
227,269,17819,1,0,1:0:0:0:
227,269,17990,2,0,P|244:180|257:144,1,110,8|2,0:0|1:2,0:0:0:0:
207,78,18676,1,8,0:0:0:0:
207,78,18847,2,0,P|259:62|314:54,1,110,2|0,1:2|1:0,0:0:0:0:
350,20,19362,1,10,0:0:0:0:
413,96,19705,6,0,P|454:69|516:81,2,110,2|8|0,1:2|0:0|1:0,0:0:0:0:
394,144,20562,1,0,1:0:0:0:
394,144,20733,1,8,0:0:0:0:
484,183,21076,2,0,P|465:251|457:309,1,110,0|8,1:0|0:0,0:0:0:0:
388,359,21762,2,0,P|344:368|326:376,1,55,8|8,1:2|0:3,0:0:0:0:
288,354,22105,2,0,P|296:327|300:300,1,55,8|4,1:2|0:3,0:0:0:0:
322,262,22447,6,0,P|275:232|219:251,1,98.9999969787599,6|8,1:2|0:0,0:0:0:0:
203,271,22962,1,2,0:0:0:0:
137,331,23305,2,0,P|57:347|2:293,1,148.49999546814,2|10,1:2|0:0,0:0:0:0:
6,223,24162,1,10,0:0:0:0:
6,223,24333,2,0,P|12:175|34:106,1,98.9999969787599,2|2,1:2|1:2,0:0:0:0:
106,19,25190,6,0,P|153:32|202:38,1,98.9999969787599,2|10,1:2|0:0,0:0:0:0:
245,25,25705,1,2,0:0:0:0:
321,69,26047,2,0,P|327:149|270:183,1,148.49999546814,2|10,1:2|0:0,0:0:0:0:
190,183,26905,1,10,0:0:0:0:
190,183,27076,2,0,P|155:213|165:280,1,98.9999969787599,2|2,1:2|1:2,0:0:0:0:
235,368,27933,6,0,P|285:352|349:343,1,98.9999969787599,6|10,1:2|0:0,0:0:0:0:
371,363,28447,1,2,0:0:0:0:
457,341,28790,2,0,P|500:295|480:208,1,148.49999546814,2|10,1:2|0:0,0:0:0:0:
425,159,29647,1,10,0:0:0:0:
425,159,29819,2,0,P|386:188|322:168,1,98.9999969787599,2|2,1:2|1:2,0:0:0:0:
204,181,30676,6,0,P|215:118|232:68,1,98.9999969787599,10|10,0:0|0:0,0:0:0:0:
241,42,31190,1,2,0:0:0:0:
324,11,31533,2,0,P|356:40|420:25,1,98.9999969787599,2|0,1:2|1:0,0:0:0:0:
456,20,32047,1,6,1:2:0:0:
507,111,32390,1,10,0:0:0:0:
507,111,32562,2,2,B|505:175|467:142|464:213,1,110,6|0,1:2|1:0,0:1:0:0:
481,254,33076,2,0,P|441:262|416:275,1,55,10|10,0:0|0:0,0:0:0:0:
394,300,33419,6,0,P|357:270|292:281,1,104.499997209549,6|10,1:2|0:0,0:0:0:0:
263,299,33933,1,2,0:1:0:0:
178,272,34276,1,2,1:0:0:0:
178,272,34447,2,0,P|198:176|207:154,1,104.499997209549,10|2,0:1|1:2,0:0:0:0:
289,133,35133,1,10,0:0:0:0:
289,133,35305,2,0,P|322:88|296:30,1,104.499997209549,2|2,1:0|1:0,0:0:0:0:
277,10,35819,1,10,0:1:0:0:
187,39,36162,6,0,P|134:53|79:60,1,104.499997209549,2|10,1:2|0:0,0:0:0:0:
46,86,36676,1,2,0:1:0:0:
15,177,37019,1,2,1:0:0:0:
15,177,37190,2,0,P|53:213|111:196,1,104.499997209549,10|2,0:1|1:2,0:0:0:0:
178,149,37876,1,8,0:0:0:0:
178,149,38047,2,0,P|231:135|286:128,1,104.499997209549,2|2,1:0|1:0,0:0:0:0:
318,99,38562,1,10,0:1:0:0:
397,148,38905,6,0,B|403:215|360:182|365:267,1,104.499997209549,2|10,1:2|0:0,0:0:0:0:
391,283,39419,1,2,0:1:0:0:
347,368,39762,1,2,1:0:0:0:
347,368,39933,2,0,P|301:338|235:359,1,104.499997209549,10|2,0:1|1:2,0:0:0:0:
166,328,40619,1,10,0:0:0:0:
166,328,40790,2,0,P|120:358|54:337,1,104.499997209549,8|4,0:3|0:3,0:0:0:0:
25,350,41305,2,0,P|43:266|58:231,1,104.499997209549,0|4,1:0|1:2,0:0:0:0:
10,168,41990,5,2,1:2:0:0:
62,95,42333,2,0,P|111:120|164:108,1,98.9999969787599,10|0,0:0|0:0,0:0:0:0:
199,190,43019,2,0,P|276:172|319:172,1,98.9999969787599,2|2,1:2|1:2,0:0:0:0:
336,188,43533,1,2,0:0:0:0:
422,165,43876,2,0,P|463:120|439:37,1,148.49999546814,2|0,0:0|1:0,0:0:0:0:
358,12,44733,6,0,P|281:30|238:30,2,98.9999969787599,2|10|2,1:2|0:0|0:0,0:0:0:0:
443,41,45762,1,2,1:2:0:0:
479,127,46105,1,2,1:2:0:0:
479,127,46276,2,0,P|461:204|461:247,1,98.9999969787599,10|10,0:0|0:0,0:0:0:0:
452,267,46790,2,0,P|475:259|499:254,2,49.4999984893799,8|4|4,0:3|0:3|1:2,0:0:0:0:
387,329,47476,5,2,1:2:0:0:
297,333,47819,2,0,P|307:274|325:218,1,98.9999969787599,10|0,0:0|0:0,0:0:0:0:
334,148,48505,2,0,P|295:118|242:130,1,98.9999969787599,2|2,1:2|1:2,0:0:0:0:
211,151,49019,1,2,0:0:0:0:
140,205,49362,2,0,P|92:212|54:182,1,98.9999969787599,2|0,0:0|0:0,0:0:0:0:
14,152,49876,6,0,P|35:76|49:41,1,110,6|10,1:2|0:0,0:0:0:0:
81,11,50390,1,2,0:0:0:0:
155,76,50733,2,0,B|260:85|199:18|320:35,1,165,2|10,1:2|1:2,0:0:0:0:
351,65,51419,1,8,1:3:0:0:
351,65,51590,1,4,1:3:0:0:
393,254,52619,6,0,P|450:240|508:300,2,121.000003692627,6|8|2,1:2|0:0|1:2,0:0:0:0:
359,297,53476,1,0,1:0:0:0:
359,297,53647,1,8,0:0:0:0:
257,257,53990,2,0,P|279:174|293:140,1,121.000003692627,2|10,1:2|0:0,0:0:0:0:
300,87,54505,2,0,P|251:120|194:106,1,121.000003692627,2|2,1:2|1:2,0:0:0:0:
161,63,55019,1,8,0:0:0:0:
55,90,55362,6,0,P|8:140|19:200,1,121.000003692627,2|8,1:2|0:0,0:0:0:0:
39,235,55876,1,8,0:3:0:0:
39,235,56047,2,0,P|114:246|176:267,1,121.000003692627,2|8,1:2|0:0,0:0:0:0:
191,363,56733,1,2,1:2:0:0:
300,340,57076,1,10,0:0:0:0:
300,340,57247,2,0,P|283:281|275:221,1,121.000003692627,2|2,1:2|1:2,0:0:0:0:
230,190,57762,2,0,P|244:147|251:121,1,60.5000018463135,8|8,0:0|0:3,0:0:0:0:
232,80,58105,5,6,1:2:0:0:
314,9,58447,1,10,0:0:0:0:
421,27,58790,2,0,P|472:38|497:47,1,60.5000018463135,2|0,1:2|1:0,0:0:0:0:
502,90,59133,2,0,B|504:160|453:120|451:217,1,121.000003692627,10|0,0:0|1:0,0:0:0:0:
480,300,59819,1,10,0:0:0:0:
480,300,59990,2,0,P|432:341|373:318,1,121.000003692627,0|0,1:0|1:0,0:0:0:0:
336,358,60505,1,10,0:0:0:0:
259,280,60847,6,0,P|274:210|295:151,2,121.000003692627,2|10|2,1:2|0:0|1:2,0:0:0:0:
212,306,61705,1,0,1:0:0:0:
212,306,61876,1,8,0:0:0:0:
114,354,62219,2,0,P|66:319|-2:341,1,121.000003692627,2|8,1:2|1:2,0:0:0:0:
36,225,62905,2,0,P|1:177|13:120,1,121.000003692627,8|8,1:2|1:2,0:0:0:0:
35,72,63419,1,8,0:0:0:0:
35,72,63590,6,0,P|91:58|174:50,1,121.000003692627,6|8,1:2|0:0,0:0:0:0:
261,35,64276,2,0,P|246:78|242:104,1,60.5000018463135,0|0,1:0|1:0,0:0:0:0:
230,145,64619,2,0,P|290:138|348:123,1,121.000003692627,8|2,0:0|1:2,0:0:0:0:
438,185,65305,1,10,0:0:0:0:
438,185,65476,2,0,P|476:237|452:307,1,121.000003692627,2|2,1:2|1:2,0:0:0:0:
432,332,65990,1,8,0:0:0:0:
327,301,66333,6,0,P|266:307|208:322,2,121.000003692627,2|8|2,1:2|0:0|1:2,0:0:0:0:
361,259,67190,1,0,1:0:0:0:
361,259,67362,1,8,0:0:0:0:
309,163,67705,2,0,P|324:104|329:44,1,121.000003692627,2|8,1:2|0:0,0:0:0:0:
286,11,68219,2,0,B|205:2|247:58|148:37,1,121.000003692627,2|2,1:2|1:2,0:0:0:0:
132,77,68733,2,0,P|86:65|56:65,1,60.5000018463135,8|8,0:0|0:3,0:0:0:0:
26,92,69076,5,6,1:2:0:0:
34,200,69419,1,10,0:0:0:0:
141,185,69762,2,0,P|171:188|199:197,1,60.5000018463135,2|0,1:2|1:0,0:0:0:0:
242,231,70105,2,0,P|198:278|218:345,2,121.000003692627,10|0|10,0:0|1:0|0:0,0:0:0:0:
296,232,70962,1,0,1:0:0:0:
296,232,71133,2,0,P|340:185|320:118,1,121.000003692627,2|8,0:0|0:0,0:0:0:0:
413,59,71819,5,2,1:2:0:0:
507,113,72162,1,10,0:0:0:0:
463,212,72505,2,0,P|439:289|433:352,1,121.000003692627,2|8,1:2|0:0,0:0:0:0:
331,365,73190,2,0,P|279:332|211:352,1,121.000003692627,2|8,1:2|0:0,0:0:0:0:
174,367,73705,1,8,0:3:0:0:
174,367,73876,2,0,P|164:326|153:294,1,60.5000018463135,10|8,1:2|0:3,0:0:0:0:
121,268,74219,2,0,P|131:227|142:195,1,60.5000018463135,10|4,1:2|0:3,0:0:0:0:
121,167,74562,6,0,B|245:132|200:232|313:200,1,197.99999395752,6|2,1:2|0:0,0:0:0:0:
410,59,75933,2,0,P|304:31|247:31,1,148.49999546814,6|2,1:2|0:0,0:0:0:0:
171,46,76790,1,10,0:0:0:0:
171,46,76962,2,0,P|108:80|61:55,1,110,8|6,0:0|1:2,0:0:0:0:
256,192,77476,12,4,80047,1:0:0:0:
472,220,88276,6,0,P|440:248|365:228,1,104.499997209549,6|10,1:2|0:0,0:0:0:0:
346,273,88790,1,2,0:1:0:0:
273,221,89133,1,2,1:0:0:0:
273,221,89305,2,0,P|199:232|150:250,1,104.499997209549,10|2,0:1|1:2,0:0:0:0:
85,217,89990,1,10,0:0:0:0:
85,217,90162,2,0,P|79:165|64:114,1,104.499997209549,2|2,1:0|1:0,0:0:0:0:
49,70,90676,1,10,0:1:0:0:
128,18,91019,6,0,B|190:7|166:49|230:42,1,104.499997209549,2|10,1:2|0:0,0:0:0:0:
269,26,91533,1,2,0:1:0:0:
323,109,91876,1,2,1:0:0:0:
323,109,92047,2,0,P|276:143|220:131,1,104.499997209549,10|2,0:1|1:2,0:0:0:0:
158,196,92733,1,8,0:0:0:0:
158,196,92905,2,0,P|177:268|179:313,1,104.499997209549,2|2,1:0|1:0,0:0:0:0:
186,344,93419,1,10,0:1:0:0:
275,372,93762,6,0,P|326:339|374:353,1,104.499997209549,2|10,1:2|0:0,0:0:0:0:
407,368,94276,1,2,0:1:0:0:
495,336,94619,1,2,1:0:0:0:
495,336,94790,2,0,P|473:249|473:228,1,104.499997209549,10|2,0:1|1:2,0:0:0:0:
488,145,95476,1,8,0:0:0:0:
488,145,95647,2,0,B|426:133|445:174|383:165,1,104.499997209549,2|2,1:0|1:0,0:0:0:0:
343,151,96162,1,10,0:1:0:0:
309,63,96505,6,0,P|264:93|213:73,1,104.499997209549,2|10,1:2|0:0,0:0:0:0:
179,53,97019,1,2,0:1:0:0:
129,134,97362,1,2,1:0:0:0:
129,134,97533,2,0,P|80:120|39:150,1,104.499997209549,10|6,0:1|1:2,0:0:0:0:
4,240,98219,1,10,0:0:0:0:
4,240,98390,2,2,P|22:307|28:361,1,104.499997209549,6|0,1:2|1:0,0:1:0:0:
63,371,98905,2,0,P|97:358|129:355,1,52.2499986047745,10|10,0:0|0:0,0:0:0:0:
158,365,99247,5,6,1:2:0:0:
221,296,99590,1,10,0:0:0:0:
221,296,99762,2,0,P|182:254|197:200,1,104.499997209549,2|2,0:1|1:0,0:0:0:0:
186,163,100276,2,0,P|263:142|296:140,1,104.499997209549,10|2,0:1|1:2,0:0:0:0:
362,83,100962,2,0,P|375:32|381:16,1,52.2499986047745,10|2,0:0|1:0,0:0:0:0:
472,35,101476,1,2,1:0:0:0:
472,35,101647,2,0,P|455:86|441:160,1,104.499997209549,10|2,0:1|1:2,0:0:0:0:
494,215,102333,5,10,0:0:0:0:
494,215,102505,1,2,0:1:0:0:
485,308,102847,2,0,P|441:315|412:326,1,52.2499986047745,2|10,1:0|0:1,0:0:0:0:
353,367,103362,2,0,B|292:366|318:331|257:327,1,104.499997209549,2|8,1:2|0:0,0:0:0:0:
215,343,103876,2,0,P|187:296|207:243,1,104.499997209549,2|2,1:0|1:0,0:0:0:0:
231,216,104390,1,10,0:1:0:0:
323,233,104733,5,2,1:2:0:0:
394,171,105076,1,10,0:0:0:0:
394,171,105247,2,0,P|422:124|402:71,1,104.499997209549,2|2,0:1|1:0,0:0:0:0:
393,34,105762,2,0,P|315:44|277:57,1,104.499997209549,10|2,0:1|1:2,0:0:0:0:
210,12,106447,1,10,0:0:0:0:
210,12,106619,2,0,P|196:62|192:114,1,104.499997209549,8|4,0:3|0:3,0:0:0:0:
191,161,107133,2,0,B|128:152|157:195|78:186,1,104.499997209549,0|4,1:0|1:2,0:0:0:0:
5,170,107819,5,2,1:2:0:0:
21,257,108162,2,0,P|58:289|120:277,1,98.9999969787599,10|0,0:0|0:0,0:0:0:0:
193,270,108847,2,0,P|206:318|215:373,1,98.9999969787599,2|2,1:2|1:2,0:0:0:0:
257,380,109362,1,2,0:0:0:0:
335,337,109705,2,0,B|348:251|279:282|292:195,1,148.49999546814,2|0,0:0|1:0,0:0:0:0:
226,141,110562,6,0,P|190:162|124:149,2,98.9999969787599,2|10|2,1:2|0:0|0:0,0:0:0:0:
230,51,111590,1,2,1:2:0:0:
309,10,111933,1,2,1:2:0:0:
309,10,112105,2,0,P|353:20|411:28,1,98.9999969787599,10|10,0:0|0:0,0:0:0:0:
446,47,112619,2,0,P|455:3|460:-17,2,49.4999984893799,8|4|4,0:3|0:3|1:2,0:0:0:0:
502,116,113305,5,2,1:2:0:0:
489,203,113647,2,0,P|439:209|391:220,1,98.9999969787599,10|0,0:0|0:0,0:0:0:0:
304,202,114333,2,0,P|275:237|285:299,1,98.9999969787599,2|2,1:2|1:2,0:0:0:0:
296,328,114847,1,2,0:0:0:0:
368,380,115190,2,0,P|403:351|465:361,1,98.9999969787599,2|0,0:0|0:0,0:0:0:0:
502,341,115705,6,0,P|487:256|477:226,1,110,6|10,1:2|0:0,0:0:0:0:
491,185,116219,1,2,0:0:0:0:
418,117,116562,2,0,B|321:105|363:172|264:164,1,165,2|10,1:2|1:2,0:0:0:0:
226,148,117247,1,8,1:3:0:0:
226,148,117419,1,4,1:3:0:0:
62,10,118447,6,0,P|15:47|18:108,1,121.000003692627,6|8,1:2|0:0,0:0:0:0:
56,205,119133,2,0,P|96:193|119:191,1,60.5000018463135,2|0,1:2|1:0,0:0:0:0:
157,224,119476,2,0,P|167:151|183:85,1,121.000003692627,8|2,0:0|1:2,0:0:0:0:
245,19,120162,1,10,0:0:0:0:
245,19,120333,2,0,P|296:60|350:46,1,121.000003692627,2|2,1:2|1:2,0:0:0:0:
395,24,120847,1,8,0:0:0:0:
496,64,121190,6,0,P|473:130|468:191,1,121.000003692627,2|8,1:2|0:0,0:0:0:0:
484,288,121876,2,0,P|434:297|407:312,1,60.5000018463135,2|0,1:2|1:0,0:0:0:0:
372,289,122219,2,0,P|337:246|353:183,1,121.000003692627,8|2,0:0|1:2,0:0:0:0:
398,87,122905,1,10,0:0:0:0:
398,87,123076,1,2,1:2:0:0:
307,26,123419,1,2,1:2:0:0:
307,26,123590,2,0,P|260:40|232:43,1,60.5000018463135,8|8,0:0|0:3,0:0:0:0:
196,26,123933,6,0,P|173:101|166:162,1,121.000003692627,6|10,1:2|0:0,0:0:0:0:
178,196,124447,1,8,0:3:0:0:
178,196,124619,2,0,B|248:202|229:161|302:177,1,121.000003692627,2|10,1:2|0:0,0:0:0:0:
396,136,125305,1,0,1:0:0:0:
469,216,125647,1,10,0:0:0:0:
469,216,125819,2,0,P|489:283|439:324,1,121.000003692627,0|0,1:0|1:0,0:0:0:0:
414,349,126333,1,10,0:0:0:0:
315,302,126676,6,0,P|238:312|190:330,2,121.000003692627,2|10|2,1:2|0:0|1:2,0:0:0:0:
358,267,127533,1,0,1:0:0:0:
358,267,127705,1,8,0:0:0:0:
284,186,128047,2,0,P|251:137|274:84,1,121.000003692627,2|8,1:2|1:2,0:0:0:0:
181,27,128733,2,0,P|123:45|63:51,1,121.000003692627,8|8,1:2|1:2,0:0:0:0:
22,87,129247,1,8,0:0:0:0:
22,87,129419,6,0,B|15:164|68:117|65:221,1,121.000003692627,6|8,1:2|0:0,0:0:0:0:
162,243,130105,2,0,P|148:294|145:328,1,60.5000018463135,0|0,1:0|1:0,0:0:0:0:
167,351,130447,2,0,P|98:342|54:391,1,121.000003692627,8|2,0:0|1:2,0:0:0:0:
0,285,131133,1,10,0:0:0:0:
0,285,131305,2,0,P|22:199|28:159,1,121.000003692627,2|2,1:2|1:2,0:0:0:0:
20,112,131819,1,8,0:0:0:0:
100,38,132162,6,0,P|147:74|219:53,1,121.000003692627,2|8,1:2|0:0,0:0:0:0:
272,149,132847,2,0,P|300:140|330:135,1,60.5000018463135,2|0,1:2|1:0,0:0:0:0:
383,147,133190,2,0,P|420:96|398:40,1,121.000003692627,8|2,0:0|1:2,0:0:0:0:
306,7,133876,1,8,0:0:0:0:
306,7,134047,1,2,1:2:0:0:
207,48,134390,1,2,1:2:0:0:
207,48,134562,2,0,P|198:76|193:106,1,60.5000018463135,8|8,0:0|0:3,0:0:0:0:
144,130,134905,6,0,P|107:181|129:237,1,121.000003692627,6|10,1:2|0:0,0:0:0:0:
197,312,135590,1,2,1:2:0:0:
299,274,135933,2,0,B|380:255|349:318|436:292,2,121.000003692627,10|0|10,0:0|1:0|0:0,0:0:0:0:
275,224,136790,1,0,1:0:0:0:
275,224,136962,2,0,P|285:152|303:98,1,121.000003692627,2|8,0:0|0:0,0:0:0:0:
210,43,137647,5,2,1:2:0:0:
170,144,137990,2,0,P|124:177|47:150,1,121.000003692627,10|2,0:0|1:2,0:0:0:0:
22,200,138505,1,0,1:0:0:0:
22,200,138676,1,8,0:0:0:0:
36,308,139019,2,0,P|116:323|163:338,1,121.000003692627,2|8,1:2|0:0,0:0:0:0:
205,352,139533,1,8,0:3:0:0:
205,352,139705,2,0,P|194:297|186:276,1,60.5000018463135,10|8,1:2|0:3,0:0:0:0:
223,248,140047,2,0,P|252:256|282:260,1,60.5000018463135,10|4,1:2|0:3,0:0:0:0:
315,290,140390,6,0,P|390:232|479:264,1,197.99999395752,6|2,1:2|0:0,0:0:0:0:
387,111,141762,2,0,B|295:118|343:57|243:69,1,148.49999546814,6|2,1:2|0:0,0:0:0:0:
178,134,142619,1,10,0:0:0:0:
178,134,142790,1,8,0:0:0:0:
258,207,143133,6,0,P|233:275|222:339,1,121.000003692627,6|10,1:2|0:1,0:0:0:0:
194,368,143647,2,0,P|151:337|84:351,1,121.000003692627,2|2,0:0|1:2,0:0:0:0:
41,378,144162,1,10,0:1:0:0:
7,274,144505,2,0,P|20:235|28:203,1,60.5000018463135,2|2,1:0|1:2,0:0:0:0:
20,166,144847,1,10,0:1:0:0:
20,166,145019,2,2,B|103:146|68:204|158:183,1,121.000003692627,2|2,1:0|1:0,0:1:0:0:
192,183,145533,1,10,0:0:0:0:
192,183,145705,6,2,P|159:137|188:64,1,121.000003692627,2|2,0:1|0:0,0:1:0:0:
208,36,146219,1,10,0:1:0:0:
316,32,146562,2,0,P|298:91|298:118,1,60.5000018463135,2|0,1:0|1:0,0:0:0:0:
296,143,146905,2,0,P|366:126|436:119,1,121.000003692627,10|2,0:1|1:0,0:0:0:0:
468,113,147419,2,0,B|446:183|516:158|483:246,1,121.000003692627,2|2,1:2|1:2,0:0:0:0:
476,279,147933,1,2,0:1:0:0:
379,229,148276,1,10,0:1:0:0:
281,278,148619,6,2,P|291:341|242:381,1,121.000003692627,6|8,1:2|0:0,0:1:0:0:
201,360,149133,2,0,P|145:342|76:337,1,121.000003692627,2|2,0:1|1:0,0:0:0:0:
31,353,149647,1,10,0:1:0:0:
10,245,149990,2,0,P|-1:187|37:145,1,121.000003692627,2|8,1:3|0:0,0:0:0:0:
91,153,150505,2,2,B|164:156|133:105|210:114,1,121.000003692627,2|0,1:0|1:0,0:1:0:0:
250,92,151019,1,10,0:0:0:0:
317,177,151362,6,0,P|384:181|448:202,2,121.000003692627,2|10|2,1:3|0:1|1:0,0:0:0:0:
268,196,152219,1,2,1:2:0:0:
268,196,152390,2,0,P|251:254|248:314,1,121.000003692627,10|2,0:1|1:0,0:0:0:0:
266,371,152905,1,0,1:0:0:0:
266,371,153076,1,10,0:1:0:0:
369,337,153419,2,0,P|409:326|436:326,1,60.5000018463135,10|8,1:2|0:0,0:0:0:0:
479,342,153762,2,0,P|481:311|490:283,1,60.5000018463135,10|8,1:2|0:0,0:0:0:0:
507,231,154105,5,6,1:2:0:0:
443,143,154447,1,8,0:0:0:0:
443,143,154619,2,0,P|391:182|326:152,1,121.000003692627,2|2,0:1|1:2,0:0:0:0:
289,187,155133,2,0,P|302:111|324:53,1,121.000003692627,10|2,0:1|1:2,0:0:0:0:
316,15,155647,2,0,P|258:33|198:42,1,121.000003692627,2|2,1:0|1:2,0:0:0:0:
146,25,156162,1,2,0:1:0:0:
66,99,156505,1,10,0:1:0:0:
113,196,156847,6,0,B|30:192|76:241|-18:230,2,121.000003692627,2|10|0,1:0|0:0|1:0,0:0:0:0:
162,219,157705,1,0,1:0:0:0:
162,219,157876,1,10,0:1:0:0:
246,150,158219,2,0,P|285:106|265:39,1,121.000003692627,2|8,1:3|0:0,0:0:0:0:
324,27,158733,2,0,P|381:37|425:-1,1,121.000003692627,2|2,1:3|1:2,0:0:0:0:
473,24,159247,1,10,0:0:0:0:
505,128,159590,5,4,1:2:0:0:
505,128,159762,2,2,B|505:190|461:164|457:244,1,121.000003692627,2|0,0:1|0:0,0:1:0:0:
452,289,160276,2,0,P|480:280|510:275,2,60.5000018463135,2|0|8,1:0|1:0|0:0,0:0:0:0:
375,366,160962,1,2,1:0:0:0:
375,366,161133,1,2,1:0:0:0:
267,349,161476,2,2,P|281:250|293:217,1,121.000003692627,2|0,1:0|1:0,0:1:0:0:
320,187,161990,2,0,P|340:145|290:80,1,121.000003692627,10|0,0:0|1:0,0:0:0:0:
222,13,162676,6,0,B|146:1|182:57|84:37,1,121.000003692627,10|2,0:1|1:0,0:0:0:0:
63,67,163190,1,2,1:2:0:0:
63,67,163362,1,10,0:1:0:0:
82,178,163705,1,2,1:2:0:0:
82,178,163876,2,0,P|145:163|192:207,1,121.000003692627,2|8,1:2|0:0,0:0:0:0:
240,193,164390,2,0,P|254:249|255:269,1,60.5000018463135,10|8,1:0|0:3,0:0:0:0:
217,292,164733,2,0,P|203:348|202:368,1,60.5000018463135,8|4,1:0|0:3,0:0:0:0:
241,381,165076,5,4,1:0:0:0:
399,70,176047,6,0,B|215:95|313:4|102:28,1,296.99999093628,6|0,0:0|0:0,0:0:0:0:
62,100,177419,2,0,P|70:191|244:220,1,296.99999093628,2|0,0:0|0:0,0:0:0:0:
323,178,178790,2,0,B|205:108|309:-75|487:-90|647:81|548:218|453:374|365:132|250:303|275:390,1,791.999975830079,2|6,0:0|0:0,0:0:0:0:
183,371,181876,1,2,0:0:0:0:
174,282,182219,2,0,P|205:225|191:184,1,98.9999969787599,2|2,0:0|0:0,0:0:0:0:
119,150,182905,2,0,P|59:159|9:176,1,98.9999969787599,2|0,0:0|0:0,0:0:0:0:
257,43,184276,1,2,0:0:0:0:
365,25,189762,6,0,P|408:67|391:141,1,121.000003692627,6|10,1:2|0:0,0:0:0:0:
375,171,190276,1,8,0:3:0:0:
375,171,190447,2,0,P|315:155|244:148,1,121.000003692627,2|10,1:2|0:0,0:0:0:0:
162,93,191133,1,0,1:0:0:0:
80,164,191476,1,10,0:0:0:0:
80,164,191647,2,0,P|96:224|103:295,1,121.000003692627,0|0,1:0|1:0,0:0:0:0:
132,328,192162,1,10,0:0:0:0:
230,282,192505,6,0,P|287:319|346:292,2,121.000003692627,2|10|2,1:2|0:0|1:2,0:0:0:0:
208,237,193362,1,0,1:0:0:0:
208,237,193533,1,8,0:0:0:0:
253,138,193876,2,0,P|325:147|377:161,1,121.000003692627,2|8,1:2|1:2,0:0:0:0:
471,115,194562,2,0,B|453:187|514:158|498:243,1,121.000003692627,8|8,1:2|1:2,0:0:0:0:
504,280,195076,1,8,0:0:0:0:
504,280,195247,6,0,P|456:309|455:377,1,121.000003692627,6|8,1:2|0:0,0:0:0:0:
342,382,195933,2,0,P|338:345|328:315,1,60.5000018463135,0|0,1:0|1:0,0:0:0:0:
342,269,196276,2,0,P|296:301|219:279,1,121.000003692627,8|2,0:0|1:2,0:0:0:0:
132,320,196962,1,10,0:0:0:0:
132,320,197133,2,0,P|144:236|163:184,1,121.000003692627,2|2,1:2|1:2,0:0:0:0:
129,153,197647,1,8,0:0:0:0:
24,122,197990,6,0,P|18:54|59:12,1,121.000003692627,2|8,1:2|0:0,0:0:0:0:
158,4,198676,2,0,P|196:8|229:18,1,60.5000018463135,2|0,1:2|1:0,0:0:0:0:
271,3,199019,2,0,P|287:75|294:132,1,121.000003692627,8|2,0:0|1:2,0:0:0:0:
240,218,199705,1,8,0:0:0:0:
240,218,199876,1,2,1:2:0:0:
283,323,200219,1,2,1:2:0:0:
283,323,200390,2,0,P|321:327|354:337,1,60.5000018463135,8|8,0:0|0:3,0:0:0:0:
384,368,200733,6,0,P|428:331|507:351,1,121.000003692627,6|10,1:2|0:0,0:0:0:0:
509,229,201419,1,2,1:2:0:0:
402,205,201762,2,0,P|339:219|259:228,2,121.000003692627,10|0|10,0:0|1:0|0:0,0:0:0:0:
433,161,202619,1,0,1:0:0:0:
433,161,202790,2,0,B|430:88|385:125|382:42,1,121.000003692627,2|8,0:0|0:0,0:0:0:0:
294,120,203476,5,2,1:2:0:0:
243,23,203819,2,0,P|178:15|135:67,1,121.000003692627,10|2,0:0|1:2,0:0:0:0:
132,107,204333,1,0,1:0:0:0:
132,107,204505,1,8,0:0:0:0:
208,183,204847,2,0,P|191:257|186:320,1,121.000003692627,2|8,1:2|0:0,0:0:0:0:
158,350,205362,1,0,1:0:0:0:
158,350,205533,2,0,P|106:363|85:376,2,60.5000018463135,8|8|8,0:0|0:3|1:2,0:0:0:0:
98,258,206219,6,0,P|30:271|-16:234,2,121.000003692627,6|8|2,1:2|0:0|1:2,0:0:0:0:
135,217,207076,1,0,1:0:0:0:
135,217,207247,1,8,0:0:0:0:
79,122,207590,2,0,P|162:97|215:92,1,121.000003692627,2|10,1:2|0:0,0:0:0:0:
248,106,208105,2,0,P|298:62|365:80,1,121.000003692627,2|2,1:2|1:2,0:0:0:0:
395,95,208619,1,8,0:0:0:0:
499,64,208962,6,0,P|478:154|473:203,1,121.000003692627,2|8,1:2|0:0,0:0:0:0:
473,236,209476,1,8,0:3:0:0:
473,236,209647,2,0,B|403:238|433:196|346:202,1,121.000003692627,2|8,1:2|0:0,0:0:0:0:
264,149,210333,1,2,1:2:0:0:
178,214,210676,1,10,0:0:0:0:
178,214,210847,2,0,P|199:304|204:353,1,121.000003692627,2|2,1:2|1:2,0:0:0:0:
241,371,211362,2,0,P|286:379|307:388,1,60.5000018463135,8|8,0:0|0:3,0:0:0:0:
351,366,211705,5,6,1:2:0:0:
332,258,212047,1,10,0:0:0:0:
418,191,212390,2,0,P|446:200|476:204,1,60.5000018463135,2|0,1:2|1:0,0:0:0:0:
504,157,212733,2,0,P|509:83|466:51,1,121.000003692627,10|0,0:0|1:0,0:0:0:0:
379,6,213419,1,10,0:0:0:0:
379,6,213590,2,0,P|285:19|240:32,1,121.000003692627,0|0,1:0|1:0,0:0:0:0:
212,54,214105,1,10,0:0:0:0:
230,160,214447,6,0,P|300:171|342:121,2,121.000003692627,2|10|2,1:2|0:0|1:2,0:0:0:0:
185,188,215305,1,0,1:0:0:0:
185,188,215476,1,8,0:0:0:0:
79,159,215819,2,0,P|38:198|47:268,1,121.000003692627,2|8,1:2|1:2,0:0:0:0:
67,364,216505,2,0,P|150:340|195:339,1,121.000003692627,8|8,1:2|1:2,0:0:0:0:
231,366,217019,1,8,0:0:0:0:
231,366,217190,6,0,P|236:305|256:248,1,121.000003692627,6|8,1:2|0:0,0:0:0:0:
185,166,217876,2,0,P|129:177|107:184,1,60.5000018463135,0|0,1:0|1:0,0:0:0:0:
73,194,218219,2,0,B|80:118|26:147|43:60,1,121.000003692627,8|2,0:0|1:2,0:0:0:0:
123,11,218905,1,10,0:0:0:0:
123,11,219076,2,0,P|167:42|242:20,1,121.000003692627,2|2,1:2|1:2,0:0:0:0:
279,7,219590,1,8,0:0:0:0:
338,98,219933,6,0,P|416:78|468:74,2,121.000003692627,2|8|2,1:2|0:0|1:2,0:0:0:0:
296,132,220790,1,0,1:0:0:0:
296,132,220962,1,8,0:0:0:0:
242,226,221305,2,0,P|284:275|262:344,1,121.000003692627,2|8,1:2|0:0,0:0:0:0:
304,373,221819,2,0,P|353:331|422:353,1,121.000003692627,2|2,1:2|1:2,0:0:0:0:
455,360,222333,2,0,P|466:311|476:288,1,60.5000018463135,8|8,0:0|0:3,0:0:0:0:
506,261,222676,5,6,1:2:0:0:
446,169,223019,1,10,0:0:0:0:
340,195,223362,2,0,P|291:206|268:216,1,60.5000018463135,2|0,1:2|1:0,0:0:0:0:
232,185,223705,2,0,P|194:221|119:194,2,121.000003692627,10|0|10,0:0|1:0|0:0,0:0:0:0:
226,135,224562,1,0,1:0:0:0:
226,135,224733,2,0,P|238:61|253:8,1,121.000003692627,2|8,0:0|0:0,0:0:0:0:
147,53,225419,5,2,1:2:0:0:
49,3,225762,1,10,0:0:0:0:
0,100,226105,2,0,B|1:172|45:135|44:226,1,121.000003692627,2|8,1:2|0:0,0:0:0:0:
14,313,226790,2,0,P|57:347|133:328,1,121.000003692627,2|8,1:2|0:0,0:0:0:0:
168,363,227305,1,8,0:3:0:0:
168,363,227476,2,0,P|182:312|199:280,1,60.5000018463135,10|8,1:2|0:3,0:0:0:0:
225,268,227819,2,0,P|211:217|194:185,1,60.5000018463135,10|4,1:2|0:3,0:0:0:0:
186,171,228162,6,0,B|304:136|274:224|384:193,1,197.99999395752,6|2,1:2|0:0,0:0:0:0:
428,365,229533,2,0,P|332:341|268:337,1,148.49999546814,6|2,1:2|0:0,0:0:0:0:
194,377,230390,1,10,0:0:0:0:
194,377,230562,1,8,0:0:0:0:
120,310,230905,6,0,P|63:341|18:326,2,110,6|8|0,1:2|0:0|1:0,0:0:0:0:
107,211,231933,1,10,0:0:0:0:
107,211,232105,2,0,B|177:210|142:177|228:177,1,110,2|0,0:0|1:0,0:0:0:0:
244,212,232619,2,0,P|292:219|312:229,1,55,8|0,0:0|1:0,0:0:0:0:
343,202,232962,2,0,P|378:160|359:106,1,110,2|8,0:0|0:0,0:0:0:0:
307,29,233647,6,0,P|225:51|190:53,2,110,2|8|0,1:2|0:0|1:0,0:0:0:0:
347,0,234505,1,0,1:0:0:0:
347,0,234676,1,8,0:0:0:0:
442,24,235019,2,0,P|448:78|465:130,1,110,2|10,1:2|0:0,0:0:0:0:
496,169,235533,2,0,B|490:232|454:204|447:282,1,110,2|4,1:2|0:3,0:0:0:0:
439,314,236047,1,10,0:0:0:0:
340,320,236390,6,0,P|290:354|237:338,2,110,6|8|0,1:2|0:0|1:0,0:0:0:0:
352,271,237247,1,0,1:0:0:0:
352,271,237419,2,0,P|339:191|330:155,1,110,8|2,0:0|1:2,0:0:0:0:
298,74,238105,1,8,0:0:0:0:
298,74,238276,2,0,P|244:61|189:54,1,110,2|0,1:2|1:0,0:0:0:0:
144,73,238790,1,10,0:0:0:0:
117,168,239133,6,0,B|59:156|71:202|0:187,2,110,2|8|0,1:2|0:0|1:0,0:0:0:0:
162,198,239990,1,0,1:0:0:0:
162,198,240162,1,8,0:0:0:0:
252,158,240505,2,0,P|270:234|275:288,1,110,0|8,1:0|0:0,0:0:0:0:
237,357,241190,2,0,P|199:346|171:345,1,55,8|8,1:2|0:3,0:0:0:0:
150,307,241533,2,0,P|122:310|96:319,1,55,8|4,1:2|0:3,0:0:0:0:
52,341,241876,5,6,1:2:0:0:
256,192,242047,12,4,248733,0:0:0:0:
