osu file format v14

[General]
AudioFilename: audio.mp3
AudioLeadIn: 0
PreviewTime: 51942
Countdown: 0
SampleSet: Soft
StackLeniency: 0.7
Mode: 0
LetterboxInBreaks: 0
WidescreenStoryboard: 0

[Editor]
Bookmarks: 52694,88371
DistanceSpacing: 0.9
BeatDivisor: 4
GridSize: 16
TimelineZoom: 1.5

[Metadata]
Title:Get the Freedom
TitleUnicode:Get the Freedom
Artist:Kicco
ArtistUnicode:Kicco
Creator:Bellicose
Version:Normal
Source:ねこツク、さくら。
Tags:meis clauson angel note lump of sugar Nekotsuku Sakura kemonomimi eroge video game visual novel vn japanese pop opening short version sodarose superdaloubot [r] ron jpop j-pop op 羽生みいな hanyu miina
BeatmapID:2422545
BeatmapSetID:1159892

[Difficulty]
HPDrainRate:4
CircleSize:3.2
OverallDifficulty:4
ApproachRate:5
SliderMultiplier:1.1
SliderTickRate:1

[Events]
//Background and Video events
Video,0,"video.mp4"
0,0,"bg3.jpg",0,0
//Break Periods
//Storyboard Layer 0 (Background)
//Storyboard Layer 1 (Fail)
//Storyboard Layer 2 (Pass)
//Storyboard Layer 3 (Foreground)
//Storyboard Layer 4 (Overlay)
//Storyboard Sound Samples

[TimingPoints]
600,342.857142857143,4,2,1,50,1,0
600,-111.111111111111,4,2,1,50,0,0
11571,-100,4,2,1,65,0,0
22542,-111.111111111111,4,2,1,55,0,0
22885,-111.111111111111,4,2,2,55,0,0
28028,-111.111111111111,4,2,1,55,0,0
28371,-111.111111111111,4,2,2,55,0,0
32142,-105.263157894737,4,2,1,60,0,0
32657,-105.263157894737,4,2,1,60,0,0
41742,-111.111111111111,4,2,1,55,0,0
49971,-100,4,2,1,65,0,0
51342,-100,4,2,1,70,0,0
52028,-111.111111111111,4,2,1,50,0,0
52714,-95.2380952380952,4,2,1,70,0,1
74657,-111.111111111111,4,2,1,60,0,0
76028,-100,4,2,1,60,0,0
77400,-100,4,2,1,65,0,0
97971,-100,4,2,1,5,0,0

[Colours]
Combo1 : 188,174,253
Combo2 : 255,230,253
Combo3 : 254,201,249
Combo4 : 227,174,253

[HitObjects]
76,198,600,6,0,P|114:246|160:250,1,98.9999969787599,2|0,0:0|0:0,0:0:0:0:
233,280,1285,2,0,P|251:215|269:173,1,98.9999969787599,2|0,0:0|0:0,0:0:0:0:
320,117,1971,2,0,P|374:121|401:175,1,98.9999969787599,2|2,0:0|0:0,0:0:0:0:
404,198,2485,1,2,0:0:0:0:
443,277,2828,2,0,P|401:289|332:321,1,98.9999969787599,2|0,0:0|0:0,0:0:0:0:
315,339,3342,6,0,P|265:311|203:314,1,98.9999969787599,2|0,0:0|0:0,0:0:0:0:
146,352,4028,2,0,P|129:280|110:240,1,98.9999969787599,2|0,0:0|0:0,0:0:0:0:
39,216,4714,2,0,P|19:160|52:118,1,98.9999969787599,2|2,0:0|0:0,0:0:0:0:
63,92,5228,1,2,0:0:0:0:
142,52,5571,1,2,0:0:0:0:
265,103,6085,6,0,P|279:35|295:0,2,98.9999969787599,2|2|2,0:0|0:0|0:0,0:0:0:0:
304,182,7114,1,2,0:0:0:0:
389,207,7457,1,0,0:0:0:0:
470,171,7800,2,0,P|486:134|495:65,2,98.9999969787599,2|2|2,0:0|0:0|0:0,0:0:0:0:
389,207,8828,6,0,P|342:204|278:227,1,98.9999969787599,2|2,0:0|0:0,0:0:0:0:
225,277,9514,2,0,P|170:273|143:227,1,98.9999969787599,2|0,0:0|0:0,0:0:0:0:
118,155,10200,2,0,P|169:35|344:107,1,346.49998942566,2|2,0:0|0:0,0:0:0:0:
340,143,11571,6,0,P|291:132|225:123,2,110,6|8|0,1:2|0:0|1:0,0:0:0:0:
382,178,12428,1,0,1:0:0:0:
382,178,12600,1,10,0:0:0:0:
470,133,12942,2,0,L|462:55,1,55,0|0,1:0|1:0,0:0:0:0:
459,28,13285,1,8,0:0:0:0:
459,28,13457,2,0,P|406:44|349:48,1,110,0|0,1:0|1:0,0:0:0:0:
303,36,13971,1,8,0:0:0:0:
217,85,14314,6,0,P|253:121|244:191,2,110,2|8|0,1:2|0:0|1:0,0:0:0:0:
169,69,15171,1,0,1:0:0:0:
169,69,15342,1,8,0:0:0:0:
79,111,15685,2,0,L|86:171,1,55,2|2,1:2|1:2,0:0:0:0:
88,219,16028,1,10,0:0:0:0:
88,219,16200,2,0,P|48:254|58:320,1,110,2|2,1:2|1:2,0:0:0:0:
76,349,16714,1,10,0:0:0:0:
175,334,17057,6,0,P|254:346|299:358,2,110,6|8|0,1:1|0:0|1:0,0:0:0:0:
152,289,17914,1,0,1:0:0:0:
152,289,18085,1,8,0:0:0:0:
110,199,18428,2,0,L|50:186,1,55,2|0,1:2|1:0,0:0:0:0:
8,173,18771,1,8,0:0:0:0:
8,173,18942,2,0,P|-12:120|28:73,1,110,0|0,1:0|1:0,0:0:0:0:
59,57,19457,1,10,0:0:0:0:
147,101,19800,6,0,P|164:43|193:-6,2,110,2|8|0,1:2|0:0|1:0,0:0:0:0:
166,152,20657,1,0,1:0:0:0:
166,152,20828,1,8,0:0:0:0:
184,249,21171,2,0,L|112:273,2,55,0|0|8,1:0|1:0|0:0,0:0:0:0:
266,303,21857,2,0,L|328:296,1,55,8|4,1:2|0:3,0:0:0:0:
366,316,22200,2,0,L|428:309,1,55,0|8,1:0|0:3,0:0:0:0:
467,320,22542,6,0,P|500:273|475:219,1,98.9999969787599,6|10,1:2|0:0,0:0:0:0:
469,196,23057,1,2,0:0:0:0:
468,106,23400,2,0,P|411:120|353:130,1,98.9999969787599,2|0,1:2|1:0,0:0:0:0:
327,132,23914,1,10,0:0:0:0:
244,99,24257,1,10,0:0:0:0:
244,99,24428,2,0,P|194:98|171:153,1,98.9999969787599,2|2,1:2|1:2,0:0:0:0:
254,238,25285,6,0,P|238:279|224:335,1,98.9999969787599,10|10,0:0|0:0,0:0:0:0:
214,376,25800,1,2,0:0:0:0:
134,335,26142,2,0,P|64:360|30:346,1,98.9999969787599,2|0,1:2|1:0,0:0:0:0:
12,321,26657,1,10,0:0:0:0:
9,236,27000,1,10,0:0:0:0:
9,236,27171,2,0,P|24:151|35:126,1,98.9999969787599,2|2,1:2|1:2,0:0:0:0:
159,166,28028,6,0,P|205:198|259:190,1,98.9999969787599,6|10,1:1|0:0,0:0:0:0:
289,183,28542,1,2,0:0:0:0:
349,248,28885,2,0,P|395:237|446:231,1,98.9999969787599,2|0,1:2|1:0,0:0:0:0:
491,227,29400,1,10,0:0:0:0:
506,142,29742,1,10,0:0:0:0:
506,142,29914,2,0,P|500:78|459:51,1,98.9999969787599,2|2,1:2|1:2,0:0:0:0:
349,15,30771,6,0,P|297:33|249:41,1,98.9999969787599,10|10,0:0|0:0,0:0:0:0:
209,38,31285,1,2,0:0:0:0:
132,83,31628,2,0,P|154:137|141:176,1,98.9999969787599,2|0,1:2|1:0,0:0:0:0:
107,205,32142,5,6,1:2:0:0:
54,283,32485,1,10,0:0:0:0:
54,283,32657,2,0,P|111:294|171:315,1,104.499997209549,6|2,1:1|1:2,0:0:0:0:
192,337,33171,2,0,L|264:327,1,52.2499986047745,10|10,0:0|0:0,0:0:0:0:
288,315,33514,6,0,P|307:347|381:342,1,104.499997209549,6|10,1:2|0:0,0:0:0:0:
413,335,34028,1,2,0:0:0:0:
480,269,34371,1,2,1:2:0:0:
480,269,34542,2,0,L|462:196,1,52.2499986047745,8|0,0:0|0:0,0:0:0:0:
496,181,34885,2,0,P|506:128|455:83,1,104.499997209549,2|10,1:2|0:0,0:0:0:0:
432,73,35400,1,2,1:2:0:0:
342,43,35742,2,0,L|341:102,1,52.2499986047745,2|8,1:2|0:0,0:0:0:0:
343,189,36257,5,2,1:2:0:0:
275,254,36600,1,10,0:0:0:0:
275,254,36771,2,0,P|228:231|175:257,1,104.499997209549,2|2,0:0|1:2,0:0:0:0:
152,285,37285,1,8,0:0:0:0:
62,256,37628,2,0,P|57:199|33:149,1,104.499997209549,2|10,1:2|0:0,0:0:0:0:
17,113,38142,1,2,1:2:0:0:
100,73,38485,1,2,1:2:0:0:
100,73,38657,2,0,L|164:67,1,52.2499986047745,8|0,0:0|0:0,0:0:0:0:
196,85,39000,6,0,P|250:81|270:136,1,104.499997209549,2|10,1:2|0:0,0:0:0:0:
270,167,39514,1,2,0:0:0:0:
213,243,39857,1,2,1:2:0:0:
213,243,40028,2,0,L|206:304,1,52.2499986047745,8|0,0:0|0:0,0:0:0:0:
184,336,40371,2,0,P|132:348|78:319,1,104.499997209549,2|10,1:2|0:0,0:0:0:0:
52,295,40885,1,10,0:3:0:0:
83,208,41228,1,6,0:3:0:0:
83,208,41400,1,2,1:2:0:0:
12,134,41742,6,0,P|-3:88|32:38,1,98.9999969787599,4|2,1:2|1:2,0:0:0:0:
102,13,42428,2,0,P|144:27|206:40,1,98.9999969787599,10|0,0:0|0:0,0:0:0:0:
286,36,43114,2,0,P|267:110|264:144,1,98.9999969787599,2|2,1:2|1:2,0:0:0:0:
262,176,43628,1,2,0:0:0:0:
212,250,43971,2,0,P|240:298|280:304,1,98.9999969787599,2|0,0:0|0:0,0:0:0:0:
323,299,44485,5,0,1:0:0:0:
407,271,44828,2,0,P|426:321|437:379,2,98.9999969787599,2|10|2,1:2|0:0|0:0,0:0:0:0:
467,205,45857,2,0,P|486:160|460:102,1,98.9999969787599,2|2,1:2|1:2,0:0:0:0:
438,83,46371,1,2,0:0:0:0:
438,83,46542,2,0,L|376:88,1,49.4999984893799,10|10,0:0|0:3,0:0:0:0:
346,72,46885,2,0,L|288:78,1,49.4999984893799,6|0,0:3|1:0,0:0:0:0:
253,65,47228,6,0,P|194:69|167:30,1,98.9999969787599,4|2,1:1|1:2,0:0:0:0:
81,32,47914,2,0,P|98:113|100:145,1,98.9999969787599,10|0,0:0|0:0,0:0:0:0:
41,197,48600,2,0,P|9:244|14:288,1,98.9999969787599,2|2,1:2|1:2,0:0:0:0:
33,323,49114,1,2,0:0:0:0:
114,359,49457,2,0,P|168:332|216:318,1,98.9999969787599,2|0,0:0|0:0,0:0:0:0:
254,320,49971,6,0,P|289:318|332:262,1,110,6|10,1:1|0:0,0:0:0:0:
334,212,50485,1,2,0:0:0:0:
334,212,50657,2,0,L|317:134,1,55,0|2,1:0|1:2,0:0:0:0:
311,109,51000,1,8,0:0:0:0:
227,56,51342,6,0,L|238:0,2,55,10|8|4,1:2|1:3|1:3,0:0:0:0:
409,147,52714,6,0,P|472:148|511:201,2,115.49999647522,6|8|2,1:2|0:0|1:2,0:0:0:0:
364,171,53571,1,0,1:0:0:0:
364,171,53742,1,8,0:0:0:0:
352,274,54085,2,0,P|301:280|234:302,1,115.49999647522,2|10,1:2|0:0,0:0:0:0:
192,320,54600,1,2,1:2:0:0:
105,273,54942,1,2,1:2:0:0:
105,273,55114,1,8,0:0:0:0:
12,226,55457,6,0,P|26:153|53:92,2,115.49999647522,2|8|2,1:2|0:0|1:2,0:0:0:0:
7,281,56314,1,0,1:0:0:0:
7,281,56485,1,8,0:0:0:0:
77,353,56828,2,0,P|135:361|177:310,1,115.49999647522,2|10,1:2|0:0,0:0:0:0:
192,275,57342,1,2,1:2:0:0:
175,177,57685,1,2,1:2:0:0:
175,177,57857,1,8,0:0:0:0:
109,96,58200,6,0,P|147:51|212:62,1,115.49999647522,6|10,1:1|0:0,0:0:0:0:
285,111,58885,1,2,1:2:0:0:
339,199,59228,2,0,P|318:274|309:332,1,115.49999647522,10|0,0:0|1:0,0:0:0:0:
404,369,59914,1,10,0:0:0:0:
404,369,60085,2,0,P|425:294|434:236,1,115.49999647522,0|0,1:0|1:0,0:0:0:0:
440,205,60600,1,10,0:0:0:0:
416,103,60942,6,0,P|470:91|492:21,2,115.49999647522,2|10|2,1:2|0:0|1:2,0:0:0:0:
378,74,61800,1,0,1:0:0:0:
378,74,61971,1,8,0:0:0:0:
273,69,62314,6,0,L|251:3,2,57.7499982376099,2|8|8,1:2|0:0|1:2,0:0:0:0:
305,168,63000,2,0,L|224:159,1,57.7499982376099,8|8,0:0|0:0,0:0:0:0:
200,140,63342,2,0,L|119:131,1,57.7499982376099,8|8,0:0|0:0,0:0:0:0:
96,109,63685,6,0,P|51:165|8:154,2,115.49999647522,6|8|2,1:2|0:0|1:2,0:0:0:0:
83,63,64542,1,0,1:0:0:0:
83,63,64714,1,8,0:0:0:0:
179,24,65057,2,0,P|238:38|291:59,1,115.49999647522,2|10,1:2|0:0,0:0:0:0:
335,80,65571,1,2,1:2:0:0:
381,178,65914,1,2,1:2:0:0:
381,178,66085,1,8,0:0:0:0:
387,281,66428,6,0,P|440:252|507:267,2,115.49999647522,2|8|2,1:2|0:0|1:2,0:0:0:0:
365,330,67285,1,0,1:0:0:0:
365,330,67457,1,8,0:0:0:0:
265,360,67800,2,0,P|194:340|131:330,1,115.49999647522,2|10,1:2|0:0,0:0:0:0:
100,331,68314,1,2,1:2:0:0:
29,254,68657,1,2,1:2:0:0:
29,254,68828,1,8,0:0:0:0:
4,153,69171,6,0,P|32:115|92:127,1,115.49999647522,6|10,1:1|0:0,0:0:0:0:
171,195,69857,1,2,1:2:0:0:
269,161,70200,2,0,P|272:89|290:33,1,115.49999647522,10|0,0:0|1:0,0:0:0:0:
375,0,70885,1,10,0:0:0:0:
473,33,71228,1,2,0:0:0:0:
505,131,71571,1,10,0:0:0:0:
431,204,71914,6,0,P|443:247|440:327,2,115.49999647522,2|10|2,1:2|0:0|1:2,0:0:0:0:
393,175,72771,1,0,1:0:0:0:
393,175,72942,1,8,0:0:0:0:
293,144,73285,2,0,L|310:82,2,57.7499982376099,2|0|8,1:2|1:0|0:0,0:0:0:0:
248,172,73800,1,0,1:0:0:0:
248,172,73971,2,0,L|262:244,1,57.7499982376099,10|4,1:2|0:3,0:0:0:0:
275,278,74314,2,0,L|261:350,1,57.7499982376099,2|8,1:0|0:3,0:0:0:0:
229,363,74657,6,0,P|173:375|60:287,1,197.99999395752,6|0,1:2|3:0,0:0:0:0:
9,108,76028,6,0,P|57:93|103:140,1,110,6|2,1:1|0:0,0:0:0:0:
118,174,76542,1,2,0:0:0:0:
204,222,76885,1,8,1:2:0:0:
204,222,77057,1,8,1:2:0:0:
289,271,77400,6,0,P|306:196|324:145,2,110,6|8|0,1:2|0:0|1:0,0:0:0:0:
303,323,78257,1,0,1:0:0:0:
303,323,78428,1,10,0:0:0:0:
393,362,78771,2,0,L|461:349,1,55,0|0,1:0|1:0,0:0:0:0:
490,328,79114,1,8,0:0:0:0:
490,328,79285,2,0,P|488:264|480:208,1,110,0|0,1:0|1:0,0:0:0:0:
472,169,79800,1,8,0:0:0:0:
403,97,80142,6,0,P|418:48|389:0,2,110,2|8|0,1:2|0:0|1:0,0:0:0:0:
359,116,81000,1,0,1:0:0:0:
359,116,81171,1,8,0:0:0:0:
266,152,81514,2,0,L|197:145,1,55,2|2,1:2|1:2,0:0:0:0:
162,137,81857,1,10,0:0:0:0:
162,137,82028,2,0,P|179:215|187:262,1,110,2|2,1:2|1:2,0:0:0:0:
188,294,82542,1,10,0:0:0:0:
103,345,82885,6,0,P|62:374|2:366,2,110,6|8|0,1:1|0:0|1:0,0:0:0:0:
93,301,83742,1,0,1:0:0:0:
93,301,83914,1,8,0:0:0:0:
30,224,84257,2,0,L|42:166,1,55,2|0,1:2|1:0,0:0:0:0:
33,125,84600,1,8,0:0:0:0:
33,125,84771,2,0,P|45:62|68:15,1,110,0|0,1:0|1:0,0:0:0:0:
111,4,85285,1,10,0:0:0:0:
203,38,85628,6,0,P|260:4|319:17,2,110,2|8|0,1:2|0:0|1:0,0:0:0:0:
193,89,86485,1,0,1:0:0:0:
193,89,86657,1,8,0:0:0:0:
268,153,87000,2,0,L|323:147,2,55,0|0|8,1:0|1:0|0:0,0:0:0:0:
173,181,87685,2,0,L|166:255,1,55,8|4,1:2|0:3,0:0:0:0:
202,271,88028,2,0,L|209:345,1,55,0|8,1:0|0:3,0:0:0:0:
227,371,88371,5,6,1:2:0:0:
256,192,88542,12,0,97971,0:0:0:0:
