osu file format v14

[General]
AudioFilename: audio.mp3
AudioLeadIn: 0
PreviewTime: 183505
Countdown: 0
SampleSet: Soft
StackLeniency: 0.6
Mode: 0
LetterboxInBreaks: 0
EpilepsyWarning: 1
WidescreenStoryboard: 1

[Editor]
Bookmarks: 52619,165076,176047,248733
DistanceSpacing: 0.8
BeatDivisor: 4
GridSize: 32
TimelineZoom: 2.5

[Metadata]
Title:Get the Freedom
TitleUnicode:Get the Freedom
Artist:Kicco
ArtistUnicode:Kicco
Creator:Bellicose
Version:Mayu's Expert.
Source:ねこツク、さくら。
Tags:Houshou Hari Shikibe Mayu Kazato Asa Shizuku- dahkjdas meis clauson angel note lump of sugar Nekotsuku Sakura kemonomimi eroge video game visual novel vn japanese pop rock opening full version
BeatmapID:3360035
BeatmapSetID:1644227

[Difficulty]
HPDrainRate:6
CircleSize:4
OverallDifficulty:8.6
ApproachRate:9
SliderMultiplier:1.76
SliderTickRate:1

[Events]
//Background and Video events
0,0,"bg2.jpg",0,0
//Break Periods
2,165276,175447
2,184476,188819
//Storyboard Layer 0 (Background)
//Storyboard Layer 1 (Fail)
//Storyboard Layer 2 (Pass)
//Storyboard Layer 3 (Foreground)
Sprite,Foreground,Centre,"sb\Shikibe Mayu.png",320,240 C,0,19704,,255,102,102 F,19,19704,20704,0,1 S,0,19704,22447,0.35,0.4 F,19,21762,22447,1,0
//Storyboard Layer 4 (Overlay)
//Storyboard Sound Samples

[TimingPoints]
505,342.857142857143,4,2,1,40,1,0
505,-166.666666666667,4,2,1,40,0,0
10705,-166.666666666667,4,2,1,5,0,0
10790,-100,4,2,1,50,0,0
11476,-100,4,2,1,70,0,0
16962,-100,4,2,1,70,0,0
22447,-142.857142857143,4,2,1,50,0,0
22790,-142.857142857143,4,2,2,50,0,0
27933,-142.857142857143,4,2,1,50,0,0
28276,-142.857142857143,4,2,2,50,0,0
32047,-100,4,2,1,60,0,0
36076,-100,4,2,1,5,0,0
36162,-100,4,2,1,60,0,0
38905,-100,4,2,1,60,0,0
41562,-100,4,2,1,5,0,0
41647,-111.111111111111,4,2,1,50,0,0
49876,-100,4,2,1,60,0,0
50133,-100,4,2,1,5,0,0
50219,-100,4,2,1,60,0,0
51162,-100,4,2,1,5,0,0
51247,-100,4,2,1,70,0,0
51933,-100,4,2,1,50,0,0
52619,-90.9090909090909,4,2,1,75,0,1
54762,-90.9090909090909,4,2,1,5,0,1
54847,-90.9090909090909,4,2,1,75,0,1
57505,-90.9090909090909,4,2,1,5,0,1
57590,-90.9090909090909,4,2,1,75,0,1
60762,-90.9090909090909,4,2,1,5,0,1
60847,-90.9090909090909,4,2,1,75,0,1
65733,-90.9090909090909,4,2,1,5,0,1
65819,-90.9090909090909,4,2,1,75,0,1
68562,-90.9090909090909,4,2,1,75,0,1
70447,-90.9090909090909,4,2,1,75,0,1
70705,-90.9090909090909,4,2,1,5,0,1
70790,-90.9090909090909,4,2,1,75,0,1
72419,-90.9090909090909,4,2,1,5,0,1
72505,-90.9090909090909,4,2,1,75,0,1
74562,-90.9090909090909,4,2,1,70,0,1
76962,-166.666666666667,4,2,1,70,0,1
77305,-100,4,2,1,70,0,0
88276,-100,4,2,1,60,0,0
90933,-100,4,2,1,5,0,0
91019,-100,4,2,1,60,0,0
93676,-100,4,2,1,5,0,0
93762,-100,4,2,1,60,0,0
96505,-100,4,2,1,60,0,0
107476,-111.111111111111,4,2,1,50,0,0
115705,-100,4,2,1,60,0,0
115962,-100,4,2,1,5,0,0
116047,-100,4,2,1,60,0,0
117076,-100,4,2,1,70,0,0
117762,-100,4,2,1,50,0,0
118447,-100,4,2,1,75,0,1
118790,-100,4,2,1,75,0,1
120076,-100,4,2,1,5,0,1
120162,-100,4,2,1,75,0,1
121190,-100,4,2,1,75,0,1
122819,-100,4,2,1,5,0,1
122905,-100,4,2,1,75,0,1
126933,-100,4,2,1,5,0,1
127019,-100,4,2,1,75,0,1
129762,-100,4,2,1,75,0,1
131047,-100,4,2,1,5,0,1
131133,-100,4,2,1,75,0,1
132162,-100,4,2,1,75,0,1
133790,-100,4,2,1,5,0,1
133876,-100,4,2,1,75,0,1
136276,-100,4,2,1,75,0,1
136533,-100,4,2,1,5,0,1
136619,-100,4,2,1,75,0,1
138333,-100,4,2,1,75,0,1
140390,-166.666666666667,4,2,1,70,0,0
141762,-111.111111111111,4,2,1,70,0,0
143133,-90.9090909090909,4,2,1,75,0,1
145276,-90.9090909090909,4,2,1,5,0,1
145362,-90.9090909090909,4,2,1,75,0,1
148876,-90.9090909090909,4,2,1,5,0,1
148962,-90.9090909090909,4,2,1,75,0,1
149390,-90.9090909090909,4,2,1,5,0,1
149476,-90.9090909090909,4,2,1,75,0,1
149562,-90.9090909090909,4,2,1,5,0,1
149647,-90.9090909090909,4,2,1,75,0,1
151962,-90.9090909090909,4,2,1,5,0,1
152047,-90.9090909090909,4,2,1,75,0,1
154447,-90.9090909090909,4,2,1,75,0,1
156762,-90.9090909090909,4,2,1,5,0,1
156847,-90.9090909090909,4,2,1,75,0,1
159590,-90.9090909090909,4,2,1,75,0,1
159762,-58.8235294117647,4,2,1,75,0,1
160190,-58.8235294117647,4,2,1,5,0,1
160276,-76.9230769230769,4,2,1,75,0,1
161990,-125,4,2,1,75,0,1
162333,-90.9090909090909,4,2,1,75,0,1
165076,-100,4,2,1,75,0,0
176047,-250,4,2,2,50,0,0
182905,-250,4,2,1,50,0,0
184276,-250,4,2,1,40,0,0
188905,-250,4,2,1,50,0,0
189762,-90.9090909090909,4,2,1,75,0,1
191047,-90.9090909090909,4,2,1,5,0,1
191133,-90.9090909090909,4,2,1,75,0,1
192847,-90.9090909090909,4,2,1,75,0,1
195590,-90.9090909090909,4,2,1,75,0,1
196876,-90.9090909090909,4,2,1,5,0,1
196962,-90.9090909090909,4,2,1,75,0,1
197990,-90.9090909090909,4,2,1,75,0,1
199619,-90.9090909090909,4,2,1,5,0,1
199705,-90.9090909090909,4,2,1,75,0,1
202019,-90.9090909090909,4,2,1,5,0,1
202105,-90.9090909090909,4,2,1,75,0,1
202447,-90.9090909090909,4,2,1,75,0,1
204162,-90.9090909090909,4,2,1,75,0,1
206219,-90.9090909090909,4,2,1,75,0,1
208447,-90.9090909090909,4,2,1,75,0,1
211105,-90.9090909090909,4,2,1,5,0,1
211190,-90.9090909090909,4,2,1,75,0,1
214447,-90.9090909090909,4,2,1,75,0,1
219333,-90.9090909090909,4,2,1,5,0,1
219419,-90.9090909090909,4,2,1,75,0,1
222076,-90.9090909090909,4,2,1,5,0,1
222162,-90.9090909090909,4,2,1,75,0,1
224047,-90.9090909090909,4,2,1,75,0,1
224305,-90.9090909090909,4,2,1,5,0,1
224390,-90.9090909090909,4,2,1,75,0,1
226105,-90.9090909090909,4,2,1,75,0,1
228162,-125,4,2,1,70,0,0
230819,-100,4,2,1,5,0,0
230905,-100,4,2,1,70,0,0
236390,-100,4,2,1,70,0,0
239390,-100,4,2,1,5,0,0
239476,-100,4,2,1,70,0,0
241876,-166.666666666667,4,2,1,70,0,0
241962,-166.666666666667,4,2,1,5,0,0
248733,-166.666666666667,4,2,99,5,0,0

[Colours]
Combo1 : 226,143,243
Combo2 : 139,222,254
Combo3 : 253,206,240
Combo4 : 150,166,254

[HitObjects]
385,384,505,6,0,P|400:322|416:282,1,105.599996777344,2|0,0:0|0:0,0:0:0:0:
502,216,1190,2,0,B|389:195|409:281|289:270,1,211.199993554688,2|2,0:0|0:0,0:0:0:0:
225,204,2219,2,0,P|234:153|242:87,2,105.599996777344,2|2|0,0:0|0:0|0:0,0:0:0:0:
196,336,3247,6,0,P|73:357|13:269,1,211.199993554688,2|2,0:0|0:0,0:0:0:0:
20,301,4619,2,0,P|33:244|43:187,1,105.599996777344,2|0,0:0|0:0,0:0:0:0:
192,128,5305,2,0,P|179:185|169:242,1,105.599996777344,2|0,0:0|0:0,0:0:0:0:
308,359,5990,6,0,P|361:343|413:331,2,105.599996777344,2|2|2,0:0|0:0|0:0,0:0:0:0:
210,313,7019,1,2,0:0:0:0:
296,259,7362,1,0,0:0:0:0:
296,259,7705,2,0,P|286:209|272:152,2,105.599996777344,2|2|2,0:0|0:0|0:0,0:0:0:0:
475,209,8733,6,0,P|406:209|349:189,1,105.599996777344,2|2,0:0|0:0,0:0:0:0:
221,11,9419,2,0,P|207:61|194:121,1,105.599996777344,2|0,0:0|0:0,0:0:0:0:
296,259,10105,2,0,P|222:258|146:298,1,158.399995166016,2|0,0:0|0:0,0:0:0:0:
76,249,10790,2,0,L|87:201,3,44,2|2|2|2,0:0|0:0|0:0|0:0,0:0:0:0:
32,129,11133,5,2,0:0:0:0:
22,109,11218,1,2,0:0:0:0:
25,88,11304,1,2,0:0:0:0:
39,72,11390,1,2,0:0:0:0:
61,66,11476,6,0,P|128:80|197:96,1,132,6|0,1:2|0:0,0:0:0:0:
229,105,11819,2,0,P|218:55|206:13,1,88,8|0,0:0|0:0,0:0:0:0:
409,211,12162,5,0,1:0:0:0:
471,41,12333,1,0,1:0:0:0:
403,233,12505,1,10,0:0:0:0:
230,105,12676,6,0,P|160:95|99:178,1,176,2|0,0:0|1:0,0:0:0:0:
239,263,13190,1,8,0:0:0:0:
121,359,13362,1,0,1:0:0:0:
267,252,13533,6,0,P|323:237|367:222,1,88,2|0,0:0|1:0,0:0:0:0:
123,186,13876,2,0,P|67:201|23:216,1,88,8|0,0:0|0:0,0:0:0:0:
256,0,14219,6,0,P|282:72|263:142,1,132,2|0,1:2|0:0,0:0:0:0:
243,167,14562,2,0,P|257:210|270:269,1,88,8|0,0:0|0:0,0:0:0:0:
394,377,14905,5,0,1:0:0:0:
349,170,15076,1,0,1:0:0:0:
507,298,15247,2,0,P|448:267|372:282,1,132,8|0,0:0|0:0,0:0:0:0:
367,291,15590,5,2,1:2:0:0:
149,230,15762,1,0,1:0:0:0:
349,170,15933,1,10,0:0:0:0:
186,338,16105,2,0,P|128:322|65:315,1,88,2|0,1:2|0:0,0:0:0:0:
226,161,16447,5,0,1:0:0:0:
268,356,16618,1,10,0:0:0:0:
408,258,16790,5,0,3:0:0:0:
408,258,16875,1,0,3:0:0:0:
408,258,16962,2,0,B|420:205|420:205|438:179|438:179|453:110,1,132,6|0,1:2|0:0,0:0:0:0:
453,104,17305,2,0,P|405:119|349:134,1,88,8|0,0:0|0:0,0:0:0:0:
276,33,17647,5,0,1:0:0:0:
238,208,17819,1,0,1:0:0:0:
59,162,17990,1,8,0:0:0:0:
98,1,18162,1,0,0:0:0:0:
262,116,18333,6,0,P|219:128|176:136,1,88,2|0,1:2|1:0,0:0:0:0:
347,224,18676,1,8,0:0:0:0:
276,33,18847,1,0,1:0:0:0:
474,9,19019,5,2,0:0:0:0:
350,135,19190,1,0,1:0:0:0:
426,274,19362,2,0,P|479:260|513:254,1,88,10|0,0:0|0:0,0:0:0:0:
285,384,19705,6,0,P|254:326|269:253,1,132,2|0,1:2|0:0,0:0:0:0:
221,234,20047,2,0,P|169:247|125:255,1,88,8|0,0:0|0:0,0:0:0:0:
338,309,20390,5,0,1:0:0:0:
262,137,20562,1,0,1:0:0:0:
429,30,20733,1,8,0:0:0:0:
512,176,20905,5,0,3:0:0:0:
512,176,20990,1,0,3:0:0:0:
512,176,21076,2,0,P|443:160|404:156,1,88,0|0,1:0|1:0,0:0:0:0:
297,29,21419,1,8,0:0:0:0:
247,236,21590,5,8,0:0:0:0:
247,236,21676,1,8,0:0:0:0:
247,236,21762,1,8,1:2:0:0:
170,108,21933,1,8,0:3:0:0:
336,177,22105,1,8,1:2:0:0:
159,287,22276,1,4,0:3:0:0:
352,384,22447,6,0,P|404:348|462:360,1,123.199996240234,6|8,1:2|0:0,0:0:0:0:
417,207,22962,2,0,P|404:249|396:282,1,61.5999981201172,2|8,0:0|0:0,0:0:0:0:
314,210,23305,1,2,1:2:0:0:
314,210,23476,2,0,P|321:180|331:150,1,61.5999981201172,8|0,0:0|1:0,0:0:0:0:
257,300,23819,6,0,P|170:319|114:337,1,123.199996240234,10|10,0:0|0:0,0:0:0:0:
50,384,24333,2,0,P|9:310|24:257,1,123.199996240234,2|2,1:2|1:2,0:0:0:0:
115,190,24847,2,0,P|104:227|98:256,1,61.5999981201172,8|0,0:0|1:0,0:0:0:0:
224,204,25190,6,0,P|311:183|357:172,1,123.199996240234,2|10,1:2|0:0,0:0:0:0:
436,220,25705,2,0,P|470:157|456:98,1,123.199996240234,2|2,0:0|1:2,0:0:0:0:
372,11,26219,1,8,0:0:0:0:
372,11,26390,1,0,1:0:0:0:
284,72,26562,6,0,P|323:83|356:92,1,61.5999981201172,10|0,0:0|0:0,0:0:0:0:
228,5,26905,1,10,0:0:0:0:
209,138,27076,2,0,P|161:176|88:167,1,123.199996240234,2|2,1:2|1:2,0:0:0:0:
116,36,27590,2,0,P|128:73|137:110,1,61.5999981201172,8|0,0:0|1:0,0:0:0:0:
253,211,27933,6,0,P|265:150|283:91,1,123.199996240234,6|10,1:2|0:0,0:0:0:0:
358,162,28447,2,0,P|419:165|475:120,1,123.199996240234,2|2,0:0|1:2,0:0:0:0:
407,23,28962,2,0,P|399:59|393:89,1,61.5999981201172,8|0,0:0|1:0,0:0:0:0:
504,270,29305,6,0,P|435:254|367:248,1,123.199996240234,10|10,0:0|0:0,0:0:0:0:
322,373,29819,2,0,P|400:368|435:320,1,123.199996240234,2|2,1:2|1:2,0:0:0:0:
308,206,30333,2,0,P|297:240|290:278,1,61.5999981201172,8|0,0:0|1:0,0:0:0:0:
193,148,30676,6,0,P|187:110|177:76,1,61.5999981201172,10|0,0:0|0:0,0:0:0:0:
270,99,31019,1,10,0:0:0:0:
214,11,31190,2,0,P|158:47|93:38,1,123.199996240234,2|2,0:0|1:2,0:0:0:0:
27,97,31705,1,8,0:0:0:0:
27,97,31876,1,0,1:0:0:0:
193,148,32047,6,0,P|140:159|103:170,1,88,6|0,1:2|1:0,0:0:0:0:
189,254,32390,1,10,0:0:0:0:
0,335,32562,2,2,P|92:323|157:404,1,176,6|0,1:2|1:0,0:1:0:0:
286,301,33076,1,10,0:0:0:0:
291,275,33162,1,10,0:0:0:0:
296,249,33247,1,10,0:0:0:0:
302,223,33333,1,10,0:0:0:0:
307,197,33419,6,0,P|295:152|286:102,1,88,6|0,1:2|0:0,0:0:0:0:
339,12,33762,1,10,0:0:0:0:
174,102,33933,2,0,P|114:84|68:76,1,88,2|0,0:1|1:0,0:0:0:0:
374,160,34276,5,2,1:0:0:0:
231,4,34447,1,10,0:1:0:0:
207,205,34619,1,0,0:0:0:0:
357,79,34790,6,0,P|440:98|462:177,1,176,2|10,1:2|0:0,0:0:0:0:
332,333,35305,1,2,1:0:0:0:
332,333,35390,1,0,1:0:0:0:
332,333,35476,1,0,1:0:0:0:
374,160,35647,1,2,1:0:0:0:
239,246,35819,2,0,P|190:226|149:218,1,88,10|0,0:1|0:0,0:0:0:0:
196,29,36162,6,0,P|267:66|267:162,1,176,2|10,1:2|0:0,0:0:0:0:
442,280,36676,1,2,1:1:0:0:
442,280,36762,1,0,1:0:0:0:
442,280,36847,1,0,1:0:0:0:
409,142,37019,1,2,1:0:0:0:
306,348,37190,2,0,P|259:335|207:329,1,88,10|0,0:1|0:0,0:0:0:0:
62,195,37533,6,0,P|137:155|202:170,1,132,2|0,1:2|0:0,0:0:0:0:
212,182,37876,1,8,0:0:0:0:
385,119,38047,1,2,1:0:0:0:
385,119,38133,1,0,1:0:0:0:
385,119,38219,1,0,1:0:0:0:
240,25,38390,1,2,1:0:0:0:
313,201,38562,2,0,P|301:243|291:294,1,88,10|0,0:1|0:0,0:0:0:0:
320,329,38819,5,8,0:0:0:0:
320,329,38905,2,0,P|363:315|420:299,1,88,2|0,1:2|0:0,0:0:0:0:
208,224,39247,1,10,0:0:0:0:
155,380,39419,2,0,P|93:317|116:233,1,176,2|2,0:1|1:0,0:0:0:0:
231,112,39933,2,0,P|219:161|208:204,1,88,10|0,0:1|0:0,0:0:0:0:
320,329,40276,6,0,B|408:309|408:309|453:337|494:325,1,176,2|10,1:2|0:0,0:0:0:0:
332,225,40790,1,8,0:3:0:0:
332,225,40876,1,8,0:3:0:0:
332,225,40962,1,0,1:0:0:0:
497,174,41133,1,4,0:3:0:0:
379,70,41305,2,0,P|392:116|403:164,1,88,0|0,1:0|0:0,0:0:0:0:
247,282,41647,6,0,P|201:249|123:268,1,118.799996374512,4|0,1:2|0:0,0:0:0:0:
109,280,41990,2,0,P|67:271|29:264,1,79.1999975830079,2|0,1:2|0:0,0:0:0:0:
216,183,42333,6,0,P|259:116|229:31,1,158.399995166016,10|0,0:0|0:0,0:0:0:0:
240,43,42847,1,0,0:0:0:0:
19,73,43019,6,0,P|105:87|173:105,1,158.399995166016,2|2,1:2|1:2,0:0:0:0:
119,8,43533,1,2,0:0:0:0:
119,8,43619,1,2,0:0:0:0:
119,8,43705,1,8,0:0:0:0:
71,180,43876,1,2,0:0:0:0:
216,183,44047,2,0,P|277:163|345:143,1,118.799996374512,0|0,1:0|0:0,0:0:0:0:
375,172,44390,1,0,1:0:0:0:
495,51,44733,6,0,P|482:95|475:127,1,79.1999975830079,2|0,1:2|0:0,0:0:0:0:
395,248,45076,2,0,P|382:204|375:172,1,79.1999975830079,10|0,0:0|0:0,0:0:0:0:
317,58,45418,2,0,P|366:67|414:81,1,79.1999975830079,2|0,0:0|0:0,0:0:0:0:
236,202,45762,6,0,P|147:210|99:161,1,158.399995166016,2|2,1:2|1:2,0:0:0:0:
191,120,46276,1,10,0:0:0:0:
191,120,46362,1,8,0:0:0:0:
191,120,46447,1,8,0:0:0:0:
140,260,46619,1,10,0:0:0:0:
0,204,46790,1,8,0:3:0:0:
50,368,46962,1,4,0:3:0:0:
245,307,47133,6,0,P|325:328|369:343,1,118.799996374512,4|0,1:2|0:0,0:0:0:0:
359,339,47476,2,0,P|349:295|342:253,1,79.1999975830079,2|0,1:2|0:0,0:0:0:0:
465,137,47819,2,0,P|481:225|420:283,1,158.399995166016,10|0,0:0|0:0,0:0:0:0:
308,193,48333,1,0,0:0:0:0:
270,310,48505,6,0,P|220:298|170:284,1,79.1999975830079,2|0,1:2|0:0,0:0:0:0:
24,218,48847,1,2,1:2:0:0:
114,341,49019,5,2,0:0:0:0:
114,341,49105,1,2,0:0:0:0:
114,341,49190,2,0,P|103:281|92:247,1,79.1999975830079,8|2,0:0|0:0,0:0:0:0:
216,114,49533,2,0,P|205:152|199:191,1,79.1999975830079,0|0,1:0|0:0,0:0:0:0:
346,363,49876,6,0,P|407:323|468:331,1,132,6|0,1:2|0:0,0:0:0:0:
499,345,50219,1,10,0:0:0:0:
440,180,50390,1,2,0:0:0:0:
440,180,50476,1,2,0:0:0:0:
440,180,50562,1,0,1:0:0:0:
306,269,50733,1,2,1:2:0:0:
210,119,50905,2,0,P|201:68|179:18,1,88,8|0,0:0|0:0,0:0:0:0:
69,295,51247,5,10,1:2:0:0:
122,97,51419,1,8,1:3:0:0:
324,173,51590,1,4,1:3:0:0:
324,173,51933,6,0,P|398:178|446:116,1,132,2|0,0:0|0:0,0:0:0:0:
446,116,52276,2,0,P|436:71|426:15,1,88,2|0,0:0|0:0,0:0:0:0:
250,93,52619,6,0,P|195:42|113:66,1,145.200004431152,6|0,1:2|0:0,0:0:0:0:
103,76,52962,2,0,P|118:124|134:187,1,96.8000029541017,8|0,0:0|0:0,0:0:0:0:
130,377,53305,1,2,1:2:0:0:
260,194,53476,1,0,1:0:0:0:
62,273,53647,1,8,0:0:0:0:
261,332,53819,5,0,3:0:0:0:
261,332,53905,1,0,3:0:0:0:
261,332,53990,1,2,1:2:0:0:
62,273,54162,2,0,P|51:227|36:176,1,96.8000029541017,0|10,0:0|0:0,0:0:0:0:
260,194,54505,6,0,B|297:195|336:173|336:173|378:206|455:213,1,193.600005908203,2|2,1:2|1:2,0:0:0:0:
332,276,55019,1,8,0:0:0:0:
282,95,55190,5,0,3:0:0:0:
282,95,55276,1,0,3:0:0:0:
282,95,55362,1,2,1:2:0:0:
342,303,55533,1,0,0:0:0:0:
137,226,55705,2,0,P|188:212|232:200,1,96.8000029541017,8|0,0:0|0:0,0:0:0:0:
470,226,56047,6,0,P|514:150|491:82,1,145.200004431152,2|0,1:2|0:0,0:0:0:0:
474,74,56390,2,0,P|423:88|378:98,1,96.8000029541017,8|0,0:0|0:0,0:0:0:0:
249,192,56733,5,2,1:2:0:0:
298,3,56905,1,0,0:0:0:0:
241,212,57076,1,10,0:0:0:0:
53,96,57247,6,0,B|74:81|99:56|99:56|164:84|231:93,1,193.600005908203,2|2,1:2|1:2,0:0:0:0:
430,177,57762,1,8,0:0:0:0:
367,2,57933,5,8,0:3:0:0:
367,2,58019,1,8,0:3:0:0:
367,2,58105,2,0,P|348:51|334:100,1,96.8000029541017,6|0,1:2|0:0,0:0:0:0:
427,324,58447,2,0,P|476:266|452:180,1,145.200004431152,10|0,0:0|0:0,0:0:0:0:
430,177,58790,2,0,P|379:193|334:203,1,96.8000029541017,2|0,1:2|1:0,0:0:0:0:
252,356,59133,1,10,0:0:0:0:
159,209,59305,5,0,3:0:0:0:
159,209,59390,1,0,3:0:0:0:
159,209,59476,1,0,1:0:0:0:
345,297,59647,1,0,0:0:0:0:
289,122,59819,1,10,0:0:0:0:
182,315,59990,6,0,P|116:331|47:226,1,193.600005908203,0|0,1:0|1:0,0:0:0:0:
164,100,60505,2,0,P|143:163|131:207,1,96.8000029541017,10|0,0:0|0:0,0:0:0:0:
308,372,60847,6,0,P|342:305|319:229,1,145.200004431152,2|0,1:2|0:0,0:0:0:0:
296,209,61190,2,0,P|244:223|189:240,1,96.8000029541017,10|0,0:0|0:0,0:0:0:0:
202,235,61447,1,8,0:0:0:0:
202,235,61533,1,2,1:2:0:0:
414,173,61705,1,0,1:0:0:0:
353,25,61876,2,0,P|340:82|330:133,1,96.8000029541017,8|0,0:0|0:0,0:0:0:0:
120,273,62219,5,2,1:2:0:0:
200,56,62390,1,8,0:0:0:0:
206,75,62476,1,8,0:0:0:0:
213,95,62561,1,8,0:0:0:0:
62,188,62733,1,8,0:0:0:0:
43,184,62819,1,8,0:0:0:0:
24,180,62905,1,8,1:2:0:0:
198,367,63076,5,8,0:0:0:0:
237,370,63161,1,8,0:0:0:0:
275,357,63247,1,8,1:2:0:0:
303,328,63333,1,8,0:0:0:0:
316,290,63418,1,8,0:0:0:0:
311,251,63504,1,8,0:0:0:0:
289,217,63590,6,0,P|303:170|317:121,1,96.8000029541017,6|0,1:2|0:0,0:0:0:0:
216,14,63933,2,0,P|179:76|203:148,1,145.200004431152,8|0,0:0|0:0,0:0:0:0:
202,146,64276,2,0,P|155:155|102:170,1,96.8000029541017,0|0,1:0|1:0,0:0:0:0:
272,75,64619,1,8,0:0:0:0:
430,181,64790,5,0,3:0:0:0:
430,181,64876,1,0,3:0:0:0:
430,181,64962,1,2,1:2:0:0:
385,7,65133,2,0,P|369:59|356:108,1,96.8000029541017,0|10,0:0|0:0,0:0:0:0:
211,234,65476,6,0,P|127:173|36:207,1,193.600005908203,2|2,1:2|1:2,0:0:0:0:
225,94,65990,1,8,0:0:0:0:
120,271,66162,5,0,3:0:0:0:
120,271,66247,1,0,3:0:0:0:
120,271,66333,2,0,P|129:316|144:374,1,96.8000029541017,2|0,1:2|0:0,0:0:0:0:
319,232,66676,1,8,0:0:0:0:
268,384,66847,1,0,0:0:0:0:
212,223,67019,6,0,B|203:188|190:156|190:156|204:105|204:105|188:73|180:26,1,193.600005908203,2|8,1:2|0:0,0:0:0:0:
349,95,67533,5,0,3:0:0:0:
349,95,67619,1,0,3:0:0:0:
349,95,67705,1,2,1:2:0:0:
294,262,67876,1,0,0:0:0:0:
474,221,68047,1,8,0:0:0:0:
319,364,68219,6,0,P|271:353|222:346,1,96.8000029541017,2|0,1:2|0:0,0:0:0:0:
223,346,68476,1,0,1:0:0:0:
223,346,68562,1,2,1:2:0:0:
376,242,68733,1,8,0:0:0:0:
223,183,68905,5,8,0:3:0:0:
223,183,68990,1,8,0:3:0:0:
223,183,69076,2,0,P|164:225|87:209,1,145.200004431152,6|0,1:2|0:0,0:0:0:0:
64,194,69419,2,0,P|74:142|83:89,1,96.8000029541017,10|0,0:0|0:0,0:0:0:0:
229,47,69762,1,2,1:2:0:0:
297,254,69933,1,0,1:0:0:0:
469,205,70105,6,0,P|519:133|499:61,1,145.200004431152,10|0,0:0|0:0,0:0:0:0:
485,56,70447,2,0,P|420:74|377:82,1,96.8000029541017,0|0,1:0|0:0,0:0:0:0:
227,184,70790,5,10,0:0:0:0:
317,31,70962,1,0,1:0:0:0:
149,126,71133,1,2,0:0:0:0:
350,220,71305,1,0,1:0:0:0:
194,311,71476,2,0,P|207:256|219:214,1,96.8000029541017,8|0,0:0|0:0,0:0:0:0:
13,5,71819,6,0,P|-14:87|28:144,1,145.200004431152,2|0,1:2|0:0,0:0:0:0:
56,153,72162,2,0,P|105:139|156:125,1,96.8000029541017,10|0,0:0|0:0,0:0:0:0:
132,380,72505,5,2,1:2:0:0:
32,248,72676,1,0,1:0:0:0:
243,104,72847,1,8,0:0:0:0:
196,311,73019,5,0,3:0:0:0:
196,311,73105,1,0,3:0:0:0:
196,311,73190,2,0,P|177:258|159:220,1,96.8000029541017,2|0,1:2|1:0,0:0:0:0:
318,139,73533,1,8,0:0:0:0:
383,344,73705,5,8,0:3:0:0:
383,344,73790,1,8,0:0:0:0:
383,344,73876,1,10,1:2:0:0:
251,217,74047,1,8,0:3:0:0:
437,157,74219,1,10,1:2:0:0:
358,240,74390,1,4,0:3:0:0:
171,176,74562,5,6,1:2:0:0:
256,192,74647,12,0,75762,0:0:0:0:
8,312,75933,6,0,B|25:231|161:173|257:237|257:237|208:243|174:297,1,387.200011816407,6|0,1:2|0:0,0:0:0:0:
272,380,76790,5,10,0:0:0:0:
272,380,76962,2,0,L|259:317,1,52.7999983886719,8|0,0:0|0:0,0:0:0:0:
418,104,77305,6,0,P|468:165|442:233,1,132,6|0,1:2|0:0,0:0:0:0:
439,242,77647,2,0,P|385:230|330:222,1,88,8|0,0:0|0:0,0:0:0:0:
258,137,77990,1,0,1:0:0:0:
211,320,78162,1,0,1:0:0:0:
59,193,78333,1,10,0:0:0:0:
233,222,78505,5,2,0:2:0:0:
233,222,78590,1,2,0:0:0:0:
233,222,78676,2,0,P|190:234|149:250,1,88,0|0,1:0|1:0,0:0:0:0:
211,320,79019,1,8,0:0:0:0:
59,193,79190,2,0,P|31:106|63:21,1,176,0|0,1:0|1:0,0:0:0:0:
195,6,79705,1,8,0:0:0:0:
159,156,79876,1,0,0:0:0:0:
326,206,80047,6,0,P|404:176|477:162,1,132,2|0,1:2|0:0,0:0:0:0:
488,180,80390,2,0,P|504:136|491:91,1,88,8|0,0:0|0:0,0:0:0:0:
379,284,80733,1,0,1:0:0:0:
290,111,80905,1,0,1:0:0:0:
483,259,81076,2,0,P|472:308|461:362,1,88,8|0,0:0|0:0,0:0:0:0:
464,344,81333,1,8,0:0:0:0:
464,344,81419,5,2,1:2:0:0:
326,206,81590,1,0,1:0:0:0:
229,384,81762,1,10,0:0:0:0:
411,245,81933,1,2,1:2:0:0:
418,212,82018,1,8,0:0:0:0:
412,180,82104,1,0,1:0:0:0:
396,152,82190,1,8,0:0:0:0:
370,132,82275,1,0,1:0:0:0:
218,276,82447,2,0,P|262:285|313:306,1,88,10|0,0:0|0:0,0:0:0:0:
318,63,82790,6,0,P|258:107|171:97,1,132,6|0,1:2|0:0,0:0:0:0:
159,90,83133,2,0,P|148:39|137:1,1,88,8|0,0:0|0:0,0:0:0:0:
94,250,83476,5,0,1:0:0:0:
13,78,83647,1,0,1:0:0:0:
216,194,83819,1,8,0:0:0:0:
13,326,83990,1,0,0:0:0:0:
241,203,84162,6,0,P|287:217|333:231,1,88,2|0,1:2|1:0,0:0:0:0:
405,147,84505,1,8,0:0:0:0:
510,286,84676,2,0,P|441:349|334:318,1,176,2|0,1:2|1:0,0:0:0:0:
227,296,85190,2,0,P|237:343|249:393,1,88,10|0,0:0|0:0,0:0:0:0:
417,264,85533,6,0,P|445:174|453:78,1,176,2|8,1:2|0:0,0:0:0:0:
308,13,86047,1,8,0:0:0:0:
308,13,86133,1,8,0:0:0:0:
308,13,86219,1,0,1:0:0:0:
373,182,86390,1,0,1:0:0:0:
178,142,86562,2,0,P|222:126|276:120,1,88,8|0,0:0|0:0,0:0:0:0:
156,26,86905,5,0,1:0:0:0:
238,242,87076,1,0,1:0:0:0:
13,209,87247,1,8,0:0:0:0:
212,110,87419,5,8,0:0:0:0:
212,110,87505,1,8,0:0:0:0:
212,110,87590,1,8,1:2:0:0:
130,209,87762,1,8,0:3:0:0:
85,92,87933,1,8,1:2:0:0:
237,199,88105,1,4,0:3:0:0:
0,328,88276,6,0,B|33:289|87:297|87:297|110:332|156:332,1,176,6|10,1:2|0:0,0:0:0:0:
313,261,88790,1,2,1:1:0:0:
313,261,88876,1,0,1:0:0:0:
313,261,88962,1,0,1:0:0:0:
253,375,89133,1,2,1:0:0:0:
164,239,89305,2,0,P|172:194|183:139,1,88,10|0,0:1|0:0,0:0:0:0:
324,229,89647,6,0,P|390:182|492:199,1,176,2|10,1:2|0:0,0:0:0:0:
299,118,90162,2,0,P|309:69|316:25,1,88,2|0,1:0|0:0,0:0:0:0:
422,273,90505,1,2,1:0:0:0:
422,273,90676,2,0,P|412:322|405:366,1,88,10|0,0:1|0:0,0:0:0:0:
254,187,91019,6,0,B|160:176|187:237|68:217,1,176,2|10,1:2|0:0,0:0:0:0:
224,281,91533,1,2,1:1:0:0:
224,281,91619,1,0,1:0:0:0:
224,281,91705,1,0,1:0:0:0:
165,111,91876,1,2,1:0:0:0:
336,209,92047,2,0,P|397:182|479:165,1,132,10|0,0:1|0:0,0:0:0:0:
490,174,92390,6,0,P|509:128|501:77,1,88,2|0,1:2|1:0,0:0:0:0:
431,267,92733,1,8,0:0:0:0:
410,85,92905,6,0,P|316:78|214:53,1,176,2|2,1:0|1:0,0:0:0:0:
304,160,93419,1,10,0:1:0:0:
334,0,93590,1,0,0:0:0:0:
133,56,93762,6,0,P|150:108|159:144,1,88,2|0,1:2|0:0,0:0:0:0:
201,310,94105,1,10,0:0:0:0:
0,279,94276,2,0,P|78:223|175:243,1,176,2|2,0:1|1:0,0:0:0:0:
290,358,94790,1,10,0:1:0:0:
241,171,94962,1,0,0:0:0:0:
385,269,95133,6,0,P|433:255|488:245,1,88,2|0,1:2|1:0,0:0:0:0:
338,183,95476,1,8,0:0:0:0:
201,310,95647,6,0,B|156:314|124:334|124:334|68:339|29:284,1,176,2|2,1:0|1:0,0:0:0:0:
148,131,96162,2,0,P|133:183|117:238,1,88,10|0,0:1|0:0,0:0:0:0:
123,215,96419,1,8,0:0:0:0:
123,215,96505,1,2,1:2:0:0:
62,72,96676,1,0,0:0:0:0:
245,122,96847,1,10,0:0:0:0:
62,72,97019,6,0,P|119:62|167:44,1,88,2|0,0:1|1:0,0:0:0:0:
312,179,97362,1,2,1:0:0:0:
269,37,97533,2,0,P|254:83|244:123,1,88,10|0,0:1|0:0,0:0:0:0:
423,263,97876,5,6,1:2:0:0:
356,77,98047,1,0,1:0:0:0:
509,156,98219,1,10,0:0:0:0:
353,356,98390,6,2,P|281:306|192:339,1,176,6|0,1:2|1:0,0:1:0:0:
10,198,98905,1,10,0:0:0:0:
48,190,98990,1,10,0:0:0:0:
87,182,99076,1,10,0:0:0:0:
126,174,99162,1,10,0:0:0:0:
172,164,99247,6,0,B|183:140|182:111|182:111|224:68|210:-2,1,176,6|10,1:2|0:0,0:0:0:0:
384,122,99762,1,2,0:1:0:0:
258,225,99933,6,0,P|271:172|284:132,1,88,0|2,1:0|1:0,0:0:0:0:
461,60,100276,2,0,P|474:113|487:153,1,88,10|0,0:1|0:0,0:0:0:0:
484,144,100533,1,8,0:0:0:0:
484,144,100619,1,2,1:2:0:0:
347,251,100790,1,0,1:0:0:0:
382,91,100962,1,10,0:0:0:0:
439,273,101133,6,0,P|364:344|278:317,1,176,2|2,1:0|1:0,0:0:0:0:
173,194,101647,1,10,0:1:0:0:
133,326,101819,5,0,3:0:0:0:
133,326,101905,1,0,3:0:0:0:
133,326,101990,2,0,P|179:306|221:298,1,88,2|0,1:2|0:0,0:0:0:0:
105,146,102333,1,10,0:0:0:0:
325,50,102505,6,0,P|298:120|277:223,1,176,2|2,0:1|1:0,0:0:0:0:
228,73,103019,1,10,0:1:0:0:
383,147,103190,5,0,3:0:0:0:
383,147,103276,1,0,3:0:0:0:
383,147,103362,2,0,P|440:131|477:121,1,88,2|0,1:2|1:0,0:0:0:0:
387,32,103705,1,8,0:0:0:0:
202,81,103876,6,0,P|138:98|54:121,1,132,2|0,1:0|0:0,0:0:0:0:
42,131,104219,1,2,1:0:0:0:
205,214,104390,1,10,0:1:0:0:
77,297,104562,5,0,3:0:0:0:
77,297,104647,1,0,3:0:0:0:
77,297,104733,2,0,P|86:244|97:206,1,88,2|0,1:2|0:0,0:0:0:0:
236,135,105076,1,10,0:0:0:0:
278,302,105247,2,0,P|221:318|177:331,1,88,2|0,0:1|1:0,0:0:0:0:
208,209,105590,5,2,1:0:0:0:
339,370,105762,2,0,P|367:307|348:246,1,132,10|0,0:1|0:0,0:0:0:0:
427,191,106105,6,0,P|471:203|524:213,1,88,2|0,1:2|1:0,0:0:0:0:
334,159,106447,1,10,0:0:0:0:
391,66,106619,6,0,B|359:80|325:85|325:85|301:116|301:116|265:122|220:140,1,176,8|4,0:3|0:3,0:0:0:0:
43,14,107133,2,0,P|123:18|153:108,1,176,0|4,1:0|1:2,0:0:0:0:
155,98,107819,6,0,P|145:141|137:183,1,79.1999975830079,2|0,1:2|0:0,0:0:0:0:
73,240,108162,2,0,P|144:219|231:202,1,158.399995166016,10|0,0:0|0:0,0:0:0:0:
468,302,108847,2,0,P|398:316|337:252,1,158.399995166016,2|2,1:2|1:2,0:0:0:0:
448,140,109362,1,2,0:0:0:0:
448,140,109447,1,2,0:0:0:0:
448,140,109533,1,8,0:0:0:0:
421,238,109705,1,2,0:0:0:0:
342,173,109876,2,0,P|333:133|322:94,1,79.1999975830079,0|0,1:0|0:0,0:0:0:0:
234,266,110219,6,0,P|171:224|81:245,2,158.399995166016,0|2|10,1:0|1:2|0:0,0:0:0:0:
234,266,111076,1,0,0:0:0:0:
171,384,111247,2,0,P|159:341|147:305,1,79.1999975830079,2|0,0:0|0:0,0:0:0:0:
291,187,111590,2,0,P|350:222|449:196,1,158.399995166016,2|2,1:2|1:2,0:0:0:0:
376,127,112105,5,10,0:0:0:0:
376,127,112190,1,8,0:0:0:0:
376,127,112276,1,8,0:0:0:0:
322,310,112447,1,10,0:0:0:0:
174,193,112619,1,8,0:3:0:0:
212,378,112790,1,4,0:3:0:0:
38,329,112962,1,4,1:2:0:0:
38,329,113305,6,0,P|87:312|130:302,1,79.1999975830079,2|0,1:2|0:0,0:0:0:0:
277,165,113647,6,0,P|329:215|419:186,1,158.399995166016,10|0,0:0|0:0,0:0:0:0:
354,133,114162,1,0,0:0:0:0:
211,221,114333,6,0,P|127:195|34:179,1,158.399995166016,2|2,1:2|1:2,0:0:0:0:
232,109,114847,1,2,0:0:0:0:
117,26,115019,2,0,P|130:74|138:104,1,79.1999975830079,8|2,0:0|0:0,0:0:0:0:
302,206,115362,2,0,P|316:149|338:90,1,118.799996374512,0|0,1:0|0:0,0:0:0:0:
327,63,115705,6,0,P|376:49|428:31,1,88,6|0,1:2|0:0,0:0:0:0:
318,220,116047,1,10,0:0:0:0:
216,40,116219,2,0,P|125:27|68:84,1,176,2|2,0:0|1:2,0:0:0:0:
223,259,116733,2,0,P|210:206|194:164,1,88,8|0,0:0|0:0,0:0:0:0:
198,174,116990,1,0,0:0:0:0:
198,174,117076,5,10,1:2:0:0:
406,43,117247,1,8,1:3:0:0:
492,274,117419,1,4,1:3:0:0:
492,274,117762,6,0,P|428:277|381:323,1,132,2|0,0:0|0:0,0:0:0:0:
375,356,118105,2,0,P|332:364|282:379,1,88,2|0,0:0|0:0,0:0:0:0:
223,191,118447,6,0,P|242:102|255:38,1,132,6|0,1:2|0:0,0:0:0:0:
263,25,118790,2,0,P|316:8|358:-4,1,88,8|0,0:0|0:0,0:0:0:0:
330,133,119133,5,2,1:2:0:0:
163,80,119305,1,0,1:0:0:0:
124,244,119476,2,0,P|140:296|153:346,1,88,8|0,0:0|0:0,0:0:0:0:
148,328,119733,1,8,0:0:0:0:
148,328,119819,5,2,1:2:0:0:
219,171,119990,1,0,0:0:0:0:
13,218,120162,1,10,0:0:0:0:
253,272,120333,6,0,P|325:281|387:296,1,132,2|0,1:2|0:0,0:0:0:0:
404,303,120676,1,2,1:2:0:0:
219,171,120847,1,8,0:0:0:0:
400,95,121019,5,0,3:0:0:0:
400,95,121105,1,0,3:0:0:0:
400,95,121190,2,0,P|378:137|368:187,1,88,2|0,1:2|0:0,0:0:0:0:
310,374,121533,2,0,P|241:323|172:339,1,132,8|0,0:0|0:0,0:0:0:0:
165,350,121876,2,0,P|117:364|73:374,1,88,2|0,1:2|1:0,0:0:0:0:
251,230,122219,1,8,0:0:0:0:
28,172,122390,5,0,3:0:0:0:
28,172,122476,1,0,3:0:0:0:
28,172,122562,1,2,1:2:0:0:
181,71,122733,1,0,0:0:0:0:
113,271,122905,1,10,0:0:0:0:
344,174,123076,6,0,P|402:151|441:142,1,88,2|0,1:2|0:0,0:0:0:0:
253,117,123419,1,2,1:2:0:0:
329,276,123590,2,0,P|315:320|306:361,1,88,8|8,0:0|0:3,0:0:0:0:
253,117,123933,6,0,P|200:79|99:100,1,132,6|0,1:2|0:0,0:0:0:0:
103,96,124276,2,0,P|113:143|121:190,1,88,10|0,0:0|0:0,0:0:0:0:
149,379,124619,1,2,1:2:0:0:
17,234,124790,1,0,1:0:0:0:
221,181,124962,2,0,P|210:234|199:281,1,88,10|0,0:0|0:0,0:0:0:0:
195,295,125219,1,8,0:0:0:0:
195,295,125305,5,0,1:0:0:0:
386,213,125476,2,0,P|343:223|300:235,1,88,0|10,0:0|0:0,0:0:0:0:
80,44,125819,6,0,B|186:22|138:95|285:63,1,176,0|0,1:0|1:0,0:0:0:0:
374,18,126333,1,10,0:0:0:0:
480,151,126505,5,0,3:0:0:0:
480,151,126590,1,0,3:0:0:0:
480,151,126676,2,0,P|489:96|503:52,1,88,2|0,1:2|0:0,0:0:0:0:
290,146,127019,1,10,0:0:0:0:
366,316,127190,5,0,3:0:0:0:
366,316,127276,1,0,3:0:0:0:
366,316,127362,1,2,1:2:0:0:
390,180,127533,1,0,1:0:0:0:
197,299,127705,2,0,P|210:345|222:395,1,88,8|0,0:0|0:0,0:0:0:0:
314,234,128047,5,2,1:2:0:0:
67,117,128219,1,8,0:0:0:0:
61,138,128304,1,8,0:0:0:0:
56,159,128390,1,8,1:2:0:0:
196,298,128562,1,8,0:0:0:0:
190,277,128647,1,8,0:0:0:0:
185,256,128733,1,8,1:2:0:0:
311,54,128905,5,8,0:0:0:0:
346,28,128990,1,8,0:0:0:0:
389,23,129076,1,8,1:2:0:0:
429,40,129162,1,8,0:0:0:0:
455,75,129247,1,8,0:0:0:0:
461,118,129333,1,8,0:0:0:0:
446,159,129419,6,0,P|382:173|301:193,1,132,6|0,1:2|0:0,0:0:0:0:
280,195,129762,2,0,L|290:145,1,44,8|0,0:0|0:0,0:0:0:0:
147,0,129933,5,0,3:0:0:0:
147,0,130019,1,0,3:0:0:0:
147,0,130105,1,0,1:0:0:0:
195,169,130276,1,0,1:0:0:0:
20,133,130447,2,0,P|72:114|123:102,1,88,8|0,0:0|0:0,0:0:0:0:
103,105,130705,1,8,0:0:0:0:
103,105,130790,5,2,1:2:0:0:
242,278,130962,2,0,P|197:277|153:264,1,88,0|10,0:0|0:0,0:0:0:0:
242,13,131305,6,0,P|223:112|206:192,1,176,2|2,1:2|1:2,0:0:0:0:
353,306,131819,1,8,0:0:0:0:
465,153,131990,5,0,3:0:0:0:
465,153,132076,1,0,3:0:0:0:
465,153,132162,2,0,P|419:163|368:177,1,88,2|0,1:2|0:0,0:0:0:0:
186,9,132505,2,0,P|257:20|294:82,1,132,8|0,0:0|0:0,0:0:0:0:
290,65,132847,1,2,1:2:0:0:
256,236,133019,1,0,1:0:0:0:
162,101,133190,1,8,0:0:0:0:
341,168,133362,5,0,3:0:0:0:
341,168,133447,1,0,3:0:0:0:
341,168,133533,2,0,P|384:153|433:138,1,88,2|0,1:2|0:0,0:0:0:0:
241,145,133876,1,8,0:0:0:0:
201,316,134047,6,0,B|119:301|121:349|14:334,1,176,2|2,1:2|1:2,0:0:0:0:
111,225,134562,1,8,0:0:0:0:
292,371,134733,5,8,0:3:0:0:
292,371,134819,1,8,0:3:0:0:
292,371,134905,2,0,P|314:320|302:264,1,88,6|0,1:2|0:0,0:0:0:0:
210,35,135247,2,0,P|188:86|200:142,1,88,10|0,0:0|0:0,0:0:0:0:
218,157,135505,1,8,0:0:0:0:
218,157,135590,2,0,P|264:146|313:135,1,88,2|0,1:2|1:0,0:0:0:0:
481,221,135933,1,10,0:0:0:0:
443,66,136105,5,0,3:0:0:0:
443,66,136190,1,0,3:0:0:0:
443,66,136276,1,0,1:0:0:0:
382,263,136447,1,0,0:0:0:0:
179,108,136619,1,10,0:0:0:0:
244,305,136790,2,0,P|256:257|272:211,1,88,0|2,1:0|0:0,0:0:0:0:
179,108,137133,5,0,1:0:0:0:
28,146,137305,2,0,P|38:103|53:61,1,88,8|0,0:0|0:0,0:0:0:0:
193,193,137647,6,0,P|277:166|336:154,1,132,2|0,1:2|0:0,0:0:0:0:
363,170,137990,1,10,0:0:0:0:
430,34,138162,1,0,3:0:0:0:
430,34,138247,1,0,3:0:0:0:
430,34,138333,1,2,1:2:0:0:
491,225,138505,1,0,1:0:0:0:
329,277,138676,2,0,P|273:263|227:259,1,88,8|0,0:0|0:0,0:0:0:0:
218,86,139019,5,2,1:2:0:0:
420,150,139190,1,0,1:0:0:0:
218,86,139362,1,8,0:0:0:0:
456,73,139533,5,8,0:3:0:0:
456,73,139619,1,8,0:0:0:0:
456,73,139705,1,10,1:2:0:0:
172,170,139876,1,8,0:3:0:0:
415,249,140047,1,10,1:2:0:0:
238,320,140219,1,4,0:3:0:0:
322,383,140390,6,0,P|325:246|318:46,1,316.799990332032,6|0,1:2|0:0,0:0:0:0:
192,0,141762,6,0,P|190:117|210:247,1,237.599992749024,6|2,1:2|0:0,0:0:0:0:
207,236,142619,5,10,0:0:0:0:
60,371,142790,2,2,P|10:324|9:266,1,118.799996374512,8|0,0:0|0:0,0:1:0:0:
110,198,143133,6,0,P|95:262|87:311,1,96.8000029541017,6|2,1:2|0:0,0:0:0:0:
89,292,143390,1,2,0:0:0:0:
89,292,143476,1,10,0:1:0:0:
40,133,143647,1,2,0:0:0:0:
277,177,143819,1,2,1:0:0:0:
214,384,143990,5,2,1:2:0:0:
214,384,144076,1,0,1:0:0:0:
214,384,144162,2,0,P|199:334|188:285,1,96.8000029541017,10|2,0:1|0:0,0:0:0:0:
346,80,144505,5,2,1:0:0:0:
304,287,144676,1,2,1:2:0:0:
349,63,144847,1,10,0:1:0:0:
512,137,145019,6,2,B|464:106|420:127|420:127|388:176|339:167,1,193.600005908203,2|2,1:0|1:0,0:1:0:0:
308,154,145447,1,0,1:0:0:0:
308,154,145533,1,10,0:0:0:0:
104,21,145705,2,2,P|118:75|128:116,1,96.8000029541017,2|0,0:1|1:0,0:1:0:0:
233,56,146047,5,2,0:0:0:0:
36,104,146219,1,10,0:1:0:0:
82,291,146390,1,2,0:0:0:0:
289,249,146562,5,2,1:0:0:0:
94,289,146733,1,2,1:2:0:0:
48,114,146905,1,10,0:1:0:0:
228,71,147076,6,2,P|320:94|437:103,1,193.600005908203,2|0,0:1|1:0,0:1:0:0:
418,103,147505,1,0,1:0:0:0:
418,103,147590,1,10,0:1:0:0:
267,226,147762,1,2,1:2:0:0:
400,292,147933,5,2,0:1:0:0:
400,292,148019,1,2,0:0:0:0:
400,292,148105,2,0,P|393:263|386:237,1,48.4000014770508,2|2,1:2|0:0,0:0:0:0:
302,114,148276,1,10,0:1:0:0:
258,133,148361,1,2,0:3:0:0:
210,127,148447,1,2,0:3:0:0:
173,97,148533,1,2,0:3:0:0:
157,52,148619,6,2,P|105:62|61:75,1,96.8000029541017,6|0,1:2|0:0,0:1:0:0:
248,42,148962,1,8,0:0:0:0:
195,232,149133,5,2,1:1:0:0:
195,232,149219,1,0,1:0:0:0:
195,232,149305,1,0,1:0:0:0:
248,42,149476,1,2,1:0:0:0:
433,92,149647,1,10,0:1:0:0:
383,273,149819,1,2,0:0:0:0:
210,127,149990,5,2,1:3:0:0:
174,118,150075,1,2,0:3:0:0:
138,121,150161,1,2,1:3:0:0:
105,136,150247,1,2,0:3:0:0:
79,161,150333,2,0,L|62:213,1,48.4000014770508,8|2,0:0|0:3,0:0:0:0:
147,384,150505,6,2,B|166:350|191:335|191:335|173:280|157:195,1,193.600005908203,2|0,1:0|1:0,0:1:0:0:
306,70,151019,1,10,0:0:0:0:
261,246,151190,2,0,P|275:297|287:346,1,96.8000029541017,2|2,0:0|1:3,0:0:0:0:
317,317,151447,1,2,0:3:0:0:
355,312,151533,1,2,0:3:0:0:
392,321,151619,1,2,0:3:0:0:
411,354,151705,6,0,P|457:340|506:329,1,96.8000029541017,10|0,0:1|0:0,0:0:0:0:
279,145,152047,2,0,P|233:159|184:170,1,96.8000029541017,2|2,1:0|1:2,0:0:0:0:
185,169,152305,1,0,1:0:0:0:
185,169,152390,2,0,P|190:146|194:117,1,48.4000014770508,10|0,0:1|0:0,0:0:0:0:
32,288,152562,6,2,B|92:268|123:314|113:320|140:367|203:348,1,193.600005908203,2|0,0:0|1:0,0:1:0:0:
293,241,153076,1,10,0:1:0:0:
351,374,153247,2,0,P|374:378|401:383,1,48.4000014770508,8|8,0:0|0:0,0:0:0:0:
488,224,153419,5,10,1:2:0:0:
508,191,153504,1,8,0:0:0:0:
510,153,153590,1,8,0:0:0:0:
491,120,153676,1,8,0:0:0:0:
448,102,153762,5,10,1:2:0:0:
406,113,153847,1,8,0:0:0:0:
364,123,153933,1,8,0:0:0:0:
322,134,154019,1,8,0:0:0:0:
279,145,154105,6,0,P|216:129|126:113,1,145.200004431152,6|0,1:2|0:0,0:0:0:0:
103,131,154447,2,0,L|88:77,1,48.4000014770508,8|0,0:0|0:0,0:0:0:0:
216,17,154619,5,2,1:1:0:0:
216,17,154705,1,0,1:0:0:0:
216,17,154790,1,2,1:2:0:0:
149,222,154962,1,2,1:2:0:0:
344,148,155133,5,10,0:1:0:0:
276,327,155305,1,2,0:0:0:0:
214,119,155476,1,2,1:2:0:0:
418,205,155647,6,0,L|470:192,1,48.4000014770508,2|0,1:0|0:0,0:0:0:0:
346,65,155819,1,10,0:0:0:0:
396,290,155990,1,2,1:2:0:0:
154,227,156162,6,0,P|97:239|48:249,1,96.8000029541017,2|0,0:1|1:0,0:0:0:0:
49,286,156419,1,0,1:0:0:0:
72,325,156505,2,0,P|119:315|166:305,1,96.8000029541017,10|0,0:1|0:0,0:0:0:0:
353,366,156847,5,2,1:0:0:0:
412,144,157019,1,2,0:0:0:0:
353,366,157190,1,10,0:0:0:0:
412,144,157362,1,2,0:0:0:0:
112,77,157533,5,0,1:0:0:0:
166,305,157705,1,0,1:0:0:0:
112,77,157876,6,0,L|101:130,1,48.4000014770508,10|0,0:1|0:0,0:0:0:0:
223,189,158047,6,2,P|324:161|424:142,1,193.600005908203,2|2,0:0|1:3,0:1:0:0:
443,165,158476,1,2,0:3:0:0:
443,165,158562,2,0,L|456:113,1,48.4000014770508,8|2,0:0|0:3,0:0:0:0:
307,75,158733,2,0,L|320:127,1,48.4000014770508,2|2,1:3|0:3,0:0:0:0:
464,248,158905,5,2,0:0:0:0:
480,292,158990,1,2,0:2:0:0:
470,342,159076,1,2,1:2:0:0:
429,365,159162,1,2,0:2:0:0:
373,369,159247,1,10,0:0:0:0:
338,338,159333,1,2,0:0:0:0:
289,322,159419,1,2,0:0:0:0:
246,330,159505,1,2,0:0:0:0:
211,367,159590,2,0,P|160:381|127:391,1,48.4000014770508,4|0,1:2|0:0,0:0:0:0:
0,217,159762,6,2,B|14:215|29:199|29:199|70:184|116:218|116:218|112:280|176:305,1,224.40000428009,2|0,0:1|0:0,0:1:0:0:
159,298,160105,1,2,0:1:0:0:
324,205,160276,6,0,P|257:223|204:242,1,114.399994763184,2|0,1:0|1:0,0:0:0:0:
198,222,160533,2,0,P|206:190|214:164,1,57.1999973815919,2|8,0:1|0:0,0:0:0:0:
153,38,160705,1,2,0:1:0:0:
153,38,160790,2,0,P|144:65|137:93,1,57.1999973815919,2|0,0:1|0:0,0:0:0:0:
324,205,160962,6,0,P|376:172|447:180,1,114.399994763184,2|2,1:0|1:0,0:0:0:0:
461,184,161219,1,0,1:0:0:0:
461,184,161305,1,8,0:0:0:0:
284,348,161476,6,2,B|215:381|162:304|206:331|157:250|66:292,1,228.799989526368,2|0,1:0|1:0,0:1:0:0:
40,308,161905,1,2,0:0:0:0:
40,308,161990,2,0,P|28:258|18:220,1,70.4,10|0,0:0|0:0,0:0:0:0:
142,4,162333,6,0,P|129:65|109:149,1,145.200004431152,0|0,1:0|0:0,0:0:0:0:
216,208,162676,5,10,0:1:0:0:
252,208,162762,1,2,0:0:0:0:
287,200,162847,1,2,0:0:0:0:
313,183,162933,1,10,0:0:0:0:
328,165,163019,5,2,1:0:0:0:
288,185,163105,1,2,0:0:0:0:
239,180,163190,1,2,1:2:0:0:
201,137,163276,1,2,0:0:0:0:
206,77,163362,1,10,0:1:0:0:
248,48,163447,1,2,0:0:0:0:
290,61,163533,2,0,P|279:86|273:112,1,48.4000014770508,2|2,0:0|0:0,0:0:0:0:
377,299,163705,5,2,1:2:0:0:
404,264,163790,1,2,0:2:0:0:
444,249,163876,1,2,1:2:0:0:
487,256,163962,1,2,0:0:0:0:
506,282,164047,5,10,0:1:0:0:
500,297,164133,1,2,0:0:0:0:
487,312,164219,1,10,0:0:0:0:
472,322,164305,1,10,0:0:0:0:
454,329,164390,5,10,1:0:0:0:
337,119,164562,1,8,0:3:0:0:
315,361,164733,1,8,1:0:0:0:
472,163,164905,1,4,0:3:0:0:
231,230,165076,5,4,1:0:0:0:
192,112,176047,6,0,B|129:16|-12:68|-57:182|40:306|135:320|175:280|192:264|267:288|293:365|293:365|284:281|344:214|368:227|487:271|527:110|446:-26|290:21|284:93,1,1126.4,6|6,0:0|0:0,0:0:0:0:
256,192,181876,1,2,0:0:0:0:
192,112,182219,1,2,0:0:0:0:
96,104,182562,1,2,0:0:0:0:
19,187,182905,6,0,P|37:253|53:326,1,140.8,2|2,0:0|0:0,0:0:0:0:
200,384,183933,1,2,0:0:0:0:
216,368,184276,1,2,0:0:0:0:
63,293,189419,6,0,L|51:344,1,52.8,2|2,0:0|0:0,0:0:0:0:
51,345,189762,6,0,P|133:322|241:303,1,193.600005908203,6|10,1:2|0:0,0:0:0:0:
445,364,190276,1,0,3:0:0:0:
445,364,190362,1,0,3:0:0:0:
445,364,190447,1,2,1:2:0:0:
388,157,190619,1,0,1:0:0:0:
328,384,190790,1,10,0:0:0:0:
388,157,190962,1,0,0:0:0:0:
203,170,191133,6,0,P|219:222|232:275,1,96.8000029541017,0|0,1:0|0:0,0:0:0:0:
300,184,191476,1,10,0:0:0:0:
165,346,191647,6,0,P|239:288|338:302,1,193.600005908203,0|0,1:0|1:0,0:0:0:0:
498,197,192162,1,10,0:0:0:0:
355,92,192333,5,0,3:0:0:0:
355,92,192419,1,0,3:0:0:0:
355,92,192505,2,0,P|370:154|389:240,1,145.200004431152,2|0,1:2|0:0,0:0:0:0:
387,233,192847,1,10,0:0:0:0:
258,93,193019,5,0,3:0:0:0:
258,93,193105,1,0,3:0:0:0:
258,93,193190,1,2,1:2:0:0:
450,39,193362,1,0,1:0:0:0:
276,205,193533,2,0,P|222:189|166:182,1,96.8000029541017,8|0,0:0|0:0,0:0:0:0:
134,26,193876,5,2,1:2:0:0:
338,132,194047,1,8,0:0:0:0:
347,107,194133,1,8,0:0:0:0:
356,82,194219,1,8,1:2:0:0:
175,272,194390,1,8,0:0:0:0:
184,297,194476,1,8,0:0:0:0:
193,322,194562,1,8,1:2:0:0:
466,384,194733,5,8,0:0:0:0:
494,345,194818,1,8,0:0:0:0:
503,298,194904,1,8,1:2:0:0:
489,252,194990,1,8,0:0:0:0:
455,218,195075,1,8,0:0:0:0:
410,202,195161,1,8,0:0:0:0:
362,209,195247,6,0,B|269:242|269:242|240:235|204:206,1,145.200004431152,6|0,1:2|0:0,0:0:0:0:
185,154,195590,2,0,P|194:104|205:44,1,96.8000029541017,8|0,0:0|0:0,0:0:0:0:
83,230,195933,5,0,1:0:0:0:
300,143,196105,1,0,1:0:0:0:
83,230,196276,2,0,P|75:282|60:335,1,96.8000029541017,8|0,0:0|0:0,0:0:0:0:
52,359,196533,1,8,0:0:0:0:
52,359,196619,1,2,1:2:0:0:
11,161,196790,1,0,0:0:0:0:
234,245,196962,1,10,0:0:0:0:
11,161,197133,6,0,B|58:163|99:190|99:190|119:141|164:116,1,193.600005908203,2|2,1:2|1:2,0:0:0:0:
365,187,197647,1,8,0:0:0:0:
299,29,197819,5,0,3:0:0:0:
299,29,197905,1,0,3:0:0:0:
299,29,197990,2,0,P|280:76|272:126,1,96.8000029541017,2|0,1:2|0:0,0:0:0:0:
406,339,198333,2,0,P|433:277|395:193,1,145.200004431152,8|0,0:0|0:0,0:0:0:0:
365,187,198676,2,0,P|319:203|267:214,1,96.8000029541017,2|0,1:2|1:0,0:0:0:0:
84,141,199019,1,8,0:0:0:0:
144,294,199190,5,0,3:0:0:0:
144,294,199276,1,0,3:0:0:0:
144,294,199362,1,2,1:2:0:0:
197,124,199533,2,0,P|186:76|180:27,1,96.8000029541017,0|8,0:0|0:0,0:0:0:0:
329,211,199876,6,0,B|401:228|401:228|423:263|423:263|512:281,1,193.600005908203,2|2,1:2|1:2,0:0:0:0:
420,130,200390,1,8,0:0:0:0:
357,316,200562,5,8,0:3:0:0:
357,316,200647,1,8,0:3:0:0:
357,316,200733,2,0,P|290:333|219:366,1,145.200004431152,6|0,1:2|0:0,0:0:0:0:
188,381,201076,1,10,0:0:0:0:
22,264,201247,6,0,P|49:255|77:248,1,48.4000014770508,0|0,3:0|3:0,0:0:0:0:
181,186,201419,2,0,P|162:243|152:299,1,96.8000029541017,2|0,1:2|1:0,0:0:0:0:
298,384,201762,1,10,0:0:0:0:
261,220,201933,1,0,0:0:0:0:
468,146,202105,6,0,P|483:226|436:293,1,145.200004431152,0|0,1:0|0:0,0:0:0:0:
429,303,202447,2,0,P|377:293|328:289,1,96.8000029541017,10|0,0:0|1:0,0:0:0:0:
217,102,202790,5,2,0:0:0:0:
389,146,202962,1,0,1:0:0:0:
214,206,203133,1,8,0:0:0:0:
319,75,203305,1,0,0:0:0:0:
96,0,203476,6,0,B|78:27|50:51|50:51|75:115|95:180,1,193.600005908203,2|10,1:2|0:0,0:0:0:0:
226,249,203990,1,0,3:0:0:0:
226,249,204076,1,0,3:0:0:0:
226,249,204162,1,2,1:2:0:0:
105,342,204333,2,0,L|119:290,1,48.4000014770508,0|0,1:0|1:0,0:0:0:0:
188,154,204505,2,0,P|238:139|284:123,1,96.8000029541017,8|0,0:0|0:0,0:0:0:0:
508,294,204847,5,2,1:2:0:0:
282,225,205019,1,0,1:0:0:0:
446,112,205190,1,8,0:0:0:0:
373,349,205362,1,0,1:0:0:0:
165,302,205533,1,8,0:0:0:0:
128,323,205618,1,8,0:0:0:0:
85,321,205704,1,8,0:3:0:0:
51,295,205790,1,4,0:3:0:0:
37,255,205876,2,0,P|47:196|59:104,1,145.200004431152,8|0,1:2|0:0,0:0:0:0:
58,111,206219,6,0,P|112:99|159:80,1,96.8000029541017,6|0,1:2|0:0,0:0:0:0:
359,129,206562,2,0,P|305:141|258:160,1,96.8000029541017,8|0,0:0|0:0,0:0:0:0:
174,222,206905,5,2,1:2:0:0:
233,19,207076,1,0,1:0:0:0:
174,222,207247,2,0,P|191:292|204:374,1,145.200004431152,8|0,0:0|0:0,0:0:0:0:
202,364,207590,5,2,1:2:0:0:
280,184,207762,1,0,0:0:0:0:
81,298,207933,1,10,0:0:0:0:
296,352,208105,6,0,B|375:334|354:376|444:354,1,145.200004431152,2|0,1:2|0:0,0:0:0:0:
438,355,208447,1,2,1:2:0:0:
280,184,208619,2,0,P|290:132|302:80,1,96.8000029541017,8|0,0:0|0:0,0:0:0:0:
503,185,208962,6,0,P|429:261|335:239,1,193.600005908203,2|8,1:2|0:0,0:0:0:0:
171,186,209476,1,0,3:0:0:0:
171,186,209562,1,0,3:0:0:0:
171,186,209647,1,2,1:2:0:0:
221,371,209819,1,0,1:0:0:0:
171,186,209990,2,0,P|182:138|195:87,1,96.8000029541017,8|0,0:0|0:0,0:0:0:0:
24,262,210333,6,0,P|97:255|165:306,1,145.200004431152,2|0,1:2|0:0,0:0:0:0:
155,292,210676,1,10,0:0:0:0:
320,145,210847,2,0,P|271:162|217:170,1,96.8000029541017,2|0,1:2|0:0,0:0:0:0:
376,241,211190,1,2,1:2:0:0:
446,54,211362,1,8,0:0:0:0:
375,261,211533,1,8,0:3:0:0:
189,86,211705,6,0,P|102:73|48:139,1,145.200004431152,6|0,1:2|0:0,0:0:0:0:
36,135,212047,2,0,P|52:195|61:236,1,96.8000029541017,10|0,0:0|0:0,0:0:0:0:
218,189,212390,1,2,1:2:0:0:
266,363,212562,1,0,1:0:0:0:
155,270,212733,1,10,0:0:0:0:
325,178,212905,5,0,3:0:0:0:
325,178,212990,1,0,3:0:0:0:
325,178,213076,2,0,P|312:199|303:234,1,48.4000014770508,0|0,1:0|0:0,0:0:0:0:
380,298,213247,2,0,P|426:284|483:268,1,96.8000029541017,0|10,0:0|0:0,0:0:0:0:
218,189,213590,6,0,B|197:153|197:153|204:114|204:114|166:63|186:-20,1,193.600005908203,0|0,1:0|1:0,0:0:0:0:
368,18,214105,6,0,P|315:30|248:47,1,96.8000029541017,10|0,0:0|0:0,0:0:0:0:
292,125,214362,1,8,0:0:0:0:
292,125,214447,2,0,P|345:113|412:96,1,96.8000029541017,2|0,1:2|0:0,0:0:0:0:
239,219,214790,5,10,0:0:0:0:
161,57,214962,1,0,3:0:0:0:
161,57,215047,1,0,3:0:0:0:
161,57,215133,1,2,1:2:0:0:
0,224,215305,1,0,1:0:0:0:
209,315,215476,2,0,P|254:299|306:288,1,96.8000029541017,8|0,0:0|0:0,0:0:0:0:
450,115,215819,6,0,P|433:159|419:211,1,96.8000029541017,2|8,1:2|0:0,0:0:0:0:
416,242,216076,1,8,0:0:0:0:
416,242,216162,1,8,1:2:0:0:
292,138,216333,1,8,0:0:0:0:
279,103,216419,1,8,0:0:0:0:
265,73,216505,1,8,1:2:0:0:
191,349,216676,5,8,0:0:0:0:
140,377,216761,1,8,0:0:0:0:
83,378,216847,1,8,1:2:0:0:
33,352,216933,1,8,0:0:0:0:
2,303,217018,1,8,0:0:0:0:
0,246,217104,1,8,0:0:0:0:
26,195,217190,6,0,P|98:180|196:156,1,145.200004431152,6|0,1:2|0:0,0:0:0:0:
208,157,217533,1,8,0:0:0:0:
304,283,217705,1,0,3:0:0:0:
304,283,217790,1,0,3:0:0:0:
304,283,217876,2,0,P|321:222|326:187,1,96.8000029541017,0|0,1:0|1:0,0:0:0:0:
512,0,218219,2,0,P|495:61|490:96,1,96.8000029541017,8|0,0:0|0:0,0:0:0:0:
483,135,218476,1,8,0:0:0:0:
483,135,218562,5,2,1:2:0:0:
343,53,218733,1,0,0:0:0:0:
425,241,218905,1,10,0:0:0:0:
197,178,219076,2,0,B|160:176|129:165|129:165|85:187|85:187|52:192|-5:178,1,193.600005908203,2|2,1:2|1:2,0:0:0:0:
195,71,219590,1,8,0:0:0:0:
145,261,219762,5,0,3:0:0:0:
145,261,219847,1,0,3:0:0:0:
145,261,219933,2,0,P|157:308|171:373,1,96.8000029541017,2|0,1:2|0:0,0:0:0:0:
326,225,220276,2,0,B|348:172|348:172|328:87,1,145.200004431152,8|0,0:0|0:0,0:0:0:0:
318,47,220619,5,2,1:2:0:0:
459,93,220790,1,0,1:0:0:0:
256,164,220962,2,0,P|199:149|156:142,1,96.8000029541017,8|0,0:0|0:0,0:0:0:0:
161,142,221219,1,8,0:0:0:0:
161,142,221305,5,2,1:2:0:0:
101,353,221476,2,0,P|148:361|195:374,1,96.8000029541017,0|8,0:0|0:0,0:0:0:0:
404,248,221819,6,0,B|311:232|307:283|202:265,1,193.600005908203,2|2,1:2|1:2,0:0:0:0:
64,151,222333,1,8,0:0:0:0:
55,129,222419,1,8,0:0:0:0:
44,104,222505,1,8,0:3:0:0:
192,0,222676,6,0,B|216:24|252:45|252:45|221:102|207:183,1,193.600005908203,6|10,1:2|0:0,0:0:0:0:
265,342,223190,1,0,3:0:0:0:
265,342,223276,1,0,3:0:0:0:
265,342,223362,1,2,1:2:0:0:
96,281,223533,1,0,1:0:0:0:
315,214,223705,2,0,P|387:225|472:246,1,145.200004431152,10|0,0:0|0:0,0:0:0:0:
487,221,224047,6,0,P|476:171|466:124,1,96.8000029541017,0|0,1:0|0:0,0:0:0:0:
315,10,224390,2,0,P|278:49|182:36,1,145.200004431152,10|0,0:0|0:0,0:0:0:0:
156,28,224733,1,2,0:0:0:0:
217,190,224905,1,0,1:0:0:0:
27,151,225076,2,0,P|82:138|127:129,1,96.8000029541017,8|0,0:0|0:0,0:0:0:0:
121,130,225333,1,8,0:0:0:0:
121,130,225419,5,2,1:2:0:0:
173,306,225590,1,0,0:0:0:0:
385,223,225762,6,0,B|340:201|340:201|248:221,1,145.200004431152,10|0,0:0|0:0,0:0:0:0:
217,190,226105,2,0,P|228:141|242:88,1,96.8000029541017,2|0,1:2|1:0,0:0:0:0:
330,292,226447,1,8,0:0:0:0:
179,359,226619,5,0,3:0:0:0:
179,359,226705,1,0,3:0:0:0:
179,359,226790,2,0,P|111:371|44:309,1,145.200004431152,2|0,1:2|0:0,0:0:0:0:
31,287,227133,2,0,P|45:236|58:181,1,96.8000029541017,8|8,0:0|0:3,0:0:0:0:
55,193,227390,1,8,0:0:0:0:
55,193,227476,5,10,1:2:0:0:
244,115,227647,1,8,0:3:0:0:
64,32,227819,1,10,1:2:0:0:
129,273,227990,1,4,0:3:0:0:
384,192,228162,5,6,1:2:0:0:
256,192,228247,12,0,229362,0:0:0:0:
486,350,229533,6,0,B|420:347|376:320|376:320|299:362|299:362|231:315|155:334,1,352,6|10,1:2|0:0,0:0:0:0:
77,93,230562,1,8,0:0:0:0:
77,93,230905,6,0,P|11:157|37:254,2,176,6|8|0,1:2|0:0|1:0,0:0:0:0:
249,148,231762,1,0,1:0:0:0:
146,0,231933,1,10,0:0:0:0:
96,176,232105,1,2,0:0:0:0:
336,203,232276,6,0,B|383:203|421:225|421:225|464:221|500:179,1,176,0|8,1:0|0:0,0:0:0:0:
358,294,232790,1,0,1:0:0:0:
358,294,232876,1,0,1:0:0:0:
358,294,232962,1,0,1:0:0:0:
398,93,233133,1,0,1:0:0:0:
354,316,233305,2,0,P|305:326|262:337,1,88,8|0,0:0|0:0,0:0:0:0:
294,175,233647,6,0,P|305:85|244:15,1,176,2|8,1:2|0:0,0:0:0:0:
108,91,234162,1,0,3:0:0:0:
108,91,234247,1,0,3:0:0:0:
108,91,234333,1,0,1:0:0:0:
213,246,234505,1,0,1:0:0:0:
26,212,234676,2,0,P|81:195|118:186,1,88,8|0,0:0|0:0,0:0:0:0:
308,269,235019,5,2,1:2:0:0:
247,35,235190,1,0,1:0:0:0:
472,92,235362,1,10,0:0:0:0:
224,187,235533,5,2,1:2:0:0:
224,187,235619,1,8,0:0:0:0:
224,187,235705,1,8,0:0:0:0:
428,233,235876,1,4,0:3:0:0:
385,3,236047,2,0,P|370:47|360:90,1,88,10|0,0:0|0:0,0:0:0:0:
429,146,236305,5,8,0:0:0:0:
429,146,236390,2,0,B|362:134|362:134|321:153|321:153|248:144,1,176,6|8,1:2|0:0,0:0:0:0:
25,226,236905,2,0,P|5:175|0:141,1,88,0|0,0:0|1:0,0:0:0:0:
94,49,237247,1,0,1:0:0:0:
183,197,237419,2,0,P|163:248|158:282,1,88,8|0,0:0|0:0,0:0:0:0:
327,366,237762,5,2,1:2:0:0:
276,172,237933,1,0,1:0:0:0:
467,276,238105,1,8,0:0:0:0:
241,324,238276,2,0,B|194:314|148:350|148:350|111:354|73:323,1,176,2|0,1:2|1:0,0:0:0:0:
176,189,238790,1,10,0:0:0:0:
330,266,238962,5,0,3:0:0:0:
330,266,239047,1,0,3:0:0:0:
330,266,239133,2,0,P|371:253|432:235,1,88,0|0,1:0|0:0,0:0:0:0:
330,31,239476,6,0,P|279:114|310:173,1,132,8|0,0:0|0:0,0:0:0:0:
308,173,239819,1,0,1:0:0:0:
105,133,239990,1,0,1:0:0:0:
168,320,240162,2,0,P|173:271|183:230,1,88,8|0,0:0|0:0,0:0:0:0:
191,199,240419,1,8,0:0:0:0:
191,199,240505,5,0,1:0:0:0:
11,80,240676,1,0,1:0:0:0:
67,275,240847,1,8,0:0:0:0:
203,63,241019,5,8,0:0:0:0:
203,63,241105,1,8,0:0:0:0:
203,63,241190,1,8,1:2:0:0:
370,98,241362,1,8,0:3:0:0:
338,268,241533,1,8,1:2:0:0:
181,233,241705,1,4,0:3:0:0:
27,369,241876,6,0,B|106:335|178:379|178:379|-104:291|-78:13|125:-58|286:-54|235:38|272:148|218:164|120:187|120:187|187:153|248:179|275:249|237:272|207:228|168:288|168:288|206:222|316:220|316:220|371:217|476:216|517:-20|353:-18|268:86|317:220|317:220|387:317|304:388|236:363|271:281|317:307,1,2111.99993554688,6|4,1:2|0:0,0:0:0:0:
