osu file format v14

[General]
AudioFilename: audio.mp3
AudioLeadIn: 0
PreviewTime: 183505
Countdown: 0
SampleSet: Soft
StackLeniency: 0.7
Mode: 0
LetterboxInBreaks: 0
EpilepsyWarning: 1
WidescreenStoryboard: 1

[Editor]
Bookmarks: 52619,165076,176047
DistanceSpacing: 1.4
BeatDivisor: 4
GridSize: 4
TimelineZoom: 2.5

[Metadata]
Title:Get the Freedom
TitleUnicode:Get the Freedom
Artist:Kicco
ArtistUnicode:Kicco
Creator:Bellicose
Version:Hard.
Source:ねこツク、さくら。
Tags:Houshou Hari Shikibe Mayu Kazato Asa Shizuku- dahkjdas meis clauson angel note lump of sugar Nekotsuku Sakura kemonomimi eroge video game visual novel vn japanese pop rock opening full version
BeatmapID:3360034
BeatmapSetID:1644227

[Difficulty]
HPDrainRate:5
CircleSize:3.8
OverallDifficulty:7
ApproachRate:8
SliderMultiplier:1.4
SliderTickRate:1

[Events]
//Background and Video events
0,0,"bg4.jpg",0,0
//Break Periods
2,80247,87526
2,165276,175297
2,184476,189012
//Storyboard Layer 0 (Background)
//Storyboard Layer 1 (Fail)
//Storyboard Layer 2 (Pass)
//Storyboard Layer 3 (Foreground)
Sprite,Foreground,Centre,"sb\Bellicose.png",320,240 C,0,19704,,255,102,102 F,19,19704,20704,0,1 S,0,19704,22447,0.35,0.4 F,19,21762,22447,1,0
//Storyboard Layer 4 (Overlay)
//Storyboard Sound Samples

[TimingPoints]
505,342.857142857143,4,2,1,40,1,0
505,-133.333333333333,4,2,1,40,0,0
10105,-133.333333333333,4,2,1,40,0,0
10705,-100,4,2,1,5,0,0
10790,-100,4,2,1,50,0,0
11476,-100,4,2,1,70,0,0
16876,-100,4,2,1,5,0,0
16962,-100,4,2,1,70,0,0
22447,-111.111111111111,4,2,1,50,0,0
22790,-111.111111111111,4,2,2,50,0,0
27933,-111.111111111111,4,2,1,50,0,0
28276,-111.111111111111,4,2,2,50,0,0
32047,-100,4,2,1,60,0,0
32562,-100,4,2,1,60,0,0
33419,-105.263157894737,4,2,1,60,0,0
36076,-105.263157894737,4,2,1,5,0,0
36162,-105.263157894737,4,2,1,60,0,0
38819,-105.263157894737,4,2,1,5,0,0
38905,-105.263157894737,4,2,1,60,0,0
41562,-105.263157894737,4,2,1,5,0,0
41647,-125,4,2,1,50,0,0
49876,-100,4,2,1,60,0,0
50133,-100,4,2,1,5,0,0
50219,-100,4,2,1,60,0,0
51162,-100,4,2,1,5,0,0
51247,-100,4,2,1,70,0,0
51933,-100,4,2,1,70,0,0
52619,-90.9090909090909,4,2,1,75,0,1
54762,-90.9090909090909,4,2,1,5,0,1
54847,-90.9090909090909,4,2,1,75,0,1
57505,-90.9090909090909,4,2,1,5,0,1
57590,-90.9090909090909,4,2,1,75,0,1
60762,-90.9090909090909,4,2,1,5,0,1
60847,-90.9090909090909,4,2,1,75,0,1
65733,-90.9090909090909,4,2,1,5,0,1
65819,-90.9090909090909,4,2,1,75,0,1
68476,-90.9090909090909,4,2,1,5,0,1
68562,-90.9090909090909,4,2,1,75,0,1
70105,-90.9090909090909,4,2,1,75,0,1
70362,-90.9090909090909,4,2,1,5,0,1
70447,-90.9090909090909,4,2,1,75,0,1
70705,-90.9090909090909,4,2,1,5,0,1
70790,-90.9090909090909,4,2,1,75,0,1
72419,-90.9090909090909,4,2,1,5,0,1
72505,-90.9090909090909,4,2,1,75,0,1
74562,-125,4,2,1,70,0,1
76790,-100,4,2,1,70,0,1
77305,-100,4,2,1,70,0,0
88276,-105.263157894737,4,2,1,60,0,0
90933,-105.263157894737,4,2,1,5,0,0
91019,-105.263157894737,4,2,1,60,0,0
93676,-105.263157894737,4,2,1,5,0,0
93762,-105.263157894737,4,2,1,60,0,0
96419,-105.263157894737,4,2,1,5,0,0
96505,-105.263157894737,4,2,1,60,0,0
98390,-105.263157894737,4,2,1,60,0,0
99247,-105.263157894737,4,2,1,60,0,0
107390,-105.263157894737,4,2,1,5,0,0
107476,-125,4,2,1,50,0,0
115705,-100,4,2,1,60,0,0
115962,-100,4,2,1,5,0,0
116047,-100,4,2,1,60,0,0
116990,-100,4,2,1,5,0,0
117076,-100,4,2,1,70,0,0
118447,-90.9090909090909,4,2,1,75,0,1
118705,-90.9090909090909,4,2,1,5,0,1
118790,-90.9090909090909,4,2,1,75,0,1
120076,-90.9090909090909,4,2,1,5,0,1
120162,-90.9090909090909,4,2,1,75,0,1
121105,-90.9090909090909,4,2,1,5,0,1
121190,-90.9090909090909,4,2,1,75,0,1
122819,-90.9090909090909,4,2,1,5,0,1
122905,-90.9090909090909,4,2,1,75,0,1
126933,-90.9090909090909,4,2,1,5,0,1
127019,-90.9090909090909,4,2,1,75,0,1
129676,-90.9090909090909,4,2,1,5,0,1
129762,-90.9090909090909,4,2,1,75,0,1
131047,-90.9090909090909,4,2,1,5,0,1
131133,-90.9090909090909,4,2,1,75,0,1
132076,-90.9090909090909,4,2,1,5,0,1
132162,-90.9090909090909,4,2,1,75,0,1
133790,-90.9090909090909,4,2,1,5,0,1
133876,-90.9090909090909,4,2,1,75,0,1
135933,-90.9090909090909,4,2,1,75,0,1
136190,-90.9090909090909,4,2,1,5,0,1
136276,-90.9090909090909,4,2,1,75,0,1
136533,-90.9090909090909,4,2,1,5,0,1
136619,-90.9090909090909,4,2,1,75,0,1
137905,-90.9090909090909,4,2,1,5,0,1
137990,-90.9090909090909,4,2,1,75,0,1
140390,-125,4,2,1,70,0,0
142619,-100,4,2,1,70,0,0
143133,-90.9090909090909,4,2,1,75,0,1
145276,-90.9090909090909,4,2,1,5,0,1
145362,-90.9090909090909,4,2,1,75,0,1
145705,-90.9090909090909,4,2,1,75,0,1
146047,-90.9090909090909,4,2,1,75,0,1
148876,-90.9090909090909,4,2,1,5,0,1
148962,-90.9090909090909,4,2,1,75,0,1
149133,-90.9090909090909,4,2,1,75,0,1
149390,-90.9090909090909,4,2,1,5,0,1
149476,-90.9090909090909,4,2,1,75,0,1
149562,-90.9090909090909,4,2,1,5,0,1
149647,-90.9090909090909,4,2,1,75,0,1
150505,-90.9090909090909,4,2,1,75,0,1
150847,-90.9090909090909,4,2,1,75,0,1
151619,-90.9090909090909,4,2,1,5,0,1
151705,-90.9090909090909,4,2,1,75,0,1
152047,-90.9090909090909,4,2,1,75,0,1
154362,-90.9090909090909,4,2,1,5,0,1
154447,-90.9090909090909,4,2,1,75,0,1
156762,-90.9090909090909,4,2,1,5,0,1
156847,-90.9090909090909,4,2,1,75,0,1
159247,-90.9090909090909,4,2,1,75,0,1
159505,-90.9090909090909,4,2,1,5,0,1
159590,-90.9090909090909,4,2,1,75,0,1
159762,-90.9090909090909,4,2,1,75,0,1
159933,-90.9090909090909,4,2,1,75,0,1
160190,-90.9090909090909,4,2,1,5,0,1
160276,-90.9090909090909,4,2,1,75,0,1
161133,-90.9090909090909,4,2,1,75,0,1
161476,-90.9090909090909,4,2,1,75,0,1
161819,-90.9090909090909,4,2,1,75,0,1
162333,-90.9090909090909,4,2,1,75,0,1
165076,-100,4,2,1,75,0,0
176047,-166.666666666667,4,2,2,50,0,0
178790,-166.666666666667,4,2,2,50,0,0
182905,-166.666666666667,4,2,1,50,0,0
183590,-166.666666666667,4,2,1,50,0,0
184276,-200,4,2,1,40,0,0
188905,-100,4,2,1,50,0,0
189247,-100,4,2,1,50,0,0
189762,-90.9090909090909,4,2,1,75,0,1
191047,-90.9090909090909,4,2,1,5,0,1
191133,-90.9090909090909,4,2,1,75,0,1
192762,-90.9090909090909,4,2,1,5,0,1
192847,-90.9090909090909,4,2,1,75,0,1
195505,-90.9090909090909,4,2,1,5,0,1
195590,-90.9090909090909,4,2,1,75,0,1
196876,-90.9090909090909,4,2,1,5,0,1
196962,-90.9090909090909,4,2,1,75,0,1
197905,-90.9090909090909,4,2,1,5,0,1
197990,-90.9090909090909,4,2,1,75,0,1
199619,-90.9090909090909,4,2,1,5,0,1
199705,-90.9090909090909,4,2,1,75,0,1
201762,-90.9090909090909,4,2,1,75,0,1
202019,-90.9090909090909,4,2,1,5,0,1
202105,-90.9090909090909,4,2,1,75,0,1
202362,-90.9090909090909,4,2,1,5,0,1
202447,-90.9090909090909,4,2,1,75,0,1
203733,-90.9090909090909,4,2,1,5,0,1
203819,-90.9090909090909,4,2,1,75,0,1
206133,-90.9090909090909,4,2,1,5,0,1
206219,-90.9090909090909,4,2,1,75,0,1
208362,-90.9090909090909,4,2,1,5,0,1
208447,-90.9090909090909,4,2,1,75,0,1
211105,-90.9090909090909,4,2,1,5,0,1
211190,-90.9090909090909,4,2,1,75,0,1
214362,-90.9090909090909,4,2,1,5,0,1
214447,-90.9090909090909,4,2,1,75,0,1
219333,-90.9090909090909,4,2,1,5,0,1
219419,-90.9090909090909,4,2,1,75,0,1
222076,-90.9090909090909,4,2,1,5,0,1
222162,-90.9090909090909,4,2,1,75,0,1
223705,-90.9090909090909,4,2,1,75,0,1
223962,-90.9090909090909,4,2,1,5,0,1
224047,-90.9090909090909,4,2,1,75,0,1
224305,-90.9090909090909,4,2,1,5,0,1
224390,-90.9090909090909,4,2,1,75,0,1
226019,-90.9090909090909,4,2,1,5,0,1
226105,-90.9090909090909,4,2,1,75,0,1
228162,-125,4,2,1,70,0,0
230390,-100,4,2,1,70,0,0
230819,-100,4,2,1,5,0,0
230905,-100,4,2,1,70,0,0
236305,-100,4,2,1,5,0,0
236390,-100,4,2,1,70,0,0
239390,-100,4,2,1,5,0,0
239476,-100,4,2,1,70,0,0
241876,-100,4,2,1,70,0,0
241962,-100,4,2,1,5,0,0
248733,-100,4,2,99,5,0,0

[Colours]
Combo1 : 226,143,243
Combo2 : 139,222,254
Combo3 : 253,206,240
Combo4 : 150,166,254

[HitObjects]
38,134,505,6,0,P|98:142|155:155,1,105.000004005432,2|0,0:0|0:0,0:0:0:0:
15,245,1190,2,0,P|75:253|132:266,1,105.000004005432,2|0,0:0|0:0,0:0:0:0:
230,374,1876,2,0,P|263:340|254:275,1,105.000004005432,2|0,0:0|0:0,0:0:0:0:
202,231,2390,2,0,P|212:198|217:161,1,52.5000020027161,2|0,0:0|0:0,0:0:0:0:
257,113,2733,2,0,B|326:107|292:145|372:142,1,105.000004005432,2|0,0:0|0:0,0:0:0:0:
363,220,3247,6,0,P|378:308|380:332,1,105.000004005432,2|0,0:0|0:0,0:0:0:0:
484,205,3933,2,0,P|499:293|501:317,1,105.000004005432,2|0,0:0|0:0,0:0:0:0:
363,220,4619,2,0,P|309:255|265:235,1,105.000004005432,2|0,0:0|0:0,0:0:0:0:
210,289,5133,2,0,P|176:277|141:275,1,52.5000020027161,2|0,0:0|0:0,0:0:0:0:
90,236,5476,2,0,P|64:240|39:250,1,52.5000020027161,2|0,0:0|0:0,0:0:0:0:
16,94,5990,5,2,0:0:0:0:
161,34,6333,1,2,0:0:0:0:
6,63,6676,1,2,0:0:0:0:
164,65,7019,2,0,P|226:71|268:29,1,105.000004005432,2|0,0:0|0:0,0:0:0:0:
404,106,7705,2,0,P|390:51|380:-2,2,105.000004005432,2|2|2,0:0|0:0|0:0,0:0:0:0:
264,179,8733,5,2,0:0:0:0:
418,211,9076,1,2,0:0:0:0:
323,336,9419,2,0,B|258:329|296:300|216:300,1,105.000004005432,2|0,0:0|0:0,0:0:0:0:
125,179,10105,2,0,P|207:159|317:137,1,183.750007009506,2|0,0:0|0:0,0:0:0:0:
350,122,10790,2,0,L|359:85,3,35,2|2|2|2,0:0|0:0|0:0|0:0,0:0:0:0:
399,61,11133,2,0,L|433:52,3,35,2|2|2|2,0:0|0:0|0:0|0:0,0:0:0:0:
478,71,11476,6,0,P|493:138|429:192,1,140,6|8,1:2|0:0,0:0:0:0:
364,238,11990,1,0,0:0:0:0:
364,238,12162,2,0,P|352:285|348:321,1,70,0|0,1:0|1:0,0:0:0:0:
235,369,12505,2,0,P|240:334|250:301,1,70,10|0,0:0|0:0,0:0:0:0:
201,216,12847,5,0,1:0:0:0:
201,216,13019,1,0,1:0:0:0:
276,154,13190,1,8,0:0:0:0:
228,68,13362,2,0,P|172:110|96:95,1,140,0|0,1:0|1:0,0:0:0:0:
24,45,13876,1,8,0:0:0:0:
8,240,14219,6,0,P|24:297|38:382,1,140,2|8,1:2|0:0,0:0:0:0:
139,375,14733,1,0,0:0:0:0:
139,375,14905,2,0,P|125:324|121:278,1,70,0|0,1:0|1:0,0:0:0:0:
111,210,15247,2,0,P|162:224|208:228,1,70,8|0,0:0|0:0,0:0:0:0:
273,192,15590,5,2,1:2:0:0:
273,192,15762,1,0,1:0:0:0:
197,130,15933,1,10,0:0:0:0:
290,93,16105,1,2,1:2:0:0:
290,93,16190,1,8,0:0:0:0:
290,93,16276,2,0,P|341:107|387:111,1,70,8|4,0:0|0:3,0:0:0:0:
430,43,16619,2,0,P|476:60|487:119,1,105,10|0,0:0|0:0,0:0:0:0:
506,156,16962,6,0,P|489:225|477:307,1,140,6|8,1:2|0:0,0:0:0:0:
410,363,17476,1,0,0:0:0:0:
410,363,17647,2,0,P|363:366|337:346,1,70,0|0,1:0|1:0,0:0:0:0:
291,272,17990,2,0,P|324:263|359:257,1,70,8|0,0:0|0:0,0:0:0:0:
407,173,18333,5,2,1:2:0:0:
407,173,18505,1,0,1:0:0:0:
342,99,18676,1,8,0:0:0:0:
282,176,18847,2,0,B|195:158|237:225|120:201,1,140,2|0,1:2|1:0,0:0:0:0:
74,268,19362,1,10,0:0:0:0:
5,84,19705,6,0,P|68:97|126:25,1,140,2|8,1:2|0:0,0:0:0:0:
212,15,20219,1,0,0:0:0:0:
212,15,20390,2,0,P|225:58|232:99,1,70,0|0,1:0|1:0,0:0:0:0:
309,139,20733,2,0,P|296:182|289:223,1,70,8|0,0:0|0:0,0:0:0:0:
204,172,21076,5,0,1:0:0:0:
204,172,21247,1,0,1:0:0:0:
221,268,21419,1,8,0:0:0:0:
138,236,21590,1,8,0:0:0:0:
138,236,21676,1,8,0:0:0:0:
138,236,21762,2,0,P|95:249|54:256,1,70,8|8,1:2|0:3,0:0:0:0:
98,361,22105,2,0,P|141:348|182:341,1,70,8|4,1:2|0:3,0:0:0:0:
260,381,22447,6,0,P|304:347|378:365,1,125.999996154785,6|8,1:2|0:0,0:0:0:0:
449,319,22962,2,0,P|461:272|469:249,1,62.9999980773926,2|8,0:0|0:0,0:0:0:0:
409,197,23305,1,2,1:2:0:0:
409,197,23476,2,0,P|418:166|425:136,1,62.9999980773926,8|0,0:0|1:0,0:0:0:0:
475,63,23819,6,0,P|420:44|359:85,1,125.999996154785,10|10,0:0|0:0,0:0:0:0:
325,156,24333,2,0,P|272:187|214:169,1,125.999996154785,2|2,1:2|1:2,0:0:0:0:
144,123,24847,1,8,0:0:0:0:
144,123,25019,1,0,1:0:0:0:
171,39,25190,6,0,P|256:17|319:10,1,125.999996154785,2|10,1:2|0:0,0:0:0:0:
361,69,25705,2,0,P|346:129|345:155,1,62.9999980773926,2|8,0:0|0:0,0:0:0:0:
272,175,26047,1,2,1:2:0:0:
272,175,26219,2,0,P|266:206|256:235,1,62.9999980773926,8|0,0:0|1:0,0:0:0:0:
305,319,26562,6,0,P|242:328|182:346,1,125.999996154785,10|10,0:0|0:0,0:0:0:0:
100,378,27076,2,0,P|90:315|72:255,1,125.999996154785,2|2,1:2|1:2,0:0:0:0:
15,187,27590,1,8,0:0:0:0:
15,187,27762,1,0,1:0:0:0:
29,81,27933,6,0,P|75:120|154:93,1,125.999996154785,6|10,1:2|0:0,0:0:0:0:
214,68,28447,2,0,P|253:57|288:54,1,62.9999980773926,2|8,0:0|0:0,0:0:0:0:
219,159,28790,1,2,1:2:0:0:
219,159,28962,2,0,P|258:148|293:145,1,62.9999980773926,8|0,0:0|1:0,0:0:0:0:
356,100,29305,6,0,P|375:140|317:217,1,125.999996154785,10|10,0:0|0:0,0:0:0:0:
265,255,29819,2,0,P|231:305|249:363,1,125.999996154785,2|2,1:2|1:2,0:0:0:0:
328,322,30333,1,8,0:0:0:0:
328,322,30505,1,0,1:0:0:0:
403,381,30676,6,0,P|419:292|434:237,1,125.999996154785,10|10,0:0|0:0,0:0:0:0:
496,201,31190,2,0,P|512:165|498:132,1,62.9999980773926,2|8,0:0|0:0,0:0:0:0:
469,63,31533,1,2,1:2:0:0:
469,63,31705,2,0,P|429:74|393:91,1,62.9999980773926,8|0,0:0|1:0,0:0:0:0:
315,53,32047,5,6,1:2:0:0:
341,147,32219,1,0,1:0:0:0:
260,201,32390,1,10,0:0:0:0:
233,106,32562,2,2,B|161:85|185:148|77:118,1,140,6|0,1:2|1:0,0:1:0:0:
34,197,33076,1,10,0:0:0:0:
34,197,33162,1,10,0:0:0:0:
34,197,33247,2,0,L|48:246,1,35,10|10,0:0|0:0,0:0:0:0:
20,271,33419,6,0,P|87:281|164:301,1,132.999996448517,6|10,1:2|0:0,0:0:0:0:
240,319,33933,2,0,P|250:357|254:391,1,66.4999982242585,2|0,0:1|1:0,0:0:0:0:
321,265,34276,1,2,1:0:0:0:
313,172,34447,2,0,P|280:176|248:185,1,66.4999982242585,10|0,0:1|0:0,0:0:0:0:
159,205,34790,5,2,1:2:0:0:
159,205,34962,1,0,1:0:0:0:
99,133,35133,1,10,0:0:0:0:
137,48,35305,2,0,P|189:90|275:67,1,132.999996448517,2|2,1:0|1:0,0:0:0:0:
320,21,35819,2,0,P|368:31|443:53,1,99.7499973363877,10|0,0:1|0:0,0:0:0:0:
462,36,36162,6,0,B|475:124|429:77|434:176,1,132.999996448517,2|10,1:2|0:0,0:0:0:0:
503,223,36676,2,0,P|486:280|484:310,1,66.4999982242585,2|0,0:1|1:0,0:0:0:0:
421,354,37019,1,2,1:0:0:0:
349,294,37190,2,0,P|360:262|366:230,1,66.4999982242585,10|0,0:1|0:0,0:0:0:0:
324,152,37533,5,2,1:2:0:0:
324,152,37705,1,0,1:0:0:0:
234,177,37876,1,8,0:0:0:0:
256,267,38047,2,0,P|213:311|134:286,1,132.999996448517,2|2,1:0|1:0,0:0:0:0:
67,366,38562,2,0,P|58:307|38:243,1,99.7499973363877,10|0,0:1|0:0,0:0:0:0:
4,248,38905,6,0,P|13:189|35:111,1,132.999996448517,2|10,1:2|0:0,0:0:0:0:
95,49,39419,2,0,P|143:35|176:32,1,66.4999982242585,2|0,0:1|1:0,0:0:0:0:
230,93,39762,1,2,1:0:0:0:
144,128,39933,2,0,P|130:176|127:209,1,66.4999982242585,10|0,0:1|0:0,0:0:0:0:
191,267,40276,5,2,1:2:0:0:
191,267,40447,1,0,1:0:0:0:
273,224,40619,1,10,0:0:0:0:
343,284,40790,2,0,P|375:289|407:300,1,66.4999982242585,8|0,0:3|1:0,0:0:0:0:
490,257,41133,1,4,0:3:0:0:
467,166,41305,2,0,P|435:155|366:143,1,99.7499973363877,0|0,1:0|0:0,0:0:0:0:
340,118,41647,6,0,B|341:53|376:82|380:-7,2,112,4|2|10,1:2|1:2|0:0,0:0:0:0:
489,69,42676,1,0,0:0:0:0:
504,225,43019,2,0,P|446:212|400:255,1,112,2|2,1:2|1:2,0:0:0:0:
339,200,43533,2,0,P|306:207|269:223,1,56,2|8,0:0|0:0,0:0:0:0:
222,260,43876,1,2,0:0:0:0:
222,260,44047,2,0,P|206:320|200:388,1,112,0|0,1:0|1:0,0:0:0:0:
352,331,44733,6,0,B|416:326|391:362|473:357,2,112,2|10|2,1:2|0:0|0:0,0:0:0:0:
215,252,45762,2,0,P|184:194|215:145,1,112,2|2,1:2|1:2,0:0:0:0:
275,122,46276,1,10,0:0:0:0:
275,122,46362,1,8,0:0:0:0:
275,122,46447,2,0,P|284:81|295:51,1,56,8|10,0:0|0:0,0:0:0:0:
236,8,46790,2,0,P|209:16|181:21,1,56,8|4,0:3|0:3,0:0:0:0:
115,71,47133,6,0,P|77:42|7:59,2,112,4|2|10,1:2|1:2|0:0,0:0:0:0:
187,210,48162,1,0,0:0:0:0:
47,137,48505,2,0,P|29:190|16:251,1,112,2|2,1:2|1:2,0:0:0:0:
62,309,49019,2,0,P|108:298|140:297,1,56,2|8,0:0|0:0,0:0:0:0:
183,348,49362,1,2,0:0:0:0:
183,348,49533,2,0,P|210:351|237:359,1,56,0|0,1:0|0:0,0:0:0:0:
334,378,49876,6,0,P|358:310|305:252,1,140,6|10,1:2|0:0,0:0:0:0:
226,235,50390,1,2,0:0:0:0:
182,146,50562,2,0,P|196:97|198:66,1,70,0|2,1:0|1:2,0:0:0:0:
275,17,50905,2,0,P|320:54|377:40,1,105,8|0,0:0|0:0,0:0:0:0:
407,28,51247,5,10,1:2:0:0:
499,62,51419,1,8,1:3:0:0:
425,126,51590,1,4,1:3:0:0:
124,234,52619,6,0,P|187:215|229:213,1,77.0000023498536,6|0,1:2|0:0,0:0:0:0:
297,171,52962,2,0,P|303:133|317:97,1,77.0000023498536,8|0,0:0|0:0,0:0:0:0:
251,11,53305,1,2,1:2:0:0:
210,110,53476,1,0,1:0:0:0:
136,31,53647,2,0,P|99:44|62:51,1,77.0000023498536,8|0,0:0|0:0,0:0:0:0:
14,77,53905,1,8,0:0:0:0:
14,77,53990,6,0,B|14:172|72:117|63:232,1,154.000004699707,2|10,1:2|0:0,0:0:0:0:
18,315,54505,2,0,P|76:362|157:345,1,154.000004699707,2|2,1:2|1:2,0:0:0:0:
246,301,55019,1,8,0:0:0:0:
168,226,55190,1,0,3:0:0:0:
168,226,55276,1,0,3:0:0:0:
168,226,55362,6,0,P|184:159|203:122,1,77.0000023498536,2|0,1:2|0:0,0:0:0:0:
135,56,55705,2,0,P|172:49|209:36,1,77.0000023498536,8|0,0:0|0:0,0:0:0:0:
313,9,56047,1,2,1:2:0:0:
283,113,56219,1,0,1:0:0:0:
385,81,56390,2,0,P|421:68|459:61,1,77.0000023498536,8|0,0:0|0:0,0:0:0:0:
512,160,56733,6,0,P|475:206|381:197,1,154.000004699707,2|10,1:2|0:0,0:0:0:0:
303,132,57247,2,0,P|282:210|273:289,1,154.000004699707,2|2,1:2|1:2,0:0:0:0:
335,372,57762,1,8,0:0:0:0:
438,337,57933,1,8,0:3:0:0:
438,337,58019,1,8,0:3:0:0:
438,337,58105,6,0,P|474:324|512:317,1,77.0000023498536,6|0,1:2|0:0,0:0:0:0:
505,210,58447,2,0,P|468:222|430:229,1,77.0000023498536,10|0,0:0|0:0,0:0:0:0:
340,170,58790,1,2,1:2:0:0:
375,67,58962,1,0,1:0:0:0:
286,5,59133,2,0,B|283:94|231:47|225:163,1,154.000004699707,10|0,0:0|1:0,0:0:0:0:
245,355,59819,5,10,0:0:0:0:
290,257,59990,2,0,P|205:247|147:325,1,154.000004699707,0|0,1:0|1:0,0:0:0:0:
73,358,60505,2,0,P|61:287|47:242,1,115.50000352478,10|0,0:0|0:0,0:0:0:0:
9,208,60847,2,0,P|29:145|34:113,1,77.0000023498536,2|0,1:2|0:0,0:0:0:0:
87,41,61190,2,0,P|150:21|182:16,1,77.0000023498536,10|0,0:0|0:0,0:0:0:0:
218,23,61447,1,8,0:0:0:0:
218,23,61533,2,0,P|198:86|193:118,1,77.0000023498536,2|0,1:2|1:0,0:0:0:0:
285,198,61876,2,0,P|306:169|299:128,1,77.0000023498536,8|0,0:0|0:0,0:0:0:0:
178,195,62219,5,2,1:2:0:0:
84,141,62390,2,0,L|30:154,2,38.5000011749268,8|8|8,0:0|0:0|1:2,0:0:0:0:
36,238,62733,2,0,L|-18:251,2,38.5000011749268,8|8|8,0:0|0:0|1:2,0:0:0:0:
101,312,63076,1,8,0:0:0:0:
101,312,63162,1,8,0:0:0:0:
101,312,63247,2,0,L|138:302,3,38.5000011749268,8|8|8|8,1:2|0:0|0:0|0:0,0:0:0:0:
187,280,63590,6,0,P|196:232|212:173,1,77.0000023498536,6|0,1:2|0:0,0:0:0:0:
286,309,63933,2,0,P|277:346|270:384,1,77.0000023498536,8|0,0:0|0:0,0:0:0:0:
355,235,64276,1,0,1:0:0:0:
294,146,64447,1,0,1:0:0:0:
365,65,64619,2,0,P|409:47|462:65,1,77.0000023498536,8|0,0:0|0:0,0:0:0:0:
492,71,64876,1,8,0:0:0:0:
492,71,64962,6,0,P|483:108|465:232,1,154.000004699707,2|10,1:2|0:0,0:0:0:0:
511,320,65476,2,0,P|434:329|359:346,1,154.000004699707,2|2,1:2|1:2,0:0:0:0:
253,369,65990,1,8,0:0:0:0:
294,273,66162,1,0,3:0:0:0:
294,273,66247,1,0,3:0:0:0:
294,273,66333,6,0,P|302:235|309:197,1,77.0000023498536,2|0,1:2|0:0,0:0:0:0:
229,124,66676,2,0,P|192:145|140:130,1,77.0000023498536,8|0,0:0|0:0,0:0:0:0:
97,230,67019,1,2,1:2:0:0:
4,174,67190,1,0,1:0:0:0:
68,86,67362,2,0,P|74:48|82:10,1,77.0000023498536,8|0,0:0|0:0,0:0:0:0:
158,141,67705,6,0,P|215:90|298:113,1,154.000004699707,2|8,1:2|0:0,0:0:0:0:
387,64,68219,2,0,P|365:154|357:222,1,154.000004699707,2|2,1:2|1:2,0:0:0:0:
249,203,68733,1,8,0:0:0:0:
217,311,68905,1,8,0:3:0:0:
217,311,68990,1,8,0:3:0:0:
217,311,69076,6,0,P|252:304|291:292,1,77.0000023498536,6|0,1:2|0:0,0:0:0:0:
369,367,69419,2,0,P|405:355|443:348,1,77.0000023498536,10|0,0:0|0:0,0:0:0:0:
506,261,69762,1,2,1:2:0:0:
440,176,69933,1,0,1:0:0:0:
334,198,70105,2,0,P|346:123|357:75,1,115.50000352478,10|0,0:0|0:0,0:0:0:0:
373,34,70447,6,0,B|275:13|313:78|210:57,1,154.000004699707,0|10,1:0|0:0,0:0:0:0:
127,14,70962,1,0,1:0:0:0:
105,119,71133,2,0,P|57:126|10:145,1,77.0000023498536,2|0,0:0|1:0,0:0:0:0:
4,240,71476,2,0,P|52:233|99:214,1,77.0000023498536,8|0,0:0|0:0,0:0:0:0:
128,244,71733,1,8,0:0:0:0:
128,244,71819,6,0,P|166:201|257:217,2,154.000004699707,2|10|2,1:2|0:0|1:2,0:0:0:0:
109,350,72676,1,0,1:0:0:0:
212,321,72847,2,0,P|248:309|286:304,1,77.0000023498536,8|0,0:0|0:0,0:0:0:0:
380,370,73190,5,2,1:2:0:0:
458,296,73362,1,0,1:0:0:0:
369,235,73533,1,8,0:0:0:0:
454,167,73705,1,8,0:3:0:0:
454,167,73790,1,8,0:0:0:0:
454,167,73876,2,0,P|473:120|454:81,1,77.0000023498536,10|8,1:2|0:3,0:0:0:0:
397,12,74219,2,0,P|345:21|288:41,1,77.0000023498536,10|4,1:2|0:3,0:0:0:0:
223,25,74562,6,0,B|227:133|284:65|292:193,1,168,6|0,1:2|0:0,0:0:0:0:
319,244,75247,2,0,P|257:299|165:273,1,168,2|0,0:0|0:0,0:0:0:0:
101,299,75933,2,0,P|90:217|79:182,1,112,6|2,1:2|0:0,0:0:0:0:
44,119,76447,1,2,0:0:0:0:
203,4,76790,1,10,0:0:0:0:
288,51,76962,2,0,P|265:138|259:200,1,140,8|6,0:0|1:2,0:0:0:0:
256,192,77390,12,4,80047,1:0:0:0:
383,63,88276,6,0,P|332:102|251:78,1,132.999996448517,6|10,1:2|0:0,0:0:0:0:
203,24,88790,2,0,P|141:43|114:44,1,66.4999982242585,2|0,0:1|1:0,0:0:0:0:
90,122,89133,1,2,1:0:0:0:
150,192,89305,2,0,P|212:173|239:172,1,66.4999982242585,10|0,0:1|0:0,0:0:0:0:
306,202,89647,5,2,1:2:0:0:
306,202,89819,1,0,1:0:0:0:
236,263,89990,1,10,0:0:0:0:
323,295,90162,2,0,B|412:289|353:241|450:242,1,132.999996448517,2|2,1:0|1:0,0:0:0:0:
502,173,90676,2,0,P|490:114|484:71,1,99.7499973363877,10|0,0:1|0:0,0:0:0:0:
500,30,91019,6,0,P|414:17|359:-1,1,132.999996448517,2|10,1:2|0:0,0:0:0:0:
291,52,91533,2,0,P|301:97|306:139,1,66.4999982242585,2|0,0:1|1:0,0:0:0:0:
396,132,91876,1,2,1:0:0:0:
437,232,92047,2,0,P|404:224|371:219,1,66.4999982242585,10|0,0:1|0:0,0:0:0:0:
291,263,92390,5,2,1:2:0:0:
291,263,92562,1,0,1:0:0:0:
367,316,92733,1,8,0:0:0:0:
282,367,92905,2,0,P|234:333|158:347,1,132.999996448517,2|2,1:0|1:0,0:0:0:0:
75,374,93419,2,0,P|59:294|43:248,1,99.7499973363877,10|0,0:1|0:0,0:0:0:0:
12,255,93762,6,0,B|11:170|61:215|63:127,1,132.999996448517,2|10,1:2|0:0,0:0:0:0:
149,173,94276,2,0,P|183:160|229:156,1,66.4999982242585,2|0,0:1|1:0,0:0:0:0:
282,93,94619,1,2,1:0:0:0:
235,12,94790,2,0,P|201:25|155:29,1,66.4999982242585,10|0,0:1|0:0,0:0:0:0:
70,7,95133,5,2,1:2:0:0:
70,7,95305,1,0,1:0:0:0:
1,69,95476,1,8,0:0:0:0:
24,158,95647,2,0,P|102:134|172:124,1,132.999996448517,2|2,1:0|1:0,0:0:0:0:
246,127,96162,2,0,P|286:168|268:230,1,99.7499973363877,10|0,0:1|0:0,0:0:0:0:
258,246,96505,6,0,P|249:324|304:356,1,132.999996448517,2|10,1:2|0:0,0:0:0:0:
378,369,97019,2,0,P|396:305|402:292,1,66.4999982242585,2|0,0:1|1:0,0:0:0:0:
482,269,97362,1,2,1:0:0:0:
504,167,97533,2,0,P|471:173|440:184,1,66.4999982242585,10|0,0:1|0:0,0:0:0:0:
322,120,97876,5,6,1:2:0:0:
322,120,98047,1,0,1:0:0:0:
411,92,98219,1,10,0:0:0:0:
344,216,98390,2,2,P|291:250|211:226,1,132.999996448517,6|0,1:2|1:0,0:1:0:0:
149,179,98905,1,10,0:0:0:0:
149,179,98990,1,10,0:0:0:0:
149,179,99076,2,0,L|91:194,1,33.2499991121292,10|10,0:0|0:0,0:0:0:0:
71,177,99247,6,0,B|68:259|23:221|21:300,1,132.999996448517,6|10,1:2|0:0,0:0:0:0:
62,379,99762,1,2,0:1:0:0:
151,352,99933,2,0,P|189:339|241:330,1,66.4999982242585,0|2,1:0|1:0,0:0:0:0:
303,382,100276,2,0,P|322:269|333:230,1,132.999996448517,10|2,0:1|1:2,0:0:0:0:
402,197,100790,5,0,1:0:0:0:
424,106,100962,1,10,0:0:0:0:
360,38,101133,2,0,P|322:51|270:60,1,66.4999982242585,2|0,1:0|0:0,0:0:0:0:
212,16,101476,1,2,1:0:0:0:
186,105,101647,2,0,P|151:104|117:130,1,66.4999982242585,10|0,0:1|0:0,0:0:0:0:
36,199,101990,6,0,P|146:220|188:232,1,132.999996448517,2|10,1:2|0:0,0:0:0:0:
231,293,102505,1,2,0:1:0:0:
320,267,102676,2,0,P|330:216|343:176,1,66.4999982242585,0|2,1:0|1:0,0:0:0:0:
258,146,103019,2,0,P|245:74|292:25,1,132.999996448517,10|2,0:1|1:2,0:0:0:0:
372,14,103533,5,0,1:0:0:0:
351,105,103705,1,8,0:0:0:0:
441,83,103876,2,0,P|475:73|521:67,1,66.4999982242585,2|0,1:0|0:0,0:0:0:0:
491,172,104219,1,2,1:0:0:0:
399,190,104390,2,0,P|366:195|334:204,1,66.4999982242585,10|0,0:1|0:0,0:0:0:0:
249,242,104733,6,0,P|230:324|221:399,1,132.999996448517,2|10,1:2|0:0,0:0:0:0:
320,318,105247,1,2,0:1:0:0:
398,379,105419,2,0,P|410:326|418:298,1,66.4999982242585,0|2,1:0|1:0,0:0:0:0:
495,270,105762,2,0,B|503:190|444:229|457:128,1,132.999996448517,10|2,0:1|1:2,0:0:0:0:
499,66,106276,5,0,1:0:0:0:
426,7,106447,1,10,0:0:0:0:
374,84,106619,2,0,P|330:102|298:87,1,66.4999982242585,8|0,0:3|1:0,0:0:0:0:
261,19,106962,1,4,0:3:0:0:
168,10,107133,2,0,P|182:58|190:128,1,99.7499973363877,0|0,1:0|0:0,0:0:0:0:
192,146,107476,6,0,P|149:179|75:159,2,112,4|2|10,1:2|1:2|0:0,0:0:0:0:
328,224,108505,1,0,0:0:0:0:
267,368,108847,2,0,P|191:343|137:337,1,112,2|2,1:2|1:2,0:0:0:0:
89,375,109362,2,0,P|79:331|88:308,1,56,2|8,0:0|0:0,0:0:0:0:
134,263,109705,1,2,0:0:0:0:
134,263,109876,2,0,P|161:204|135:150,1,112,0|0,1:0|1:0,0:0:0:0:
35,51,110562,6,0,B|35:119|-4:83|-1:169,2,112,2|10|2,1:2|0:0|0:0,0:0:0:0:
184,4,111590,2,0,P|232:38|296:25,1,112,2|2,1:2|1:2,0:0:0:0:
363,69,112105,1,10,0:0:0:0:
363,69,112190,1,8,0:0:0:0:
363,69,112276,2,0,P|348:117|345:142,1,56,8|10,0:0|0:0,0:0:0:0:
271,143,112619,2,0,P|264:170|255:196,1,56,8|4,0:3|0:3,0:0:0:0:
211,265,112962,6,0,P|155:257|112:298,2,112,4|2|10,1:2|1:2|0:0,0:0:0:0:
327,369,113990,1,0,0:0:0:0:
482,346,114333,2,0,P|494:278|514:217,1,112,2|2,1:2|1:2,0:0:0:0:
490,159,114847,2,0,P|444:170|413:187,1,56,2|8,0:0|0:0,0:0:0:0:
386,234,115190,1,2,0:0:0:0:
386,234,115362,2,0,P|359:224|332:219,1,56,0|0,1:0|0:0,0:0:0:0:
242,178,115705,6,0,P|208:110|244:54,1,140,6|10,1:2|0:0,0:0:0:0:
317,3,116219,1,2,0:0:0:0:
411,28,116390,2,0,P|396:83|392:118,1,70,0|2,1:0|1:2,0:0:0:0:
475,151,116733,2,0,P|483:204|442:240,1,105,8|0,0:0|0:0,0:0:0:0:
402,251,117076,5,10,1:2:0:0:
307,227,117247,1,8,1:3:0:0:
329,322,117419,1,4,1:3:0:0:
43,185,118447,6,0,P|34:222|22:259,1,77.0000023498536,6|0,1:2|0:0,0:0:0:0:
58,361,118790,2,0,P|102:336|136:345,1,77.0000023498536,8|0,0:0|0:0,0:0:0:0:
227,378,119133,1,2,1:2:0:0:
209,271,119305,2,0,P|217:233|229:196,1,77.0000023498536,0|8,1:0|0:0,0:0:0:0:
146,145,119647,1,0,3:0:0:0:
146,145,119733,1,0,3:0:0:0:
146,145,119819,6,0,P|196:101|285:114,1,154.000004699707,2|10,1:2|0:0,0:0:0:0:
361,179,120333,2,0,P|435:190|493:143,1,154.000004699707,2|2,1:2|1:2,0:0:0:0:
510,36,120847,2,0,P|448:16|390:4,1,115.50000352478,8|0,0:0|0:0,0:0:0:0:
345,13,121190,6,0,P|365:82|368:121,1,77.0000023498536,2|0,1:2|0:0,0:0:0:0:
267,131,121533,1,8,0:0:0:0:
254,244,121705,1,0,3:0:0:0:
254,244,121790,1,0,3:0:0:0:
254,244,121876,2,0,P|261:281|274:317,1,77.0000023498536,2|0,1:2|1:0,0:0:0:0:
363,379,122219,2,0,P|400:371|436:358,1,77.0000023498536,8|0,0:0|0:0,0:0:0:0:
489,263,122562,6,0,B|403:275|436:211|344:227,1,154.000004699707,2|10,1:2|0:0,0:0:0:0:
274,317,123076,2,0,P|222:357|127:337,1,154.000004699707,2|2,1:2|1:2,0:0:0:0:
35,378,123590,1,8,0:0:0:0:
12,265,123762,1,8,0:3:0:0:
12,265,123847,1,8,0:3:0:0:
12,265,123933,6,0,P|55:249|100:240,1,77.0000023498536,6|0,1:2|0:0,0:0:0:0:
192,252,124276,2,0,P|200:214|214:178,1,77.0000023498536,10|0,0:0|0:0,0:0:0:0:
312,132,124619,1,2,1:2:0:0:
259,38,124790,1,0,1:0:0:0:
161,85,124962,2,0,B|73:62|102:136|-6:109,2,154.000004699707,10|0|10,0:0|1:0|0:0,0:0:0:0:
259,38,125819,2,0,P|313:27|354:10,1,77.0000023498536,0|0,1:0|0:0,0:0:0:0:
429,70,126162,1,0,1:0:0:0:
380,165,126333,2,0,P|344:190|287:168,1,77.0000023498536,10|0,0:0|0:0,0:0:0:0:
205,175,126676,6,0,P|179:275|174:320,1,115.50000352478,2|0,1:2|0:0,0:0:0:0:
188,339,127019,2,0,P|262:362|327:304,1,154.000004699707,10|2,0:0|1:2,0:0:0:0:
411,377,127533,1,0,1:0:0:0:
494,307,127705,2,0,P|500:269|512:232,1,77.0000023498536,8|0,0:0|0:0,0:0:0:0:
451,143,128047,5,2,1:2:0:0:
363,206,128219,2,0,L|322:214,2,38.5000011749268,8|8|8,0:0|0:0|1:2,0:0:0:0:
298,119,128562,2,0,L|257:127,2,38.5000011749268,8|8|8,0:0|0:0|1:2,0:0:0:0:
358,32,128905,1,8,0:0:0:0:
358,32,128990,1,8,0:0:0:0:
358,32,129076,2,0,L|395:24,3,38.5000011749268,8|8|8|8,1:2|0:0|0:0|0:0,0:0:0:0:
449,17,129419,6,0,P|478:63|462:104,1,77.0000023498536,6|0,1:2|0:0,0:0:0:0:
445,186,129762,2,0,P|386:197|346:212,1,77.0000023498536,8|0,0:0|0:0,0:0:0:0:
298,119,130105,1,0,1:0:0:0:
201,166,130276,2,0,P|190:202|184:241,1,77.0000023498536,0|8,1:0|0:0,0:0:0:0:
246,349,130619,1,0,3:0:0:0:
246,349,130705,1,0,3:0:0:0:
246,349,130790,6,0,P|179:327|104:394,1,154.000004699707,2|10,1:2|0:0,0:0:0:0:
6,350,131305,2,0,P|23:256|45:168,1,154.000004699707,2|2,1:2|1:2,0:0:0:0:
5,95,131819,2,0,P|70:93|101:47,1,115.50000352478,8|0,0:0|0:0,0:0:0:0:
126,10,132162,6,0,P|169:18|228:36,1,77.0000023498536,2|0,1:2|0:0,0:0:0:0:
307,7,132505,1,8,0:0:0:0:
355,114,132676,1,0,3:0:0:0:
355,114,132762,1,0,3:0:0:0:
355,114,132847,2,0,P|317:136|278:127,1,77.0000023498536,2|0,1:2|1:0,0:0:0:0:
178,121,133190,2,0,P|187:158|194:196,1,77.0000023498536,8|0,0:0|0:0,0:0:0:0:
139,288,133533,6,0,B|233:261|198:332|296:308,1,154.000004699707,2|8,1:2|0:0,0:0:0:0:
380,384,134047,2,0,P|387:305|455:274,1,154.000004699707,2|2,1:2|1:2,0:0:0:0:
510,184,134562,1,8,0:0:0:0:
450,107,134733,1,8,0:3:0:0:
450,107,134819,1,8,0:3:0:0:
450,107,134905,6,0,P|385:125|343:127,1,77.0000023498536,6|0,1:2|0:0,0:0:0:0:
306,208,135247,2,0,P|268:214|231:227,1,77.0000023498536,10|0,0:0|0:0,0:0:0:0:
129,193,135590,1,2,1:2:0:0:
99,88,135762,1,0,1:0:0:0:
168,5,135933,2,0,P|215:43|313:22,2,154.000004699707,10|0|10,0:0|1:0|0:0,0:0:0:0:
99,88,136790,2,0,P|53:92|26:122,1,77.0000023498536,0|2,1:0|0:0,0:0:0:0:
18,219,137133,1,0,1:0:0:0:
121,186,137305,2,0,P|158:173|210:165,1,77.0000023498536,8|0,0:0|0:0,0:0:0:0:
307,131,137647,6,0,P|290:187|280:274,1,115.50000352478,2|0,1:2|0:0,0:0:0:0:
316,284,137990,2,0,B|217:263|267:344|150:320,1,154.000004699707,10|2,0:0|1:2,0:0:0:0:
78,372,138505,1,0,1:0:0:0:
2,295,138676,2,0,P|18:248|27:201,1,77.0000023498536,8|0,0:0|0:0,0:0:0:0:
108,154,139019,5,2,1:2:0:0:
6,117,139190,1,0,1:0:0:0:
87,45,139362,1,8,0:0:0:0:
188,81,139533,1,8,0:3:0:0:
188,81,139619,1,8,0:0:0:0:
188,81,139705,2,0,P|219:102|268:87,1,77.0000023498536,10|8,1:2|0:3,0:0:0:0:
351,46,140047,2,0,P|402:37|440:23,1,77.0000023498536,10|4,1:2|0:3,0:0:0:0:
349,150,140390,6,0,B|348:247|286:201|289:314,1,168,6|0,1:2|0:0,0:0:0:0:
348,352,141076,2,0,P|435:367|479:304,1,168,2|0,0:0|0:0,0:0:0:0:
504,236,141762,2,0,P|492:152|484:118,1,112,6|2,1:2|0:0,0:0:0:0:
443,59,142276,1,2,0:0:0:0:
348,230,142619,1,10,0:0:0:0:
269,172,142790,2,2,P|228:199|155:176,1,105,8|0,0:0|0:0,0:1:0:0:
124,171,143133,6,0,P|141:104|157:71,1,77.0000023498536,6|2,1:2|0:0,0:0:0:0:
221,21,143476,2,0,P|257:8|295:1,1,77.0000023498536,10|2,0:1|0:0,0:0:0:0:
398,32,143819,1,2,1:0:0:0:
422,136,143990,1,2,1:2:0:0:
351,218,144162,2,0,P|338:254|331:292,1,77.0000023498536,10|2,0:1|0:0,0:0:0:0:
409,366,144505,6,0,P|463:365|490:325,1,77.0000023498536,2|2,1:0|1:2,0:0:0:0:
506,247,144847,1,10,0:1:0:0:
430,169,145019,2,2,B|346:149|377:218|277:192,1,154.000004699707,2|2,1:0|1:0,0:1:0:0:
216,278,145533,1,10,0:0:0:0:
114,241,145705,2,2,P|70:186|95:110,1,154.000004699707,2|2,0:1|0:0,0:1:0:0:
166,33,146219,2,0,P|239:20|266:9,1,77.0000023498536,10|0,0:1|0:0,0:0:0:0:
317,96,146562,1,2,1:0:0:0:
213,124,146733,1,0,1:0:0:0:
286,203,146905,2,0,P|276:240|272:278,1,77.0000023498536,10|2,0:1|0:1,0:0:0:0:
207,364,147247,6,0,P|178:344|119:358,1,77.0000023498536,2|0,1:0|1:0,0:0:0:0:
35,382,147590,1,10,0:1:0:0:
3,278,147762,2,0,P|24:197|38:96,1,154.000004699707,2|2,1:2|1:2,0:0:0:0:
32,19,148276,1,10,0:1:0:0:
129,63,148447,1,2,0:3:0:0:
128,62,148533,1,2,0:3:0:0:
128,62,148619,6,2,P|169:57|218:42,1,77.0000023498536,6|0,1:2|0:0,0:1:0:0:
137,171,148962,1,8,0:0:0:0:
241,145,149133,2,0,P|278:135|316:130,1,77.0000023498536,2|0,0:1|0:0,0:0:0:0:
364,33,149476,1,2,1:0:0:0:
457,85,149647,2,0,P|483:118|472:168,1,77.0000023498536,10|2,0:1|0:0,0:0:0:0:
407,229,149990,6,0,L|417:282,3,38.5000011749268,2|2|2|2,1:3|0:3|1:3|0:3,0:0:0:0:
423,320,150333,1,8,0:0:0:0:
325,379,150505,2,2,B|340:292|271:330|288:221,1,154.000004699707,2|0,1:0|1:0,0:1:0:0:
332,138,151019,2,0,P|276:136|249:104,1,77.0000023498536,10|2,0:0|0:0,0:0:0:0:
185,200,151362,6,0,P|122:206|63:225,1,115.50000352478,2|0,1:3|0:0,0:0:0:0:
18,214,151705,2,0,P|32:149|31:126,1,77.0000023498536,10|0,0:1|0:0,0:0:0:0:
18,91,151962,1,2,0:0:0:0:
18,91,152047,2,0,P|60:67|98:82,1,77.0000023498536,2|2,1:0|1:2,0:0:0:0:
172,8,152390,1,10,0:1:0:0:
281,51,152562,1,2,0:0:0:0:
281,51,152647,1,2,0:0:0:0:
281,51,152733,6,0,P|260:110|258:137,1,77.0000023498536,2|0,1:0|1:0,0:0:0:0:
341,193,153076,1,10,0:1:0:0:
290,291,153247,1,8,0:0:0:0:
290,291,153333,1,8,0:0:0:0:
290,291,153419,2,0,L|234:301,3,38.5000011749268,10|8|8|8,1:2|0:0|0:0|0:0,0:0:0:0:
204,272,153762,2,0,L|166:265,3,38.5000011749268,10|8|8|8,1:2|0:0|0:0|0:0,0:0:0:0:
142,314,154105,6,0,P|43:317|7:261,1,154.000004699707,6|8,1:2|0:0,0:0:0:0:
0,176,154619,2,0,P|74:158|91:157,1,77.0000023498536,2|2,0:1|1:2,0:0:0:0:
155,85,154962,1,2,1:2:0:0:
207,178,155133,2,0,B|303:180|258:124|350:129,1,154.000004699707,10|2,0:1|1:2,0:0:0:0:
444,174,155647,2,0,P|465:135|452:95,1,77.0000023498536,2|10,1:0|0:0,0:0:0:0:
396,15,155990,1,2,1:2:0:0:
288,24,156162,2,0,P|274:72|271:116,1,77.0000023498536,2|0,0:1|1:0,0:0:0:0:
161,211,156505,2,0,P|155:173|175:141,1,77.0000023498536,10|0,0:1|0:0,0:0:0:0:
259,247,156847,6,0,B|259:338|199:286|197:404,2,154.000004699707,2|10|0,1:0|0:0|1:0,0:0:0:0:
355,197,157705,1,0,1:0:0:0:
303,102,157876,2,0,P|358:87|385:85,1,77.0000023498536,10|2,0:1|0:0,0:0:0:0:
483,105,158219,2,0,L|470:155,3,38.5000011749268,2|2|2|2,1:3|0:3|1:3|0:3,0:0:0:0:
501,188,158562,2,0,L|488:238,3,38.5000011749268,8|2|2|2,0:0|0:3|1:3|0:3,0:0:0:0:
481,278,158905,2,0,L|431:291,3,38.5000011749268,2|2|2|2,0:0|0:2|1:2|0:2,0:0:0:0:
418,334,159247,2,0,P|372:309|301:330,1,115.50000352478,10|0,0:0|0:0,0:0:0:0:
281,365,159590,5,4,1:2:0:0:
186,312,159762,2,2,P|99:341|26:273,1,192.500005874634,2|0,0:1|0:0,0:1:0:0:
7,231,160276,2,0,P|29:135|39:109,2,115.50000352478,2|2|2,1:0|0:1|0:1,0:0:0:0:
117,179,160962,1,2,1:0:0:0:
198,253,161133,2,0,P|194:308|163:330,1,77.0000023498536,2|8,1:0|0:0,0:0:0:0:
117,179,161476,2,2,P|216:158|284:152,1,154.000004699707,2|0,1:0|1:0,0:1:0:0:
376,160,161990,2,0,B|384:65|313:110|327:0,1,154.000004699707,10|0,0:0|1:0,0:0:0:0:
511,130,162676,5,10,0:1:0:0:
473,235,162847,1,2,0:0:0:0:
473,235,162933,1,10,0:0:0:0:
473,235,163019,2,0,P|457:288|454:324,1,77.0000023498536,2|2,1:0|1:2,0:0:0:0:
334,384,163362,2,0,P|350:331|353:295,1,77.0000023498536,10|0,0:1|0:0,0:0:0:0:
365,190,163705,5,2,1:2:0:0:
365,190,163790,1,2,0:2:0:0:
365,190,163876,2,0,P|324:210|269:192,1,77.0000023498536,2|10,1:2|0:1,0:0:0:0:
215,293,164219,1,8,0:0:0:0:
215,293,164305,1,8,0:0:0:0:
215,293,164390,2,0,P|149:279|109:278,1,77.0000023498536,10|8,1:0|0:3,0:0:0:0:
38,220,164733,2,0,P|33:181|23:144,1,77.0000023498536,8|4,1:0|0:3,0:0:0:0:
91,58,165076,5,4,1:0:0:0:
38,112,176047,6,0,P|151:147|248:62,1,251.999992309571,6|0,0:0|0:0,0:0:0:0:
348,9,177419,2,0,P|370:94|399:266,1,251.999992309571,2|0,0:0|0:0,0:0:0:0:
458,154,178790,2,0,B|293:122|400:240|220:211,1,251.999992309571,2|0,0:0|0:0,0:0:0:0:
143,292,180162,2,0,P|85:242|113:76,1,251.999992309571,2|0,0:0|0:0,0:0:0:0:
223,90,181533,5,6,0:0:0:0:
277,194,181876,1,2,0:0:0:0:
393,176,182219,1,2,0:0:0:0:
414,60,182562,1,2,0:0:0:0:
311,2,182905,1,2,0:0:0:0:
84,64,183590,2,0,P|72:112|65:161,1,83.9999974365235,2|0,0:0|0:0,0:0:0:0:
108,235,184276,5,2,0:0:0:0:
413,67,189762,6,0,P|358:75|311:94,1,77.0000023498536,6|0,1:2|0:0,0:0:0:0:
237,42,190105,2,0,P|226:78|222:117,1,77.0000023498536,10|0,0:0|0:0,0:0:0:0:
236,169,190362,1,8,0:0:0:0:
236,169,190447,2,0,P|187:192|147:177,1,77.0000023498536,2|0,1:2|1:0,0:0:0:0:
62,156,190790,2,0,P|25:180|32:265,1,115.50000352478,10|0,0:0|0:0,0:0:0:0:
12,300,191133,6,0,B|112:276|68:350|175:328,1,154.000004699707,0|10,1:0|0:0,0:0:0:0:
251,380,191647,2,0,P|267:296|291:209,1,154.000004699707,0|0,1:0|1:0,0:0:0:0:
205,155,192162,1,10,0:0:0:0:
271,72,192333,1,0,3:0:0:0:
271,72,192419,1,0,3:0:0:0:
271,72,192505,6,0,P|310:60|362:52,1,77.0000023498536,2|0,1:2|0:0,0:0:0:0:
445,15,192847,2,0,P|475:58|462:94,1,77.0000023498536,10|0,0:0|0:0,0:0:0:0:
400,161,193190,1,2,1:2:0:0:
505,185,193362,1,0,1:0:0:0:
434,265,193533,2,0,P|396:271|359:283,1,77.0000023498536,8|0,0:0|0:0,0:0:0:0:
296,371,193876,5,2,1:2:0:0:
220,294,194047,2,0,L|229:256,2,38.5000011749268,8|8|8,0:0|0:0|1:2,0:0:0:0:
121,338,194390,2,0,L|111:375,2,38.5000011749268,8|8|8,0:0|0:0|1:2,0:0:0:0:
47,273,194733,1,8,0:0:0:0:
47,273,194819,1,8,0:0:0:0:
47,273,194905,2,0,L|56:235,3,38.5000011749268,8|8|8|8,1:2|0:0|0:0|0:0,0:0:0:0:
47,182,195247,6,0,P|93:204|133:184,1,77.0000023498536,6|0,1:2|0:0,0:0:0:0:
211,247,195590,2,0,P|222:199|239:153,1,77.0000023498536,8|0,0:0|0:0,0:0:0:0:
322,115,195933,1,0,1:0:0:0:
272,19,196105,2,0,P|235:7|197:0,1,77.0000023498536,0|8,1:0|0:0,0:0:0:0:
110,57,196447,1,0,3:0:0:0:
110,57,196533,1,0,3:0:0:0:
110,57,196619,6,0,B|103:149|58:85|41:203,1,154.000004699707,2|10,1:2|0:0,0:0:0:0:
7,291,197133,2,0,P|104:296|142:235,1,154.000004699707,2|2,1:2|1:2,0:0:0:0:
193,166,197647,2,0,P|275:148|312:144,1,115.50000352478,8|0,0:0|0:0,0:0:0:0:
360,142,197990,6,0,P|360:99|404:73,1,77.0000023498536,2|0,1:2|0:0,0:0:0:0:
489,99,198333,1,8,0:0:0:0:
512,206,198505,1,0,3:0:0:0:
512,206,198590,1,0,3:0:0:0:
512,206,198676,2,0,P|494:263|489:300,1,77.0000023498536,2|0,1:2|1:0,0:0:0:0:
427,367,199019,2,0,P|391:347|347:358,1,77.0000023498536,8|0,0:0|0:0,0:0:0:0:
240,381,199362,6,0,P|271:270|280:223,1,154.000004699707,2|8,1:2|0:0,0:0:0:0:
373,180,199876,2,0,P|421:133|373:35,1,154.000004699707,2|2,1:2|1:2,0:0:0:0:
310,0,200390,1,8,0:0:0:0:
236,79,200562,1,8,0:3:0:0:
236,79,200647,1,8,0:3:0:0:
236,79,200733,6,0,P|187:71|137:57,1,77.0000023498536,6|0,1:2|0:0,0:0:0:0:
49,152,201076,2,0,P|98:160|148:174,1,77.0000023498536,10|0,0:0|0:0,0:0:0:0:
230,186,201419,1,2,1:2:0:0:
264,287,201590,1,0,1:0:0:0:
196,371,201762,2,0,B|99:375|166:306|29:317,2,154.000004699707,10|0|10,0:0|1:0|0:0,0:0:0:0:
293,323,202619,2,0,P|310:253|324:219,1,77.0000023498536,0|2,1:0|0:0,0:0:0:0:
261,152,202962,1,0,1:0:0:0:
164,198,203133,2,0,P|126:219|78:199,1,77.0000023498536,8|0,0:0|0:0,0:0:0:0:
10,144,203476,6,0,P|33:75|45:19,1,115.50000352478,2|0,1:2|0:0,0:0:0:0:
90,8,203819,2,0,P|129:53|236:29,1,154.000004699707,10|2,0:0|1:2,0:0:0:0:
318,10,204333,1,0,1:0:0:0:
281,132,204505,2,0,P|343:113|375:111,1,77.0000023498536,8|0,0:0|0:0,0:0:0:0:
449,61,204847,6,0,P|469:106|455:144,1,77.0000023498536,2|0,1:2|1:0,0:0:0:0:
392,213,205190,1,8,0:0:0:0:
497,236,205362,1,0,1:0:0:0:
429,319,205533,1,8,0:0:0:0:
429,319,205619,1,8,0:0:0:0:
429,319,205705,2,0,L|379:329,1,38.5000011749268,8|4,0:3|0:3,0:0:0:0:
348,359,205876,2,0,P|289:327|232:338,1,115.50000352478,8|0,1:2|0:0,0:0:0:0:
196,360,206219,6,0,P|182:292|174:267,1,77.0000023498536,6|0,1:2|0:0,0:0:0:0:
266,220,206562,2,0,P|256:182|249:144,1,77.0000023498536,8|0,0:0|0:0,0:0:0:0:
328,70,206905,1,2,1:2:0:0:
230,25,207076,1,0,1:0:0:0:
142,87,207247,2,0,P|103:110|52:94,1,77.0000023498536,8|0,0:0|0:0,0:0:0:0:
25,90,207505,1,8,0:0:0:0:
25,90,207590,6,0,P|46:176|54:263,1,154.000004699707,2|10,1:2|0:0,0:0:0:0:
27,367,208105,2,0,P|86:325|179:342,1,154.000004699707,2|2,1:2|1:2,0:0:0:0:
260,380,208619,1,8,0:0:0:0:
325,296,208790,1,0,3:0:0:0:
325,296,208876,1,0,3:0:0:0:
325,296,208962,6,0,P|345:259|329:211,1,77.0000023498536,2|0,1:2|0:0,0:0:0:0:
299,125,209305,2,0,P|247:134|198:156,1,77.0000023498536,8|0,0:0|0:0,0:0:0:0:
197,246,209647,1,2,1:2:0:0:
92,216,209819,1,0,1:0:0:0:
122,112,209990,2,0,P|134:75|139:37,1,77.0000023498536,8|0,0:0|0:0,0:0:0:0:
244,12,210333,6,0,B|341:-14|302:53|396:30,1,154.000004699707,2|10,1:2|0:0,0:0:0:0:
497,17,210847,2,0,P|471:104|462:182,1,154.000004699707,2|2,1:2|1:2,0:0:0:0:
355,148,211362,1,8,0:0:0:0:
398,256,211533,1,8,0:3:0:0:
398,256,211619,1,8,0:3:0:0:
398,256,211705,6,0,P|435:277|494:265,1,77.0000023498536,6|0,1:2|0:0,0:0:0:0:
355,148,212047,2,0,P|296:156|265:166,1,77.0000023498536,10|0,0:0|0:0,0:0:0:0:
248,264,212390,1,2,1:2:0:0:
144,296,212562,1,0,1:0:0:0:
64,223,212733,2,0,B|59:131|117:175|107:62,1,154.000004699707,10|0,0:0|1:0,0:0:0:0:
323,60,213419,5,10,0:0:0:0:
226,12,213590,2,0,P|241:86|253:173,1,154.000004699707,0|0,1:0|1:0,0:0:0:0:
333,235,214105,2,0,P|295:268|294:341,1,115.50000352478,10|0,0:0|0:0,0:0:0:0:
310,379,214447,2,0,P|242:357|216:356,1,77.0000023498536,2|0,1:2|0:0,0:0:0:0:
145,298,214790,2,0,P|107:305|71:320,1,77.0000023498536,10|0,0:0|0:0,0:0:0:0:
21,322,215047,1,8,0:0:0:0:
21,322,215133,2,0,P|-1:283|20:231,1,77.0000023498536,2|0,1:2|1:0,0:0:0:0:
42,151,215476,2,0,P|77:135|115:128,1,77.0000023498536,8|0,0:0|0:0,0:0:0:0:
202,192,215819,5,2,1:2:0:0:
296,140,215990,2,0,L|302:102,2,38.5000011749268,8|8|8,0:0|0:0|1:2,0:0:0:0:
378,209,216333,2,0,L|371:246,2,38.5000011749268,8|8|8,0:0|0:0|1:2,0:0:0:0:
483,169,216676,1,8,0:0:0:0:
483,169,216762,1,8,0:0:0:0:
483,169,216847,2,0,L|489:131,3,38.5000011749268,8|8|8|8,1:2|0:0|0:0|0:0,0:0:0:0:
504,79,217190,6,0,P|457:83|425:50,1,77.0000023498536,6|0,1:2|0:0,0:0:0:0:
343,7,217533,2,0,P|327:53|317:98,1,77.0000023498536,8|0,0:0|0:0,0:0:0:0:
219,118,217876,1,0,1:0:0:0:
191,221,218047,1,0,1:0:0:0:
256,307,218219,2,0,P|292:293|329:284,1,77.0000023498536,8|0,0:0|0:0,0:0:0:0:
374,314,218476,1,8,0:0:0:0:
374,314,218562,6,0,P|425:262|510:281,1,154.000004699707,2|10,1:2|0:0,0:0:0:0:
510,165,219076,2,0,B|413:158|479:110|353:108,1,154.000004699707,2|2,1:2|1:2,0:0:0:0:
277,160,219590,1,8,0:0:0:0:
209,89,219762,1,0,3:0:0:0:
209,89,219847,1,0,3:0:0:0:
209,89,219933,6,0,P|224:24|239:-12,1,77.0000023498536,2|0,1:2|0:0,0:0:0:0:
125,147,220276,2,0,P|89:167|43:149,1,77.0000023498536,8|0,0:0|0:0,0:0:0:0:
1,252,220619,1,2,1:2:0:0:
64,338,220790,1,0,1:0:0:0:
140,261,220962,2,0,P|176:249|214:242,1,77.0000023498536,8|0,0:0|0:0,0:0:0:0:
321,260,221305,6,0,P|345:328|291:383,1,154.000004699707,2|8,1:2|0:0,0:0:0:0:
188,359,221819,2,0,P|202:260|218:176,1,154.000004699707,2|2,1:2|1:2,0:0:0:0:
143,122,222333,1,8,0:0:0:0:
211,34,222505,1,8,0:3:0:0:
211,34,222590,1,8,0:3:0:0:
211,34,222676,6,0,P|243:54|297:35,1,77.0000023498536,6|0,1:2|0:0,0:0:0:0:
383,16,223019,2,0,P|400:80|406:127,1,77.0000023498536,10|0,0:0|0:0,0:0:0:0:
499,137,223362,1,2,1:2:0:0:
475,242,223533,1,0,1:0:0:0:
378,193,223705,2,0,P|334:222|258:199,1,115.50000352478,10|0,0:0|0:0,0:0:0:0:
234,176,224047,6,0,B|147:154|177:229|73:207,1,154.000004699707,0|10,1:0|0:0,0:0:0:0:
2,145,224562,1,0,1:0:0:0:
21,39,224733,2,0,P|58:45|95:56,1,77.0000023498536,2|0,0:0|1:0,0:0:0:0:
194,12,225076,2,0,P|230:23|268:29,1,77.0000023498536,8|0,0:0|0:0,0:0:0:0:
325,25,225333,1,8,0:0:0:0:
325,25,225419,6,0,P|375:70|351:166,2,154.000004699707,2|10|2,1:2|0:0|1:2,0:0:0:0:
268,114,226276,1,0,1:0:0:0:
162,95,226447,2,0,P|124:101|87:112,1,77.0000023498536,8|0,0:0|0:0,0:0:0:0:
5,184,226790,5,2,1:2:0:0:
24,290,226962,1,0,1:0:0:0:
128,313,227133,1,8,0:0:0:0:
192,228,227305,1,8,0:3:0:0:
192,228,227390,1,8,0:0:0:0:
192,228,227476,2,0,P|228:249|285:228,1,77.0000023498536,10|8,1:2|0:3,0:0:0:0:
351,185,227819,2,0,P|387:164|444:185,1,77.0000023498536,10|4,1:2|0:3,0:0:0:0:
508,266,228162,6,0,B|397:253|460:324|347:314,1,168,6|0,1:2|0:0,0:0:0:0:
278,308,228847,2,0,P|261:197|247:133,1,168,2|0,0:0|0:0,0:0:0:0:
271,67,229533,2,0,P|332:80|376:49,1,112,6|2,1:2|0:0,0:0:0:0:
439,16,230047,1,2,0:0:0:0:
511,197,230390,1,10,0:0:0:0:
461,281,230562,2,0,P|391:264|340:259,1,105,8|0,0:0|0:0,0:0:0:0:
327,298,230905,6,0,P|265:257|182:281,1,140,6|8,1:2|0:0,0:0:0:0:
121,318,231419,1,0,0:0:0:0:
121,318,231590,2,0,P|105:359|100:389,1,70,0|0,1:0|1:0,0:0:0:0:
1,319,231933,2,0,P|17:278|22:248,1,70,10|0,0:0|0:0,0:0:0:0:
9,159,232276,5,0,1:0:0:0:
9,159,232447,1,0,1:0:0:0:
101,191,232619,1,8,0:0:0:0:
89,93,232790,2,0,B|173:71|146:142|242:116,1,140,0|0,1:0|1:0,0:0:0:0:
302,174,233305,1,8,0:0:0:0:
470,76,233647,6,0,P|383:81|355:21,1,140,2|8,1:2|0:0,0:0:0:0:
272,5,234162,1,0,0:0:0:0:
272,5,234333,2,0,P|230:17|184:24,1,70,0|0,1:0|1:0,0:0:0:0:
129,85,234676,2,0,P|117:127|110:173,1,70,8|0,0:0|0:0,0:0:0:0:
197,222,235019,5,2,1:2:0:0:
197,222,235190,1,0,1:0:0:0:
218,126,235362,1,10,0:0:0:0:
295,194,235533,1,2,1:2:0:0:
295,194,235619,1,8,0:0:0:0:
295,194,235705,2,0,P|345:177|368:187,1,70,8|4,0:0|0:3,0:0:0:0:
451,141,236047,2,0,P|475:233|481:267,1,105,10|0,0:0|0:0,0:0:0:0:
505,282,236390,6,0,B|431:264|465:341|350:313,1,140,6|8,1:2|0:0,0:0:0:0:
291,368,236905,1,0,0:0:0:0:
291,368,237076,2,0,P|272:329|291:289,1,70,0|0,1:0|1:0,0:0:0:0:
338,227,237419,2,0,P|357:188|338:148,1,70,8|0,0:0|0:0,0:0:0:0:
295,89,237762,5,2,1:2:0:0:
295,89,237933,1,0,1:0:0:0:
244,173,238105,1,8,0:0:0:0:
185,95,238276,2,0,P|119:109|48:120,1,140,2|0,1:2|1:0,0:0:0:0:
8,210,238790,1,10,0:0:0:0:
109,377,239133,6,0,B|108:291|163:348|154:228,1,140,2|8,1:2|0:0,0:0:0:0:
255,240,239647,1,0,0:0:0:0:
255,240,239819,2,0,P|240:180|238:151,1,70,0|0,1:0|1:0,0:0:0:0:
164,108,240162,2,0,P|179:48|181:19,1,70,8|0,0:0|0:0,0:0:0:0:
271,4,240505,5,0,1:0:0:0:
271,4,240676,1,0,1:0:0:0:
340,72,240847,1,8,0:0:0:0:
431,28,241019,1,8,0:0:0:0:
431,28,241105,1,8,0:0:0:0:
431,28,241190,2,0,P|451:72|441:100,1,70,8|8,1:2|0:3,0:0:0:0:
496,186,241533,2,0,P|447:196|407:208,1,70,8|4,1:2|0:3,0:0:0:0:
329,177,241876,5,6,1:2:0:0:
256,192,241962,12,4,248733,0:0:0:0:
