osu file format v14

[General]
AudioFilename: audio.mp3
AudioLeadIn: 0
PreviewTime: 51942
Countdown: 0
SampleSet: Soft
StackLeniency: 0.7
Mode: 0
LetterboxInBreaks: 0
WidescreenStoryboard: 0

[Editor]
Bookmarks: 52694,88371
DistanceSpacing: 1.3
BeatDivisor: 4
GridSize: 16
TimelineZoom: 1.5

[Metadata]
Title:Get the Freedom
TitleUnicode:Get the Freedom
Artist:Kicco
ArtistUnicode:Kicco
Creator:Bellicose
Version:Hard
Source:ねこツク、さくら。
Tags:meis clauson angel note lump of sugar Nekotsuku Sakura kemonomimi eroge video game visual novel vn japanese pop opening short version sodarose superdaloubot [r] ron jpop j-pop op 羽生みいな hanyu miina
BeatmapID:2422813
BeatmapSetID:1159892

[Difficulty]
HPDrainRate:5
CircleSize:3.8
OverallDifficulty:6
ApproachRate:8
SliderMultiplier:1.4
SliderTickRate:1

[Events]
//Background and Video events
Video,0,"video.mp4"
0,0,"bg5.jpg",0,0
//Break Periods
//Storyboard Layer 0 (Background)
//Storyboard Layer 1 (Fail)
//Storyboard Layer 2 (Pass)
//Storyboard Layer 3 (Foreground)
//Storyboard Layer 4 (Overlay)
//Storyboard Sound Samples

[TimingPoints]
600,342.857142857143,4,2,1,50,1,0
600,-111.111111111111,4,2,1,50,0,0
11571,-100,4,2,1,65,0,0
22542,-111.111111111111,4,2,1,55,0,0
22885,-111.111111111111,4,2,2,55,0,0
28028,-111.111111111111,4,2,1,55,0,0
28371,-111.111111111111,4,2,2,55,0,0
32142,-105.263157894737,4,2,1,60,0,0
32657,-105.263157894737,4,2,1,60,0,0
41742,-111.111111111111,4,2,1,55,0,0
49971,-100,4,2,1,65,0,0
51342,-100,4,2,1,70,0,0
52028,-111.111111111111,4,2,1,50,0,0
52714,-95.2380952380952,4,2,1,70,0,1
74657,-111.111111111111,4,2,1,60,0,0
76028,-100,4,2,1,60,0,0
77400,-100,4,2,1,65,0,0
97971,-100,4,2,1,5,0,0

[Colours]
Combo1 : 188,174,253
Combo2 : 185,205,253
Combo3 : 254,201,249
Combo4 : 227,174,253

[HitObjects]
78,61,600,6,0,P|104:101|190:94,1,125.999996154785,2|0,0:0|0:0,0:0:0:0:
329,43,1285,2,0,P|313:86|302:179,1,125.999996154785,2|0,0:0|0:0,0:0:0:0:
426,271,1971,2,0,P|399:321|325:299,1,125.999996154785,2|2,0:0|0:0,0:0:0:0:
287,248,2485,1,2,0:0:0:0:
158,349,2828,2,0,P|164:280|178:199,1,125.999996154785,2|0,0:0|0:0,0:0:0:0:
216,154,3342,6,0,P|232:90|161:63,1,125.999996154785,2|0,0:0|0:0,0:0:0:0:
30,16,4028,2,0,P|39:78|44:141,1,125.999996154785,2|0,0:0|0:0,0:0:0:0:
6,300,4714,2,0,P|68:282|152:271,1,125.999996154785,2|2,0:0|0:0,0:0:0:0:
210,283,5228,1,2,0:0:0:0:
361,344,5571,2,0,P|432:355|466:307,1,125.999996154785,2|0,0:0|0:0,0:0:0:0:
479,237,6085,6,0,P|487:159|497:88,2,125.999996154785,2|2|2,0:0|0:0|0:0,0:0:0:0:
400,92,7114,2,0,P|391:154|385:217,1,125.999996154785,2|0,0:0|0:0,0:0:0:0:
288,349,7800,2,0,P|311:288|275:228,2,125.999996154785,2|2|2,0:0|0:0|0:0,0:0:0:0:
134,292,8828,2,0,P|147:204|163:148,1,125.999996154785,2|2,0:0|0:0,0:0:0:0:
27,269,9514,2,0,P|40:181|56:125,1,125.999996154785,2|0,0:0|0:0,0:0:0:0:
160,24,10200,6,0,B|308:36|232:137|387:118,1,251.999992309571,2|2,0:0|0:0,0:0:0:0:
464,108,11057,1,2,0:0:0:0:
464,108,11228,2,0,L|451:195,1,62.9999980773926,2|2,0:0|0:0,0:0:0:0:
394,239,11571,6,0,P|435:271|415:361,1,140,6|8,1:2|0:0,0:0:0:0:
335,363,12085,1,0,3:0:0:0:
335,363,12171,1,0,3:0:0:0:
335,363,12257,2,0,P|295:355|236:350,1,70,0|0,1:0|1:0,0:0:0:0:
190,299,12600,2,0,P|155:303|121:310,1,70,10|2,0:0|0:0,0:0:0:0:
35,332,12942,5,0,1:0:0:0:
35,332,13114,1,0,1:0:0:0:
19,247,13285,1,8,0:0:0:0:
19,247,13457,2,0,P|82:229|162:212,1,140,0|0,1:0|1:0,0:0:0:0:
245,207,13971,1,8,0:0:0:0:
308,36,14314,6,0,P|347:84|321:153,2,140,2|8|0,1:2|0:0|1:0,0:0:0:0:
218,16,15171,1,0,1:0:0:0:
144,69,15342,2,0,P|94:75|68:84,1,70,8|0,0:0|0:0,0:0:0:0:
26,159,15685,5,2,1:2:0:0:
26,159,15857,1,2,1:2:0:0:
54,245,16028,1,10,0:0:0:0:
144,230,16200,2,0,L|126:177,2,35,2|0|0,1:2|1:0|1:0,0:0:0:0:
171,316,16542,1,2,1:2:0:0:
261,303,16714,2,0,P|307:304|342:313,1,70,10|0,0:0|0:0,0:0:0:0:
410,352,17057,6,0,P|484:288|462:230,1,140,6|8,1:1|0:0,0:0:0:0:
416,190,17571,1,0,3:0:0:0:
416,190,17657,1,0,3:0:0:0:
416,190,17742,2,0,P|407:122|412:96,1,70,0|0,1:0|1:0,0:0:0:0:
418,30,18085,2,0,P|350:39|324:34,1,70,8|0,0:0|0:0,0:0:0:0:
258,27,18428,5,2,1:2:0:0:
258,27,18600,1,0,1:0:0:0:
179,71,18771,1,8,0:0:0:0:
179,71,18942,2,0,P|200:136|211:223,1,140,0|0,1:0|1:0,0:0:0:0:
190,296,19457,2,0,P|143:287|109:283,1,70,10|0,0:0|0:0,0:0:0:0:
39,326,19800,6,0,P|7:278|31:196,2,140,2|8|0,1:2|0:0|1:0,0:0:0:0:
121,284,20657,1,0,1:0:0:0:
191,341,20828,2,0,P|248:329|275:327,1,70,8|0,0:0|0:0,0:0:0:0:
354,340,21171,5,0,1:0:0:0:
354,340,21342,1,0,1:0:0:0:
443,355,21514,1,8,0:0:0:0:
478,271,21685,2,0,L|495:229,2,35,0|0|8,1:0|1:0|1:2,0:0:0:0:
388,255,22028,1,4,0:3:0:0:
388,255,22200,2,0,P|406:202|419:168,1,70,0|8,1:0|0:3,0:0:0:0:
447,115,22542,6,0,P|417:45|353:48,1,125.999996154785,6|10,1:2|0:0,0:0:0:0:
304,82,23057,2,0,P|236:88|173:100,1,125.999996154785,2|2,0:0|1:2,0:0:0:0:
103,129,23571,1,8,0:0:0:0:
103,129,23742,1,0,1:0:0:0:
23,108,23914,2,0,P|-3:152|11:224,1,125.999996154785,10|10,0:0|0:0,0:0:0:0:
87,251,24428,2,0,P|142:235|231:218,1,125.999996154785,2|2,1:2|1:2,0:0:0:0:
295,222,24942,1,8,0:0:0:0:
295,222,25114,1,0,1:0:0:0:
359,272,25285,6,0,P|381:329|338:385,1,125.999996154785,10|10,0:0|0:0,0:0:0:0:
267,364,25800,2,0,P|212:348|123:331,1,125.999996154785,2|2,0:0|1:2,0:0:0:0:
66,357,26314,1,8,0:0:0:0:
66,357,26485,1,0,1:0:0:0:
4,302,26657,2,0,P|26:230|38:179,1,125.999996154785,10|10,0:0|0:0,0:0:0:0:
9,103,27171,2,0,P|-3:65|59:10,1,125.999996154785,2|2,1:2|1:2,0:0:0:0:
131,30,27685,1,8,0:0:0:0:
131,30,27857,1,0,1:0:0:0:
187,89,28028,6,0,P|248:109|307:69,1,125.999996154785,6|10,1:1|0:0,0:0:0:0:
379,62,28542,1,2,0:0:0:0:
280,192,28885,2,0,P|292:246|295:274,1,62.9999980773926,2|8,1:2|0:0,0:0:0:0:
373,271,29228,1,0,1:0:0:0:
353,350,29400,2,0,P|419:374|468:341,1,125.999996154785,10|10,0:0|0:0,0:0:0:0:
508,279,29914,2,0,P|495:222|496:192,1,62.9999980773926,2|8,1:2|0:0,0:0:0:0:
422,178,30257,2,0,P|435:121|434:91,1,62.9999980773926,2|8,1:2|0:0,0:0:0:0:
482,49,30600,1,0,1:0:0:0:
402,25,30771,6,0,P|352:66|265:57,1,125.999996154785,10|10,0:0|0:0,0:0:0:0:
215,40,31285,2,0,P|208:113|199:166,1,125.999996154785,2|2,0:0|1:2,0:0:0:0:
180,245,31800,1,8,0:0:0:0:
180,245,31971,1,0,1:0:0:0:
105,288,32142,6,0,P|120:339|123:370,1,66.4999982242585,6|0,1:2|1:0,0:0:0:0:
207,364,32485,1,10,0:0:0:0:
271,306,32657,2,0,P|276:232|300:149,1,132.999996448517,6|2,1:1|1:2,0:0:0:0:
353,115,33171,2,0,L|351:64,3,33.2499991121292,10|10|10|10,0:0|0:0|0:0|0:0,0:0:0:0:
338,39,33514,6,0,P|270:20|220:66,1,132.999996448517,6|10,1:2|0:0,0:0:0:0:
165,118,34028,1,2,0:0:0:0:
165,118,34114,1,2,0:0:0:0:
165,118,34200,2,0,P|109:106|91:102,1,66.4999982242585,2|2,1:2|1:2,0:0:0:0:
14,118,34542,2,0,P|26:174|30:192,1,66.4999982242585,8|0,0:0|0:0,0:0:0:0:
48,267,34885,5,2,1:2:0:0:
48,267,35057,1,0,1:0:0:0:
35,355,35228,1,10,0:0:0:0:
35,355,35400,2,0,P|116:324|177:314,1,132.999996448517,2|2,1:2|1:2,0:0:0:0:
242,345,35914,2,0,P|253:289|252:263,1,66.4999982242585,8|0,0:0|0:0,0:0:0:0:
197,213,36257,6,0,P|172:141|205:87,1,132.999996448517,2|10,1:2|0:0,0:0:0:0:
268,44,36771,1,2,0:0:0:0:
268,44,36857,1,2,0:0:0:0:
268,44,36942,2,0,P|324:53|361:64,1,66.4999982242585,2|0,1:2|1:0,0:0:0:0:
408,12,37285,1,8,0:0:0:0:
510,151,37628,6,0,P|495:202|489:234,1,66.4999982242585,2|0,1:2|1:0,0:0:0:0:
464,299,37971,1,10,0:0:0:0:
464,299,38142,2,0,P|385:283|319:275,1,132.999996448517,2|2,1:2|1:2,0:0:0:0:
256,310,38657,2,0,P|200:312|164:320,1,66.4999982242585,8|0,0:0|0:0,0:0:0:0:
115,358,39000,6,0,P|87:271|123:235,1,132.999996448517,2|10,1:2|0:0,0:0:0:0:
175,192,39514,1,2,0:0:0:0:
175,192,39600,1,2,0:0:0:0:
175,192,39685,2,0,P|167:134|158:106,1,66.4999982242585,2|0,1:2|1:0,0:0:0:0:
142,42,40028,2,0,P|108:44|76:52,1,66.4999982242585,8|0,0:0|0:0,0:0:0:0:
9,107,40371,5,2,1:2:0:0:
9,107,40542,1,0,1:0:0:0:
70,167,40714,1,10,0:0:0:0:
28,242,40885,2,0,P|45:294|50:331,1,66.4999982242585,10|0,0:3|1:0,0:0:0:0:
110,365,41228,1,6,0:3:0:0:
110,365,41400,2,0,P|162:348|199:343,1,66.4999982242585,2|0,1:2|0:0,0:0:0:0:
255,349,41742,5,4,1:2:0:0:
365,228,42085,2,0,P|351:279|341:366,2,125.999996154785,2|10|0,1:2|0:0|0:0,0:0:0:0:
506,145,43114,2,0,P|489:98|419:89,1,125.999996154785,2|2,1:2|1:2,0:0:0:0:
359,143,43628,2,0,P|302:130|277:126,1,62.9999980773926,2|8,0:0|0:0,0:0:0:0:
245,65,43971,2,0,P|171:50|121:33,1,125.999996154785,2|0,0:0|0:0,0:0:0:0:
51,74,44485,5,0,1:0:0:0:
154,201,44828,2,0,P|179:246|150:319,2,125.999996154785,2|10|2,1:2|0:0|0:0,0:0:0:0:
8,278,45857,2,0,P|16:217|35:147,1,125.999996154785,2|2,1:2|1:2,0:0:0:0:
99,107,46371,1,2,0:0:0:0:
99,107,46457,1,2,0:0:0:0:
99,107,46542,2,0,P|150:122|176:127,1,62.9999980773926,10|10,0:0|0:3,0:0:0:0:
239,106,46885,1,6,0:3:0:0:
314,138,47057,1,0,1:0:0:0:
391,112,47228,5,4,1:1:0:0:
458,261,47571,2,0,P|483:223|447:139,2,125.999996154785,2|10|0,1:2|0:0|0:0,0:0:0:0:
331,365,48600,2,0,P|332:288|318:224,1,125.999996154785,2|2,1:2|1:2,0:0:0:0:
306,159,49114,2,0,P|258:175|231:179,1,62.9999980773926,2|8,0:0|0:0,0:0:0:0:
188,236,49457,2,0,P|149:246|50:244,1,125.999996154785,2|0,0:0|0:0,0:0:0:0:
9,173,49971,6,0,P|-3:97|44:55,1,140,6|10,1:1|0:0,0:0:0:0:
128,40,50485,2,0,P|180:57|206:58,1,70,2|0,0:0|1:0,0:0:0:0:
286,58,50828,1,2,1:2:0:0:
286,58,51000,2,0,P|272:90|267:124,1,70,8|0,0:0|0:0,0:0:0:0:
298,227,51342,5,10,1:2:0:0:
398,178,51514,1,8,1:3:0:0:
480,249,51685,1,4,1:3:0:0:
476,33,52714,6,0,P|444:81|340:58,1,146.999995513916,6|8,1:2|0:0,0:0:0:0:
298,22,53228,1,0,3:0:0:0:
298,22,53314,1,0,3:0:0:0:
298,22,53400,2,0,P|238:34|205:46,1,73.4999977569581,2|0,1:2|1:0,0:0:0:0:
131,44,53742,2,0,P|143:104|155:137,1,73.4999977569581,8|0,0:0|0:0,0:0:0:0:
228,165,54085,2,0,P|196:198|220:295,1,146.999995513916,2|10,1:2|0:0,0:0:0:0:
261,373,54600,2,0,P|178:364|93:343,1,146.999995513916,2|2,1:2|1:2,0:0:0:0:
21,365,55114,2,0,P|46:303|50:268,1,73.4999977569581,8|0,0:0|0:0,0:0:0:0:
29,202,55457,6,0,P|-1:143|45:79,2,146.999995513916,2|8|2,1:2|0:0|1:2,0:0:0:0:
123,184,56314,1,0,1:0:0:0:
206,229,56485,2,0,P|276:236|301:243,1,73.4999977569581,8|0,0:0|0:0,0:0:0:0:
346,304,56828,2,0,P|371:217|394:156,1,146.999995513916,2|10,1:2|0:0,0:0:0:0:
483,140,57342,2,0,P|505:83|439:18,1,146.999995513916,2|2,1:2|1:2,0:0:0:0:
363,15,57857,1,8,0:0:0:0:
363,15,58028,1,0,3:0:0:0:
267,26,58200,6,0,P|284:74|297:170,1,146.999995513916,6|10,1:1|0:0,0:0:0:0:
297,271,58714,1,0,3:0:0:0:
297,271,58800,1,0,3:0:0:0:
297,271,58885,2,0,P|236:252|215:251,1,73.4999977569581,2|0,1:2|1:0,0:0:0:0:
146,198,59228,2,0,P|109:204|75:217,1,73.4999977569581,10|0,0:0|0:0,0:0:0:0:
10,287,59571,2,0,P|26:346|127:344,1,146.999995513916,0|10,1:0|0:0,0:0:0:0:
194,336,60085,2,0,P|281:350|341:365,1,146.999995513916,0|0,1:0|1:0,0:0:0:0:
433,347,60600,1,10,0:0:0:0:
454,157,60942,6,0,P|502:190|475:277,2,146.999995513916,2|10|2,1:2|0:0|1:2,0:0:0:0:
372,209,61800,1,0,1:0:0:0:
282,175,61971,2,0,P|277:114|270:71,1,73.4999977569581,8|0,0:0|0:0,0:0:0:0:
207,33,62314,5,2,1:2:0:0:
111,36,62485,2,0,L|87:-19,2,36.749998878479,8|8|8,0:0|0:0|1:2,0:0:0:0:
44,104,62828,2,0,L|3:89,2,36.749998878479,8|8|8,0:0|0:0|1:2,0:0:0:0:
72,195,63171,1,8,0:0:0:0:
72,195,63257,1,8,0:0:0:0:
72,195,63342,2,0,L|122:201,3,36.749998878479,8|8|8|8,1:2|0:0|0:0|0:0,0:0:0:0:
142,233,63685,6,0,P|211:218|268:275,1,146.999995513916,6|8,1:2|0:0,0:0:0:0:
277,368,64200,1,0,3:0:0:0:
277,368,64285,1,0,3:0:0:0:
277,368,64371,2,0,P|217:354|195:354,1,73.4999977569581,2|0,1:2|1:0,0:0:0:0:
110,363,64714,1,8,0:0:0:0:
8,201,65057,2,0,P|77:213|139:151,1,146.999995513916,2|10,1:2|0:0,0:0:0:0:
146,72,65571,2,0,P|191:80|294:100,1,146.999995513916,2|2,1:2|1:2,0:0:0:0:
376,141,66085,2,0,P|388:73|395:53,1,73.4999977569581,8|0,0:0|0:0,0:0:0:0:
485,64,66428,6,0,P|471:158|454:223,1,146.999995513916,2|8,1:2|0:0,0:0:0:0:
431,300,66942,1,0,3:0:0:0:
431,300,67028,1,0,3:0:0:0:
431,300,67114,2,0,P|381:284|348:279,1,73.4999977569581,2|0,1:2|1:0,0:0:0:0:
288,344,67457,2,0,P|238:328|205:323,1,73.4999977569581,8|0,0:0|0:0,0:0:0:0:
121,329,67800,2,0,P|142:265|102:191,1,146.999995513916,2|10,1:2|0:0,0:0:0:0:
13,184,68314,2,0,P|30:110|54:31,1,146.999995513916,2|2,1:2|1:2,0:0:0:0:
144,23,68828,2,0,P|196:37|236:41,1,73.4999977569581,8|0,0:0|0:0,0:0:0:0:
275,114,69171,6,0,P|329:139|385:79,1,146.999995513916,6|10,1:1|0:0,0:0:0:0:
460,25,69685,1,0,3:0:0:0:
460,25,69771,1,0,3:0:0:0:
460,25,69857,2,0,P|467:79|478:111,1,73.4999977569581,2|0,1:2|1:0,0:0:0:0:
437,186,70200,2,0,P|446:221|449:258,1,73.4999977569581,10|0,0:0|0:0,0:0:0:0:
406,343,70542,6,0,P|340:321|262:304,1,146.999995513916,0|10,1:0|0:0,0:0:0:0:
172,333,71057,2,0,P|130:272|182:214,1,146.999995513916,0|0,1:0|1:0,0:0:0:0:
256,186,71571,2,0,P|249:138|241:98,1,73.4999977569581,10|0,0:0|0:0,0:0:0:0:
262,19,71914,2,0,P|322:13|379:76,2,146.999995513916,2|10|2,1:2|0:0|1:2,0:0:0:0:
172,54,72771,1,0,1:0:0:0:
124,136,72942,2,0,P|72:125|34:121,1,73.4999977569581,8|0,0:0|0:0,0:0:0:0:
4,207,73285,5,2,1:2:0:0:
4,207,73457,1,0,1:0:0:0:
34,297,73628,1,8,0:0:0:0:
123,331,73800,2,0,L|110:376,2,36.749998878479,0|8|10,1:0|0:0|1:2,0:0:0:0:
214,305,74142,1,4,0:3:0:0:
214,305,74314,2,0,P|216:243|210:204,1,73.4999977569581,2|8,1:0|0:3,0:0:0:0:
194,141,74657,6,0,B|316:138|254:208|369:202,1,188.999994232178,6|0,1:2|0:0,0:0:0:0:
445,195,75342,2,0,P|509:129|450:44,1,188.999994232178,0|0,3:0|0:0,0:0:0:0:
386,18,76028,6,0,P|318:32|235:43,1,140,6|2,1:1|0:0,0:0:0:0:
156,40,76542,2,0,P|172:101|173:132,1,70,2|0,0:0|0:0,0:0:0:0:
163,198,76885,1,8,1:2:0:0:
71,200,77057,1,8,1:2:0:0:
4,369,77400,6,0,P|60:327|150:345,1,140,6|8,1:2|0:0,0:0:0:0:
215,296,77914,1,0,3:0:0:0:
215,296,78000,1,0,3:0:0:0:
215,296,78085,2,0,P|281:311|302:313,1,70,0|0,1:0|1:0,0:0:0:0:
362,356,78428,2,0,P|396:350|430:340,1,70,10|2,0:0|0:0,0:0:0:0:
506,288,78771,5,0,1:0:0:0:
506,288,78942,1,0,1:0:0:0:
505,200,79114,1,8,0:0:0:0:
505,200,79285,2,0,P|491:122|466:51,1,140,0|0,1:0|1:0,0:0:0:0:
401,5,79800,1,8,0:0:0:0:
252,109,80142,6,0,P|305:127|376:90,2,140,2|8|0,1:2|0:0|1:0,0:0:0:0:
164,124,81000,1,0,1:0:0:0:
164,124,81171,2,0,P|180:192|179:216,1,70,8|0,0:0|0:0,0:0:0:0:
170,282,81514,5,2,1:2:0:0:
170,282,81685,1,2,1:2:0:0:
82,254,81857,1,10,0:0:0:0:
10,310,82028,2,0,L|-9:255,2,35,2|0|0,1:2|1:0|1:0,0:0:0:0:
68,384,82371,1,2,1:2:0:0:
68,384,82542,2,0,P|120:373|162:369,1,70,10|0,0:0|0:0,0:0:0:0:
227,368,82885,6,0,P|261:299|229:248,1,140,6|8,1:1|0:0,0:0:0:0:
153,202,83400,1,0,3:0:0:0:
153,202,83485,1,0,3:0:0:0:
153,202,83571,2,0,P|163:128|169:116,1,70,0|0,1:0|1:0,0:0:0:0:
158,41,83914,2,0,P|124:49|89:48,1,70,8|0,0:0|0:0,0:0:0:0:
8,91,84257,5,2,1:2:0:0:
8,91,84428,1,0,1:0:0:0:
15,185,84600,1,8,0:0:0:0:
15,185,84771,2,0,P|97:167|170:156,1,140,0|0,1:0|1:0,0:0:0:0:
225,212,85285,2,0,P|288:216|313:222,1,70,10|0,0:0|0:0,0:0:0:0:
379,250,85628,6,0,P|359:302|402:378,2,140,2|8|0,1:2|0:0|1:0,0:0:0:0:
457,202,86485,1,0,1:0:0:0:
495,119,86657,2,0,P|481:56|472:36,1,70,8|0,0:0|0:0,0:0:0:0:
398,19,87000,5,0,1:0:0:0:
398,19,87171,1,0,1:0:0:0:
315,56,87342,1,8,0:0:0:0:
223,49,87514,2,0,L|210:1,2,35,0|0|8,1:0|1:0|1:2,0:0:0:0:
170,124,87857,1,4,0:3:0:0:
170,124,88028,2,0,P|162:193|164:227,1,70,0|8,1:0|0:3,0:0:0:0:
204,274,88371,5,6,1:2:0:0:
256,192,88542,12,0,97971,0:0:0:0:
