osu file format v14

[General]
AudioFilename: audio.mp3
AudioLeadIn: 0
PreviewTime: 183505
Countdown: 0
SampleSet: Soft
StackLeniency: 0.7
Mode: 0
LetterboxInBreaks: 0
EpilepsyWarning: 1
WidescreenStoryboard: 1

[Editor]
Bookmarks: 52619,165076,176047
DistanceSpacing: 1
BeatDivisor: 4
GridSize: 4
TimelineZoom: 2.5

[Metadata]
Title:Get the Freedom
TitleUnicode:Get the Freedom
Artist:Kicco
ArtistUnicode:Kicco
Creator:Bellicose
Version:Easy.
Source:ねこツク、さくら。
Tags:Houshou Hari Shikibe Mayu Kazato Asa Shizuku- dahkjdas meis clauson angel note lump of sugar Nekotsuku Sakura kemonomimi eroge video game visual novel vn japanese pop rock opening full version
BeatmapID:3376798
BeatmapSetID:1644227

[Difficulty]
HPDrainRate:3
CircleSize:3
OverallDifficulty:3
ApproachRate:4.5
SliderMultiplier:0.9
SliderTickRate:1

[Events]
//Background and Video events
0,0,"bg6.jpg",0,0
//Break Periods
2,22647,32159
2,80247,87016
2,165275,174787
2,184476,188502
//Storyboard Layer 0 (Background)
//Storyboard Layer 1 (Fail)
//Storyboard Layer 2 (Pass)
//Storyboard Layer 3 (Foreground)
Sprite,Foreground,Centre,"sb\Bellicose.png",320,240 C,0,19704,,255,102,102 F,19,19704,20704,0,1 S,0,19704,22447,0.35,0.4 F,19,21762,22447,1,0
//Storyboard Layer 4 (Overlay)
//Storyboard Sound Samples

[TimingPoints]
505,342.857142857143,4,2,1,40,1,0
505,-100,4,2,1,40,0,0
10105,-100,4,2,1,40,0,0
10705,-100,4,2,1,5,0,0
10790,-100,4,2,1,50,0,0
11476,-100,4,2,1,70,0,0
16876,-100,4,2,1,5,0,0
16962,-100,4,2,1,70,0,0
22447,-100,4,2,1,50,0,0
22790,-100,4,2,2,50,0,0
27933,-100,4,2,1,50,0,0
28276,-100,4,2,2,50,0,0
32047,-100,4,2,1,60,0,0
32562,-100,4,2,1,60,0,0
33419,-100,4,2,1,60,0,0
36076,-100,4,2,1,5,0,0
36162,-100,4,2,1,60,0,0
38819,-100,4,2,1,5,0,0
38905,-100,4,2,1,60,0,0
41562,-100,4,2,1,5,0,0
41647,-100,4,2,1,50,0,0
49876,-100,4,2,1,60,0,0
50133,-100,4,2,1,5,0,0
50219,-100,4,2,1,60,0,0
51162,-100,4,2,1,5,0,0
51247,-100,4,2,1,70,0,0
51933,-100,4,2,1,70,0,0
52619,-100,4,2,1,75,0,1
54762,-100,4,2,1,5,0,1
54847,-100,4,2,1,75,0,1
57505,-100,4,2,1,5,0,1
57590,-100,4,2,1,75,0,1
60762,-100,4,2,1,5,0,1
60847,-100,4,2,1,75,0,1
65733,-100,4,2,1,5,0,1
65819,-100,4,2,1,75,0,1
68476,-100,4,2,1,5,0,1
68562,-100,4,2,1,75,0,1
70105,-100,4,2,1,75,0,1
70362,-100,4,2,1,5,0,1
70447,-100,4,2,1,75,0,1
70705,-100,4,2,1,5,0,1
70790,-100,4,2,1,75,0,1
72419,-100,4,2,1,5,0,1
72505,-100,4,2,1,75,0,1
74562,-100,4,2,1,70,0,1
76790,-100,4,2,1,70,0,1
77305,-100,4,2,1,70,0,0
88276,-100,4,2,1,60,0,0
90933,-100,4,2,1,5,0,0
91019,-100,4,2,1,60,0,0
93676,-100,4,2,1,5,0,0
93762,-100,4,2,1,60,0,0
96419,-100,4,2,1,5,0,0
96505,-100,4,2,1,60,0,0
98390,-100,4,2,1,60,0,0
99247,-100,4,2,1,60,0,0
107390,-100,4,2,1,5,0,0
107476,-100,4,2,1,50,0,0
115705,-100,4,2,1,60,0,0
115962,-100,4,2,1,5,0,0
116047,-100,4,2,1,60,0,0
116990,-100,4,2,1,5,0,0
117076,-100,4,2,1,70,0,0
118447,-100,4,2,1,75,0,1
118705,-100,4,2,1,5,0,1
118790,-100,4,2,1,75,0,1
120076,-100,4,2,1,5,0,1
120162,-100,4,2,1,75,0,1
121105,-100,4,2,1,5,0,1
121190,-100,4,2,1,75,0,1
122819,-100,4,2,1,5,0,1
122905,-100,4,2,1,75,0,1
126933,-100,4,2,1,5,0,1
127019,-100,4,2,1,75,0,1
129676,-100,4,2,1,5,0,1
129762,-100,4,2,1,75,0,1
131047,-100,4,2,1,5,0,1
131133,-100,4,2,1,75,0,1
132076,-100,4,2,1,5,0,1
132162,-100,4,2,1,75,0,1
133790,-100,4,2,1,5,0,1
133876,-100,4,2,1,75,0,1
135933,-100,4,2,1,75,0,1
136190,-100,4,2,1,5,0,1
136276,-100,4,2,1,75,0,1
136533,-100,4,2,1,5,0,1
136619,-100,4,2,1,75,0,1
137905,-100,4,2,1,5,0,1
137990,-100,4,2,1,75,0,1
140390,-100,4,2,1,70,0,0
142619,-100,4,2,1,70,0,0
143133,-100,4,2,1,75,0,1
145276,-100,4,2,1,5,0,1
145362,-100,4,2,1,75,0,1
145705,-100,4,2,1,75,0,1
146047,-100,4,2,1,75,0,1
148876,-100,4,2,1,5,0,1
148962,-100,4,2,1,75,0,1
149133,-100,4,2,1,75,0,1
149390,-100,4,2,1,5,0,1
149476,-100,4,2,1,75,0,1
149562,-100,4,2,1,5,0,1
149647,-100,4,2,1,75,0,1
150505,-100,4,2,1,75,0,1
150847,-100,4,2,1,75,0,1
151619,-100,4,2,1,5,0,1
151705,-100,4,2,1,75,0,1
152047,-100,4,2,1,75,0,1
154362,-100,4,2,1,5,0,1
154447,-100,4,2,1,75,0,1
156762,-100,4,2,1,5,0,1
156847,-100,4,2,1,75,0,1
159247,-100,4,2,1,75,0,1
159505,-100,4,2,1,5,0,1
159590,-100,4,2,1,75,0,1
159762,-100,4,2,1,75,0,1
159933,-100,4,2,1,75,0,1
160190,-100,4,2,1,5,0,1
160276,-100,4,2,1,75,0,1
161133,-100,4,2,1,75,0,1
161476,-100,4,2,1,75,0,1
161819,-100,4,2,1,75,0,1
162333,-100,4,2,1,75,0,1
165076,-100,4,2,1,75,0,0
176047,-100,4,2,2,50,0,0
178790,-100,4,2,2,50,0,0
182905,-100,4,2,1,50,0,0
183590,-100,4,2,1,50,0,0
184276,-100,4,2,1,40,0,0
188905,-100,4,2,1,50,0,0
189247,-100,4,2,1,50,0,0
189762,-100,4,2,1,75,0,1
191047,-100,4,2,1,5,0,1
191133,-100,4,2,1,75,0,1
192762,-100,4,2,1,5,0,1
192847,-100,4,2,1,75,0,1
195505,-100,4,2,1,5,0,1
195590,-100,4,2,1,75,0,1
196876,-100,4,2,1,5,0,1
196962,-100,4,2,1,75,0,1
197905,-100,4,2,1,5,0,1
197990,-100,4,2,1,75,0,1
199619,-100,4,2,1,5,0,1
199705,-100,4,2,1,75,0,1
201762,-100,4,2,1,75,0,1
202019,-100,4,2,1,5,0,1
202105,-100,4,2,1,75,0,1
202362,-100,4,2,1,5,0,1
202447,-100,4,2,1,75,0,1
203733,-100,4,2,1,5,0,1
203819,-100,4,2,1,75,0,1
206133,-100,4,2,1,5,0,1
206219,-100,4,2,1,75,0,1
208362,-100,4,2,1,5,0,1
208447,-100,4,2,1,75,0,1
211105,-100,4,2,1,5,0,1
211190,-100,4,2,1,75,0,1
214362,-100,4,2,1,5,0,1
214447,-100,4,2,1,75,0,1
219333,-100,4,2,1,5,0,1
219419,-100,4,2,1,75,0,1
222076,-100,4,2,1,5,0,1
222162,-100,4,2,1,75,0,1
223705,-100,4,2,1,75,0,1
223962,-100,4,2,1,5,0,1
224047,-100,4,2,1,75,0,1
224305,-100,4,2,1,5,0,1
224390,-100,4,2,1,75,0,1
226019,-100,4,2,1,5,0,1
226105,-100,4,2,1,75,0,1
228162,-100,4,2,1,70,0,0
230390,-100,4,2,1,70,0,0
230819,-100,4,2,1,5,0,0
230905,-100,4,2,1,70,0,0
236305,-100,4,2,1,5,0,0
236390,-100,4,2,1,70,0,0
239390,-100,4,2,1,5,0,0
239476,-100,4,2,1,70,0,0
241876,-100,4,2,1,70,0,0
241962,-100,4,2,1,5,0,0
248733,-100,4,2,99,5,0,0

[Colours]
Combo1 : 226,143,243
Combo2 : 139,222,254
Combo3 : 253,206,240
Combo4 : 150,166,254

[HitObjects]
70,102,505,6,0,B|168:117|131:42|247:55,1,180,2|2,0:0|0:0,0:0:0:0:
410,8,1876,2,0,P|395:65|385:148,1,135,2|2,0:0|0:0,0:0:0:0:
424,221,2733,1,2,0:0:0:0:
371,345,3247,2,0,P|296:289|202:314,1,180,2|2,0:0|0:0,0:0:0:0:
51,377,4619,2,0,P|38:295|20:229,1,135,2|2,0:0|0:0,0:0:0:0:
48,157,5476,1,2,0:0:0:0:
182,166,5990,6,0,P|135:86|194:12,1,180,2|2,0:0|0:0,0:0:0:0:
264,1,7019,1,2,0:0:0:0:
387,132,7705,2,0,B|377:233|311:166|300:299,1,180,2|2,0:0|0:0,0:0:0:0:
350,357,8733,2,0,P|439:355|491:286,1,180,2|2,0:0|0:0,0:0:0:0:
491,107,10105,2,0,P|363:127|297:149,1,180,2|2,0:0|0:0,0:0:0:0:
152,65,11476,6,0,P|127:151|116:240,1,180,6|0,1:2|1:0,0:0:0:0:
124,330,12505,1,10,0:0:0:0:
202,373,12847,2,0,P|264:318|364:346,1,180,0|2,1:0|0:0,0:0:0:0:
430,381,13876,1,8,0:0:0:0:
486,310,14219,2,0,P|498:202|513:124,1,180,2|0,1:2|1:0,0:0:0:0:
473,50,15247,1,8,0:0:0:0:
397,98,15590,2,0,B|334:81|346:143|257:124,1,135,2|2,1:2|1:2,0:0:0:0:
167,38,16619,1,10,0:0:0:0:
78,22,16962,6,0,P|36:47|35:170,1,180,6|0,1:2|1:0,0:0:0:0:
110,210,17990,1,8,0:0:0:0:
181,155,18333,2,0,P|268:137|368:129,1,180,2|2,1:2|0:0,0:0:0:0:
432,77,19362,1,10,0:0:0:0:
500,135,19705,2,0,B|492:243|438:173|426:304,1,180,2|0,1:2|1:0,0:0:0:0:
398,377,20733,1,8,0:0:0:0:
308,371,21076,2,0,P|281:338|304:282,1,90,0|8,1:0|0:0,0:0:0:0:
309,206,21762,2,0,P|254:193|209:193,1,90,8|8,1:2|1:2,0:0:0:0:
141,235,22447,5,6,1:2:0:0:
110,71,33419,6,0,P|131:143|136:215,1,135,6|2,1:2|0:1,0:0:0:0:
104,286,34276,1,2,1:0:0:0:
218,357,34790,2,0,P|226:273|268:249,1,135,2|2,1:2|1:0,0:0:0:0:
352,236,35647,1,2,1:0:0:0:
478,283,36162,6,0,P|486:207|505:140,1,135,2|2,1:2|0:1,0:0:0:0:
482,62,37019,1,2,1:0:0:0:
367,132,37533,2,0,P|307:152|244:113,1,135,2|2,1:2|1:0,0:0:0:0:
192,47,38390,1,2,1:0:0:0:
58,69,38905,6,0,P|38:131|71:188,1,135,2|2,1:2|0:1,0:0:0:0:
152,226,39762,1,2,1:0:0:0:
284,201,40276,2,0,P|262:276|252:342,1,135,2|8,1:2|0:3,0:0:0:0:
127,381,41305,1,0,1:0:0:0:
44,352,41647,6,0,P|36:288|25:257,1,90,4|2,1:2|1:2,0:0:0:0:
22,173,42333,2,0,P|18:90|102:33,1,180,10|2,0:0|1:2,0:0:0:0:
222,16,43533,1,2,0:0:0:0:
290,74,43876,2,0,P|264:167|257:217,1,135,2|0,0:0|1:0,0:0:0:0:
236,292,44733,2,0,B|341:278|282:341|402:339,1,180,2|2,1:2|0:0,0:0:0:0:
486,307,45762,1,2,1:2:0:0:
508,173,46276,2,0,P|429:181|389:139,1,135,10|8,0:0|0:3,0:0:0:0:
369,58,47133,6,0,P|306:44|278:40,1,90,4|2,1:2|1:2,0:0:0:0:
217,105,47819,2,0,P|127:91|66:161,1,180,10|2,0:0|1:2,0:0:0:0:
45,282,49019,1,2,0:0:0:0:
87,361,49362,2,0,P|176:337|222:335,1,135,2|6,0:0|1:2,0:0:0:0:
345,380,50390,1,2,0:0:0:0:
361,291,50733,2,0,B|371:213|309:244|323:164,1,135,2|10,1:2|1:2,0:0:0:0:
355,85,51590,1,4,1:3:0:0:
92,148,52619,6,0,P|81:104|65:62,2,90,6|8|2,1:2|0:0|1:2,0:0:0:0:
48,226,53647,1,8,0:0:0:0:
92,304,53990,2,0,P|160:266|218:279,1,135,2|2,1:2|1:2,0:0:0:0:
268,205,54847,2,0,P|230:137|243:79,1,135,2|2,1:2|1:2,0:0:0:0:
304,19,55705,1,8,0:0:0:0:
393,10,56047,2,0,P|454:17|486:26,1,90,2|8,1:2|0:0,0:0:0:0:
510,109,56733,2,0,P|487:181|478:258,1,135,2|2,1:2|1:2,0:0:0:0:
473,329,57590,1,2,1:2:0:0:
338,342,58105,6,0,P|299:365|243:354,2,90,6|10|2,1:2|0:0|1:2,0:0:0:0:
308,256,59133,2,0,P|291:201|292:149,1,90,10|0,0:0|1:0,0:0:0:0:
317,82,59819,2,0,B|212:83|261:22|152:24,1,180,10|10,0:0|0:0,0:0:0:0:
68,54,60847,1,2,1:2:0:0:
44,140,61190,1,10,0:0:0:0:
98,211,61533,2,0,P|150:197|197:196,1,90,2|8,1:2|0:0,0:0:0:0:
269,160,62219,2,0,P|356:227|319:377,1,270,2|8,1:2|1:2,0:0:0:0:
238,355,63590,6,0,P|193:358|150:370,2,90,6|8|0,1:2|0:0|1:0,0:0:0:0:
255,266,64619,1,8,0:0:0:0:
180,215,64962,2,0,P|145:163|174:89,1,135,2|2,1:2|1:2,0:0:0:0:
221,28,65819,2,0,P|289:44|364:51,1,135,2|2,1:2|1:2,0:0:0:0:
429,98,66676,1,8,0:0:0:0:
441,187,67019,2,0,P|375:202|340:217,1,90,2|8,1:2|0:0,0:0:0:0:
270,176,67705,2,0,P|216:213|139:193,1,135,2|2,1:2|1:2,0:0:0:0:
70,243,68562,1,2,1:2:0:0:
21,116,69076,6,0,P|14:71|0:29,2,90,6|10|2,1:2|0:0|1:2,0:0:0:0:
107,90,70105,2,0,P|152:44|274:59,1,180,10|10,0:0|0:0,0:0:0:0:
338,94,71133,1,2,0:0:0:0:
319,182,71476,1,8,0:0:0:0:
391,234,71819,2,0,P|444:222|485:221,1,90,2|10,1:2|0:0,0:0:0:0:
486,310,72505,2,0,P|441:312|397:323,1,90,2|8,1:2|0:0,0:0:0:0:
322,372,73190,2,0,P|292:343|308:202,1,180,2|10,1:2|1:2,0:0:0:0:
348,140,74219,1,10,1:2:0:0:
310,58,74562,6,0,P|204:12|96:194,1,360,6|6,1:2|1:2,0:0:0:0:
212,375,76790,2,0,P|230:265|242:228,1,135,10|6,0:0|1:2,0:0:0:0:
256,192,77476,12,4,80047,1:0:0:0:
441,80,88276,6,0,P|380:94|305:103,1,135,6|2,1:2|0:1,0:0:0:0:
231,56,89133,1,2,1:0:0:0:
150,163,89647,2,0,P|94:149|29:201,1,135,2|2,1:2|1:0,0:0:0:0:
11,277,90505,1,2,1:0:0:0:
121,353,91019,6,0,B|206:333|172:383|258:369,1,135,2|2,1:2|0:1,0:0:0:0:
304,297,91876,1,2,1:0:0:0:
213,196,92390,2,0,P|227:98|241:60,1,135,2|2,1:2|1:0,0:0:0:0:
302,1,93247,1,2,1:0:0:0:
431,39,93762,6,0,P|386:89|405:167,1,135,2|2,1:2|0:1,0:0:0:0:
462,210,94619,1,2,1:0:0:0:
485,342,95133,2,0,P|392:319|340:314,1,135,2|2,1:2|1:0,0:0:0:0:
272,354,95990,1,2,1:0:0:0:
151,292,96505,6,0,B|155:220|201:245|206:171,1,135,2|2,1:2|0:1,0:0:0:0:
268,108,97362,1,2,1:0:0:0:
177,7,97876,2,0,P|118:49|46:25,1,135,6|6,1:2|1:2,0:0:0:0:
19,116,98733,2,0,P|27:187|47:264,1,135,2|6,1:2|1:2,0:0:0:0:
169,203,99762,5,2,0:1:0:0:
222,274,100105,2,0,P|263:314|345:298,1,135,2|2,1:0|1:2,0:0:0:0:
452,372,101133,1,2,1:0:0:0:
489,290,101476,2,0,P|501:185|514:146,1,135,2|2,1:0|1:2,0:0:0:0:
443,39,102505,5,2,0:1:0:0:
356,14,102847,2,0,P|320:46|322:134,1,135,2|2,1:0|1:2,0:0:0:0:
368,253,103876,1,2,1:0:0:0:
320,329,104219,2,0,P|272:367|194:344,1,135,2|2,1:0|1:2,0:0:0:0:
99,267,105247,5,2,0:1:0:0:
9,279,105590,2,0,P|22:198|44:140,1,135,2|2,1:0|1:2,0:0:0:0:
103,29,106619,2,0,P|145:72|228:57,1,135,8|0,0:3|1:0,0:0:0:0:
292,19,107476,6,0,P|354:20|379:48,1,90,4|2,1:2|1:2,0:0:0:0:
415,116,108162,2,0,B|401:216|351:150|329:271,1,180,10|2,0:0|1:2,0:0:0:0:
227,355,109362,1,2,0:0:0:0:
137,346,109705,2,0,P|156:248|173:206,1,135,2|0,0:0|1:0,0:0:0:0:
214,137,110562,2,0,P|269:181|380:166,1,180,2|2,1:2|0:0,0:0:0:0:
453,130,111590,1,2,1:2:0:0:
507,253,112105,2,0,P|484:314|466:398,1,135,10|8,0:0|0:3,0:0:0:0:
378,373,112962,6,0,P|364:307|353:275,1,90,4|2,1:2|1:2,0:0:0:0:
307,210,113647,2,0,B|313:116|394:167|389:57,1,180,10|2,0:0|1:2,0:0:0:0:
266,4,114847,1,2,0:0:0:0:
192,56,115190,2,0,P|134:20|66:40,1,135,2|6,0:0|1:2,0:0:0:0:
10,155,116219,1,2,0:0:0:0:
36,241,116562,2,0,P|118:219|169:214,1,135,2|10,1:2|1:2,0:0:0:0:
251,247,117419,1,4,1:3:0:0:
488,118,118447,6,0,P|471:166|465:213,1,90,6|8,1:2|0:0,0:0:0:0:
492,290,119133,2,0,P|448:319|404:307,1,90,2|8,1:2|0:0,0:0:0:0:
337,263,119819,1,2,1:2:0:0:
248,364,120333,1,2,1:2:0:0:
158,369,120676,2,0,P|173:284|188:232,1,135,2|2,1:2|1:2,0:0:0:0:
253,177,121533,1,8,0:0:0:0:
317,113,121876,2,0,P|300:50|295:12,1,90,2|8,1:2|0:0,0:0:0:0:
209,2,122562,1,2,1:2:0:0:
155,74,122905,2,0,P|114:107|25:85,1,135,10|2,0:0|1:2,0:0:0:0:
45,230,123933,6,0,P|17:259|30:320,1,90,6|10,1:2|0:0,0:0:0:0:
81,372,124619,1,2,1:2:0:0:
171,370,124962,2,0,P|166:286|144:186,2,180,10|10|10,0:0|0:0|0:0,0:0:0:0:
258,350,126676,1,2,1:2:0:0:
285,264,127019,1,10,0:0:0:0:
372,240,127362,2,0,P|421:267|461:253,1,90,2|8,1:2|0:0,0:0:0:0:
500,183,128047,6,0,P|480:64|342:48,1,270,2|8,1:2|1:2,0:0:0:0:
265,10,129419,6,0,P|246:59|236:107,1,90,6|8,1:2|0:0,0:0:0:0:
175,161,130105,2,0,P|131:171|89:188,1,90,0|8,1:0|0:0,0:0:0:0:
8,148,130790,1,2,1:2:0:0:
56,21,131305,1,2,1:2:0:0:
144,5,131647,2,0,P|192:47|264:33,1,135,2|2,1:2|1:2,0:0:0:0:
342,4,132505,1,8,0:0:0:0:
408,64,132847,2,0,P|384:131|380:164,1,90,2|8,1:2|0:0,0:0:0:0:
324,219,133533,1,2,1:2:0:0:
238,246,133876,2,0,P|220:311|261:367,1,135,8|2,0:0|1:2,0:0:0:0:
384,326,134905,6,0,P|450:309|486:308,1,90,6|10,1:2|0:0,0:0:0:0:
508,225,135590,1,2,1:2:0:0:
459,149,135933,2,0,P|390:199|298:182,1,180,10|10,0:0|0:0,0:0:0:0:
250,109,136962,2,0,P|266:25|276:4,1,90,2|8,0:0|0:0,0:0:0:0:
179,3,137647,1,2,1:2:0:0:
96,38,137990,1,10,0:0:0:0:
87,127,138333,2,0,P|71:211|61:232,1,90,2|8,1:2|0:0,0:0:0:0:
134,277,139019,2,0,P|215:224|304:249,1,180,2|10,1:2|1:2,0:0:0:0:
348,309,140047,1,10,1:2:0:0:
406,377,140390,6,0,P|480:297|441:63,1,360,6|6,1:2|1:2,0:0:0:0:
261,197,142619,1,10,0:0:0:0:
192,80,143133,6,0,B|94:70|134:139|22:126,1,180,6|2,1:2|1:0,0:0:0:0:
8,215,144162,1,10,0:1:0:0:
25,303,144505,2,0,P|84:316|137:263,1,135,2|2,1:0|1:0,0:0:0:0:
219,300,145362,1,2,1:0:0:0:
283,237,145705,2,2,P|266:148|255:99,1,135,2|10,0:1|0:1,0:1:0:0:
303,28,146562,2,0,P|374:15|403:11,1,90,2|10,1:0|0:1,0:0:0:0:
476,43,147247,2,0,B|507:140|411:112|451:225,1,180,2|2,1:0|0:0,0:0:0:0:
477,295,148276,1,10,0:1:0:0:
412,357,148619,6,2,P|351:315|281:329,1,135,6|2,1:2|0:1,0:1:0:0:
208,291,149476,2,0,P|229:223|248:144,1,135,2|2,1:0|1:3,0:0:0:0:
199,33,150505,2,2,P|142:72|68:49,1,135,2|10,1:0|0:0,0:1:0:0:
24,129,151362,1,2,1:3:0:0:
9,217,151705,2,0,P|25:269|32:318,2,90,10|2|10,0:1|1:0|0:1,0:0:0:0:
94,190,152733,2,0,B|200:201|142:131|260:145,1,180,2|10,1:0|1:2,0:0:0:0:
342,179,153762,1,10,1:2:0:0:
416,230,154105,6,0,P|465:297|452:348,2,135,6|2|10,1:2|0:1|0:1,0:0:0:0:
334,267,155476,1,2,1:2:0:0:
247,241,155819,1,10,0:0:0:0:
207,160,156162,2,0,P|221:87|233:55,1,90,2|10,0:1|0:1,0:0:0:0:
289,8,156847,2,0,P|331:51|444:40,1,180,2|0,1:0|1:0,0:0:0:0:
490,117,157876,1,10,0:1:0:0:
490,207,158219,2,0,P|372:220|298:243,1,180,2|2,1:3|0:0,0:0:0:0:
241,183,159247,2,0,P|192:211|149:195,1,90,10|4,0:0|1:2,0:0:0:0:
87,153,159933,5,10,0:1:0:0:
12,204,160276,2,0,P|32:277|32:306,1,90,2|8,1:0|0:0,0:0:0:0:
34,381,160962,1,2,1:0:0:0:
168,376,161476,2,2,B|168:297|230:331|222:246,1,135,2|10,1:0|0:0,0:1:0:0:
180,179,162333,1,0,1:0:0:0:
191,89,162676,2,0,P|252:27|351:56,1,180,10|10,0:1|0:1,0:0:0:0:
426,38,163705,2,0,P|434:90|449:142,1,90,2|10,1:2|0:1,0:0:0:0:
482,207,164390,1,10,1:0:0:0:
414,267,164733,2,0,P|370:255|325:249,1,90,8|4,1:0|1:0,0:0:0:0:
324,37,176047,6,0,P|232:55|131:69,1,180,6|0,0:0|0:0,0:0:0:0:
1,173,177419,2,0,P|93:191|194:205,1,180,2|0,0:0|0:0,0:0:0:0:
281,350,178790,2,0,P|245:308|381:376,1,720,2|6,0:0|0:0,0:0:0:0:
358,289,181876,1,2,0:0:0:0:
362,199,182219,2,0,P|376:89|395:19,1,180,2|2,0:0|0:0,0:0:0:0:
131,193,184276,1,2,0:0:0:0:
153,33,189762,6,0,P|204:47|254:51,1,90,6|10,1:2|0:0,0:0:0:0:
327,25,190447,1,2,1:2:0:0:
408,63,190790,2,0,P|434:188|439:260,2,180,10|10|10,0:0|0:0|0:0,0:0:0:0:
331,111,192505,1,2,1:2:0:0:
317,199,192847,1,10,0:0:0:0:
236,240,193190,2,0,P|198:218|147:225,1,90,2|8,1:2|0:0,0:0:0:0:
81,277,193876,2,0,P|9:213|64:64,1,270,2|8,1:2|1:2,0:0:0:0:
137,20,195247,6,0,P|179:25|238:47,1,90,6|8,1:2|0:0,0:0:0:0:
314,35,195933,2,0,P|328:77|334:122,1,90,0|8,1:0|0:0,0:0:0:0:
299,205,196619,1,2,1:2:0:0:
166,228,197133,1,2,1:2:0:0:
139,314,197476,2,0,P|203:357|256:337,1,135,2|2,1:2|1:2,0:0:0:0:
334,377,198333,1,8,0:0:0:0:
391,307,198676,2,0,P|448:294|497:291,1,90,2|8,1:2|0:0,0:0:0:0:
497,202,199362,1,2,1:2:0:0:
443,129,199705,2,0,B|365:121|397:179|313:165,1,135,8|2,0:0|1:2,0:0:0:0:
253,48,200733,6,0,P|218:26|164:35,1,90,6|10,1:2|0:0,0:0:0:0:
109,96,201419,1,2,1:2:0:0:
142,179,201762,2,0,P|168:293|175:365,1,180,10|10,0:0|0:0,0:0:0:0:
88,381,202790,2,0,P|81:319|73:279,1,90,2|8,0:0|0:0,0:0:0:0:
6,234,203476,1,2,1:2:0:0:
28,146,203819,1,10,0:0:0:0:
110,109,204162,2,0,P|150:137|205:118,1,90,2|8,1:2|0:0,0:0:0:0:
251,195,204847,2,0,B|362:199|302:129|419:138,1,180,2|8,1:2|0:0,0:0:0:0:
489,184,205876,1,8,1:2:0:0:
461,269,206219,6,0,P|481:344|482:376,2,90,6|8|2,1:2|0:0|1:2,0:0:0:0:
374,242,207247,1,8,0:0:0:0:
340,325,207590,2,0,P|272:364|214:349,1,135,2|2,1:2|1:2,0:0:0:0:
130,361,208447,2,0,P|151:254|163:219,1,135,2|2,1:2|1:2,0:0:0:0:
248,217,209305,1,8,0:0:0:0:
301,144,209647,2,0,P|326:83|311:56,1,90,2|8,1:2|0:0,0:0:0:0:
248,6,210333,2,0,P|154:28|103:35,1,135,2|2,1:2|1:2,0:0:0:0:
51,95,211190,1,2,1:2:0:0:
78,227,211705,6,0,P|24:226|-2:250,2,90,6|10|2,1:2|0:0|1:2,0:0:0:0:
155,272,212733,2,0,P|138:313|129:357,1,90,10|0,0:0|1:0,0:0:0:0:
216,381,213419,2,0,P|277:332|255:224,1,180,10|10,0:0|0:0,0:0:0:0:
196,184,214447,1,2,1:2:0:0:
178,95,214790,1,10,0:0:0:0:
235,25,215133,2,0,P|305:8|335:5,1,90,2|8,1:2|0:0,0:0:0:0:
412,3,215819,2,0,B|423:170|503:38|508:251,1,270,2|8,1:2|1:2,0:0:0:0:
441,302,217190,6,0,P|414:352|430:391,2,90,6|8|0,1:2|0:0|1:0,0:0:0:0:
392,225,218219,1,8,0:0:0:0:
320,279,218562,2,0,P|228:255|171:250,1,135,2|2,1:2|1:2,0:0:0:0:
129,182,219419,2,0,P|51:189|8:147,1,135,2|2,1:2|1:2,0:0:0:0:
4,64,220276,1,8,0:0:0:0:
77,12,220619,2,0,P|116:24|172:29,1,90,2|8,1:2|0:0,0:0:0:0:
253,11,221305,2,0,P|289:62|268:137,1,135,2|2,1:2|1:2,0:0:0:0:
221,201,222162,1,2,1:2:0:0:
114,283,222676,6,0,P|70:270|26:265,2,90,6|10|2,1:2|0:0|1:2,0:0:0:0:
157,361,223705,2,0,B|258:361|214:303|323:310,1,180,10|10,0:0|0:0,0:0:0:0:
389,248,224733,1,2,0:0:0:0:
370,159,225076,1,8,0:0:0:0:
288,121,225419,2,0,P|218:106|184:102,1,90,2|10,1:2|0:0,0:0:0:0:
222,16,226105,2,0,P|266:22|310:33,1,90,2|8,1:2|0:0,0:0:0:0:
396,8,226790,2,0,P|466:52|470:157,1,180,2|10,1:2|1:2,0:0:0:0:
451,229,227819,1,10,1:2:0:0:
362,214,228162,6,0,B|142:178|278:349|25:288,1,360,6|6,1:2|1:2,0:0:0:0:
54,66,230390,2,0,P|116:80|196:88,1,135,10|6,0:0|1:2,0:0:0:0:
256,192,231076,12,0,233647,1:2:0:0:
