osu file format v14

[General]
AudioFilename: audio.mp3
AudioLeadIn: 0
PreviewTime: 51942
Countdown: 0
SampleSet: Soft
StackLeniency: 0.7
Mode: 0
LetterboxInBreaks: 0
WidescreenStoryboard: 0

[Editor]
Bookmarks: 52694,88371
DistanceSpacing: 1
BeatDivisor: 4
GridSize: 16
TimelineZoom: 1.5

[Metadata]
Title:Get the Freedom
TitleUnicode:Get the Freedom
Artist:Kicco
ArtistUnicode:Kicco
Creator:Bellicose
Version:Easy
Source:ねこツク、さくら。
Tags:meis clauson angel note lump of sugar Nekotsuku Sakura kemonomimi eroge video game visual novel vn japanese pop opening short version sodarose superdaloubot [r] ron jpop j-pop op 羽生みいな hanyu miina
BeatmapID:2422648
BeatmapSetID:1159892

[Difficulty]
HPDrainRate:3
CircleSize:3
OverallDifficulty:3
ApproachRate:3
SliderMultiplier:0.85
SliderTickRate:1

[Events]
//Background and Video events
Video,0,"video.mp4"
0,0,"bg3.jpg",0,0
//Break Periods
2,22742,32074
//Storyboard Layer 0 (Background)
//Storyboard Layer 1 (Fail)
//Storyboard Layer 2 (Pass)
//Storyboard Layer 3 (Foreground)
//Storyboard Layer 4 (Overlay)
//Storyboard Sound Samples

[TimingPoints]
600,342.857142857143,4,2,1,50,1,0
600,-100,4,2,1,50,0,0
11571,-100,4,2,1,65,0,0
22542,-100,4,2,1,55,0,0
22885,-100,4,2,2,55,0,0
28028,-100,4,2,1,55,0,0
28371,-100,4,2,2,55,0,0
32142,-100,4,2,1,60,0,0
32657,-100,4,2,1,60,0,0
41742,-100,4,2,1,55,0,0
49971,-100,4,2,1,65,0,0
51342,-100,4,2,1,70,0,0
52028,-100,4,2,1,50,0,0
52714,-100,4,2,1,70,0,1
74657,-100,4,2,1,60,0,0
76028,-100,4,2,1,60,0,0
77400,-100,4,2,1,65,0,0
97971,-100,4,2,1,5,0,0

[Colours]
Combo1 : 188,174,253
Combo2 : 255,230,253
Combo3 : 254,201,249
Combo4 : 227,174,253

[HitObjects]
98,238,600,6,0,P|160:222|238:295,1,170,2|2,0:0|0:0,0:0:0:0:
361,372,1971,2,0,P|370:324|404:249,1,127.5,2|2,0:0|0:0,0:0:0:0:
460,191,2828,1,2,0:0:0:0:
473,64,3342,2,0,P|429:97|311:85,1,170,2|2,0:0|0:0,0:0:0:0:
151,56,4714,2,0,P|180:98|206:180,1,127.5,2|2,0:0|0:0,0:0:0:0:
210,254,5571,1,2,0:0:0:0:
109,332,6085,6,0,P|60:351|13:319,2,85,2|2|2,0:0|0:0|0:0,0:0:0:0:
190,356,7114,1,2,0:0:0:0:
344,284,7800,2,0,P|408:279|434:308,2,85,2|2|2,0:0|0:0|0:0,0:0:0:0:
277,230,8828,2,0,P|287:154|294:134,1,85,2|2,0:0|0:0,0:0:0:0:
324,68,9514,2,0,P|248:58|228:51,1,85,2|0,0:0|0:0,0:0:0:0:
159,27,10200,2,0,P|23:53|33:165,1,255,2|0,0:0|0:0,0:0:0:0:
39,230,11571,6,0,P|120:200|212:186,1,170,6|0,1:2|1:0,0:0:0:0:
287,180,12600,1,10,0:0:0:0:
354,230,12942,2,0,P|350:312|266:330,1,170,0|2,1:0|0:0,0:0:0:0:
194,309,13971,1,8,0:0:0:0:
122,362,14314,2,0,P|110:306|58:186,1,170,2|0,1:2|1:0,0:0:0:0:
18,132,15342,1,8,0:0:0:0:
33,48,15685,2,0,P|100:42|128:21,1,85,2|10,1:2|0:0,0:0:0:0:
153,17,16200,2,0,P|206:30|306:60,1,127.5,2|10,1:2|0:0,0:0:0:0:
359,65,17057,6,0,P|338:136|332:257,1,170,6|0,1:1|1:0,0:0:0:0:
347,314,18085,1,8,0:0:0:0:
422,352,18428,2,0,P|492:314|469:202,1,170,2|0,1:2|0:0,0:0:0:0:
462,152,19457,1,10,0:0:0:0:
397,96,19800,2,0,P|323:118|209:132,1,170,2|0,1:2|1:0,0:0:0:0:
148,112,20828,1,8,0:0:0:0:
108,36,21171,2,0,P|40:39|42:198,1,255,0|8,1:0|1:2,0:0:0:0:
100,237,22542,5,6,1:2:0:0:
401,237,33514,6,0,P|364:264|264:264,1,127.5,6|2,1:2|0:0,0:0:0:0:
216,220,34371,1,2,1:2:0:0:
128,312,34885,2,0,P|68:318|23:254,1,127.5,2|2,1:2|1:2,0:0:0:0:
21,186,35742,1,2,1:2:0:0:
64,65,36257,2,0,P|165:90|201:92,1,127.5,2|2,1:2|0:0,0:0:0:0:
267,60,37114,1,2,1:2:0:0:
391,32,37628,2,0,P|371:88|357:195,1,127.5,2|2,1:2|1:2,0:0:0:0:
368,239,38485,2,0,L|377:284,1,42.5,2|8,1:2|0:0,0:0:0:0:
408,360,39000,6,0,P|480:356|516:282,1,127.5,2|2,1:2|0:0,0:0:0:0:
508,231,39857,1,2,1:2:0:0:
498,103,40371,2,0,P|419:128|342:141,1,127.5,2|10,1:2|0:3,0:0:0:0:
300,97,41228,2,0,L|243:96,1,42.5,6|2,0:3|1:2,0:0:0:0:
177,67,41742,5,4,1:2:0:0:
101,106,42085,2,0,P|117:160|127:223,1,85,2|10,1:2|0:0,0:0:0:0:
14,319,43114,2,0,P|68:360|138:345,1,127.5,2|2,1:2|0:0,0:0:0:0:
194,305,43971,2,0,P|283:314|352:328,1,127.5,2|0,0:0|1:0,0:0:0:0:
403,302,44828,2,0,P|418:356|421:396,2,85,2|10|2,1:2|0:0|0:0,0:0:0:0:
365,225,45857,1,2,1:2:0:0:
470,152,46371,2,0,P|489:74|450:29,1,127.5,2|6,0:0|0:3,0:0:0:0:
385,10,47228,5,4,1:1:0:0:
312,54,47571,2,0,P|257:44|193:38,1,85,2|10,1:2|0:0,0:0:0:0:
78,121,48600,2,0,P|35:175|67:246,1,127.5,2|2,1:2|0:0,0:0:0:0:
84,304,49457,1,2,0:0:0:0:
194,367,49971,2,0,P|208:307|251:232,1,127.5,6|2,1:1|0:0,0:0:0:0:
290,181,50828,1,2,1:2:0:0:
247,60,51342,5,10,1:2:0:0:
55,90,52714,6,0,P|42:164|32:208,1,85,6|8,1:2|0:0,0:0:0:0:
39,258,53400,2,0,P|36:300|84:336,1,85,2|8,1:2|0:0,0:0:0:0:
148,324,54085,1,2,1:2:0:0:
214,270,54428,2,0,L|259:295,1,42.5,10|2,0:0|0:0,0:0:0:0:
335,277,54942,1,2,1:2:0:0:
447,337,55457,6,0,P|462:276|478:244,1,85,2|8,1:2|0:0,0:0:0:0:
502,177,56142,2,0,P|496:119|454:81,1,85,2|8,1:2|0:0,0:0:0:0:
419,40,56828,1,2,1:2:0:0:
343,79,57171,2,0,L|329:142,1,42.5,10|2,0:0|0:0,0:0:0:0:
316,203,57685,1,2,1:2:0:0:
195,160,58200,6,0,P|193:96|214:54,2,85,6|10|2,1:1|0:0|1:2,0:0:0:0:
233,235,59228,2,0,P|243:275|237:317,1,85,10|0,0:0|1:0,0:0:0:0:
158,352,59914,2,0,P|87:317|-1:289,1,170,10|10,0:0|0:0,0:0:0:0:
8,204,60942,2,0,P|22:147|44:90,1,85,2|10,1:2|0:0,0:0:0:0:
63,43,61628,1,2,1:2:0:0:
231,20,62314,2,0,P|217:60|208:101,1,85,2|8,1:2|1:2,0:0:0:0:
176,180,63000,2,0,P|189:220|198:261,1,85,8|8,1:2|1:2,0:0:0:0:
178,344,63685,6,0,P|103:355|20:272,2,170,6|2|2,1:2|1:2|1:2,0:0:0:0:
259,319,65400,2,0,L|277:264,1,42.5,10|2,0:0|0:0,0:0:0:0:
262,194,65914,1,2,1:2:0:0:
389,183,66428,6,0,P|452:162|466:135,1,85,2|8,1:2|0:0,0:0:0:0:
486,67,67114,2,0,P|429:42|378:31,1,85,2|8,1:2|0:0,0:0:0:0:
334,80,67800,1,2,1:2:0:0:
257,46,68142,2,0,L|196:41,1,42.5,10|2,0:0|0:0,0:0:0:0:
130,59,68657,1,2,1:2:0:0:
25,133,69171,6,0,P|5:65|-9:34,2,85,6|10|2,1:1|0:0|1:2,0:0:0:0:
0,214,70200,2,0,P|18:283|123:276,1,170,10|10,0:0|0:0,0:0:0:0:
180,251,71228,1,2,0:0:0:0:
261,274,71571,1,10,0:0:0:0:
295,351,71914,2,0,P|375:356|409:362,2,85,2|10|2,1:2|0:0|1:2,0:0:0:0:
242,189,73285,2,0,P|253:101|327:67,1,170,2|10,1:2|1:2,0:0:0:0:
404,64,74314,1,2,1:0:0:0:
479,103,74657,2,0,P|457:187|439:294,1,170,6|0,1:2|3:0,0:0:0:0:
295,355,76028,6,0,P|226:324|167:316,1,127.5,6|2,1:1|0:0,0:0:0:0:
90,308,76885,2,0,L|78:231,1,42.5,8|8,1:2|1:2,0:0:0:0:
31,198,77400,6,0,P|30:102|113:67,1,170,6|0,1:2|1:0,0:0:0:0:
172,52,78428,1,10,0:0:0:0:
218,122,78771,2,0,P|196:189|174:294,1,170,0|2,1:0|0:0,0:0:0:0:
246,332,79800,1,8,0:0:0:0:
326,305,80142,2,0,P|392:339|482:262,1,170,2|0,1:2|1:0,0:0:0:0:
496,215,81171,1,8,0:0:0:0:
488,130,81514,2,0,P|471:48|461:16,1,85,2|10,1:2|0:0,0:0:0:0:
447,11,82028,2,0,P|391:26|309:38,1,127.5,2|10,1:2|0:0,0:0:0:0:
237,33,82885,6,0,P|178:69|208:177,1,170,6|0,1:1|1:0,0:0:0:0:
271,160,83914,1,8,0:0:0:0:
348,195,84257,2,0,P|326:249|298:364,1,170,2|0,1:2|0:0,0:0:0:0:
216,338,85285,1,10,0:0:0:0:
132,320,85628,2,0,P|81:358|3:269,1,170,2|0,1:2|1:0,0:0:0:0:
16,221,86657,1,8,0:0:0:0:
8,136,87000,2,0,P|85:156|260:190,1,255,0|0,1:0|1:0,0:0:0:0:
335,157,88371,5,6,1:2:0:0:
256,192,88542,12,0,97971,0:0:0:0:
