osu file format v14

[General]
AudioFilename: audio.mp3
AudioLeadIn: 0
PreviewTime: 51942
Countdown: 0
SampleSet: Soft
StackLeniency: 0.4
Mode: 0
LetterboxInBreaks: 0
WidescreenStoryboard: 1

[Editor]
DistanceSpacing: 1.3
BeatDivisor: 4
GridSize: 16
TimelineZoom: 1.5

[Metadata]
Title:Get the Freedom
TitleUnicode:Get the Freedom
Artist:Kicco
ArtistUnicode:Kicco
Creator:Bellicose
Version:Dalou's Light Insane
Source:ねこツク、さくら。
Tags:meis clauson angel note lump of sugar Nekotsuku Sakura kemonomimi eroge video game visual novel vn japanese pop opening short version sodarose superdaloubot [r] ron jpop j-pop op 羽生みいな hanyu miina
BeatmapID:2424393
BeatmapSetID:1159892

[Difficulty]
HPDrainRate:6
CircleSize:3.8
OverallDifficulty:7
ApproachRate:8.8
SliderMultiplier:1.5
SliderTickRate:1

[Events]
//Background and Video events
Video,0,"video.mp4"
0,0,"bg6.jpg",0,0
//Break Periods
//Storyboard Layer 0 (Background)
//Storyboard Layer 1 (Fail)
//Storyboard Layer 2 (Pass)
//Storyboard Layer 3 (Foreground)
//Storyboard Layer 4 (Overlay)
//Storyboard Sound Samples

[TimingPoints]
600,342.857142857143,4,2,1,50,1,0
600,-142.857142857143,4,2,1,50,0,0
10542,-142.857142857143,4,2,1,30,0,0
10885,-142.857142857143,4,2,1,50,0,0
11228,-111.111111111111,4,2,1,50,0,0
11571,-100,4,2,1,65,0,0
22542,-100,4,2,1,55,0,0
22885,-100,4,2,2,55,0,0
28028,-100,4,2,1,55,0,0
28371,-100,4,2,2,55,0,0
32142,-100,4,2,1,60,0,0
41742,-111.111111111111,4,2,1,55,0,0
49971,-100,4,2,1,65,0,0
51342,-100,4,2,1,70,0,0
52028,-142.857142857143,4,2,1,50,0,0
52714,-90.9090909090909,4,2,1,70,0,1
70714,-90.9090909090909,4,2,1,60,0,1
70885,-90.9090909090909,4,2,1,70,0,1
74657,-100,4,2,1,60,0,0
76028,-100,4,2,1,50,0,0
76714,-100,4,2,1,60,0,0
77400,-100,4,2,1,65,0,0
88542,-100,4,2,1,40,0,0
92485,-100,4,2,1,35,0,0
93857,-100,4,2,1,30,0,0
97971,-100,4,2,1,5,0,0

[Colours]
Combo1 : 252,163,214
Combo2 : 207,203,254
Combo3 : 253,162,185
Combo4 : 227,174,253

[HitObjects]
62,87,600,6,0,P|105:55|168:38,2,104.999996795654,2|0|2,0:0|0:0|0:0,0:0:0:0:
42,190,1628,1,0,0:0:0:0:
132,242,1971,2,0,P|189:224|232:195,1,104.999996795654,2|0,0:0|0:0,0:0:0:0:
274,103,2657,2,0,P|329:106|386:130,1,104.999996795654,2|0,0:0|0:0,0:0:0:0:
479,205,3342,6,0,P|482:136|496:100,2,104.999996795654,2|0|2,0:0|0:0|0:0,0:0:0:0:
500,308,4371,1,0,0:0:0:0:
401,272,4714,2,0,P|348:269|280:288,1,104.999996795654,2|0,0:0|0:0,0:0:0:0:
206,332,5400,2,0,P|153:335|93:315,1,104.999996795654,2|0,0:0|0:0,0:0:0:0:
75,71,6085,5,2,0:0:0:0:
181,59,6428,1,2,0:0:0:0:
225,158,6771,1,2,0:0:0:0:
144,231,7114,1,2,0:0:0:0:
51,176,7457,2,0,P|40:128|49:74,1,104.999996795654,0|2,0:0|0:0,0:0:0:0:
225,158,8142,2,0,P|237:208|227:264,1,104.999996795654,2|2,0:0|0:0,0:0:0:0:
395,160,8828,6,0,L|399:48,2,104.999996795654,2|2|2,0:0|0:0|0:0,0:0:0:0:
346,253,9857,1,0,0:0:0:0:
485,347,10200,2,0,P|479:295|448:254,1,104.999996795654,2|0,0:0|0:0,0:0:0:0:
329,160,10885,5,2,0:0:0:0:
299,152,10971,1,2,0:0:0:0:
267,151,11057,1,2,0:0:0:0:
236,157,11142,1,2,0:0:0:0:
209,171,11228,2,0,L|165:202,3,33.7499989700318,2|2|2|2,0:0|0:0|0:0|0:0,0:0:0:0:
149,171,11571,6,0,L|143:80,1,75,6|0,1:2|0:0,0:0:0:0:
19,143,11914,2,0,L|13:234,1,75,8|0,0:0|0:0,0:0:0:0:
27,32,12257,1,0,1:0:0:0:
144,96,12428,1,0,1:0:0:0:
19,143,12600,1,10,0:0:0:0:
121,14,12771,1,2,0:0:0:0:
255,84,12942,6,0,L|259:180,1,75,0|0,1:0|1:0,0:0:0:0:
166,259,13285,1,8,0:0:0:0:
310,314,13457,2,0,L|306:218,1,75,0|2,1:0|0:0,0:0:0:0:
166,259,13800,1,0,1:0:0:0:
258,159,13971,1,8,0:0:0:0:
475,242,14314,6,0,L|471:338,1,75,2|0,1:2|0:0,0:0:0:0:
393,170,14657,2,0,L|389:74,1,75,8|0,0:0|0:0,0:0:0:0:
307,239,15000,1,0,1:0:0:0:
389,311,15171,1,0,1:0:0:0:
227,364,15342,2,0,L|231:268,1,75,8|0,0:0|0:0,0:0:0:0:
204,102,15685,5,2,1:2:0:0:
133,235,15857,1,2,1:2:0:0:
78,118,16028,1,10,0:0:0:0:
223,190,16200,1,2,1:2:0:0:
223,190,16285,1,0,1:0:0:0:
223,190,16371,2,0,L|303:186,1,75,0|2,1:0|1:2,0:0:0:0:
367,55,16714,2,0,L|287:51,1,75,10|0,0:0|0:0,0:0:0:0:
445,195,17057,6,0,P|443:155|439:104,1,75,6|0,1:1|0:0,0:0:0:0:
298,186,17400,2,0,P|299:227|304:277,1,75,8|0,0:0|0:0,0:0:0:0:
292,51,17742,1,0,1:0:0:0:
178,124,17914,1,0,1:0:0:0:
298,186,18085,2,0,L|398:181,1,75,8|0,0:0|0:0,0:0:0:0:
216,325,18428,6,0,L|220:229,1,75,2|0,1:2|1:0,0:0:0:0:
359,273,18771,1,8,0:0:0:0:
301,111,18942,2,0,L|297:207,1,75,0|2,1:0|0:0,0:0:0:0:
157,162,19285,1,0,1:0:0:0:
216,325,19457,2,0,L|220:229,1,75,10|0,0:0|0:0,0:0:0:0:
70,129,19800,6,0,P|64:176|83:219,1,75,2|0,1:2|0:0,0:0:0:0:
143,69,20142,2,0,P|104:39|57:35,1,75,8|0,0:0|0:0,0:0:0:0:
157,162,20485,1,0,1:0:0:0:
247,55,20657,1,0,1:0:0:0:
298,185,20828,1,8,0:0:0:0:
66,321,21171,6,0,L|60:215,1,75,0|0,1:0|1:0,0:0:0:0:
179,267,21514,1,8,0:0:0:0:
74,138,21685,1,0,1:0:0:0:
74,138,21771,1,0,1:0:0:0:
74,138,21857,1,8,1:2:0:0:
238,112,22028,5,4,0:3:0:0:
164,176,22200,1,0,1:0:0:0:
179,267,22371,1,8,0:3:0:0:
243,340,22542,6,0,P|277:275|255:206,1,150,6|8,1:2|0:0,0:0:0:0:
238,112,23057,2,0,B|282:106|317:109,1,75,2|8,0:0|0:0,0:0:0:0:
397,154,23400,2,0,P|443:153|491:149,2,75,2|8|0,1:2|0:0|1:0,0:0:0:0:
290,32,23914,6,0,P|215:22|146:76,1,150,10|8,0:0|0:0,0:0:0:0:
123,151,24428,2,0,L|129:252,1,75,2|8,1:2|0:0,0:0:0:0:
193,295,24771,2,0,L|188:369,1,75,2|8,1:2|0:0,0:0:0:0:
102,315,25114,1,0,1:0:0:0:
218,207,25285,6,0,B|244:187|271:179|271:179|387:191,1,150,10|8,0:0|0:0,0:0:0:0:
454,141,25800,2,0,B|451:186|456:215,1,75,2|8,0:0|0:0,0:0:0:0:
433,308,26142,2,0,L|528:307,2,75,2|8|0,1:2|0:0|1:0,0:0:0:0:
294,372,26657,6,0,B|272:350|258:328|258:328|271:216,1,150,10|8,0:0|0:0,0:0:0:0:
169,155,27171,2,0,L|175:256,1,75,2|8,1:2|0:0,0:0:0:0:
266,142,27514,2,0,L|260:44,1,75,2|8,1:2|0:0,0:0:0:0:
182,15,27857,1,0,1:0:0:0:
355,2,28028,6,0,P|385:64|360:150,1,150,6|8,1:1|0:0,0:0:0:0:
317,221,28542,2,0,B|308:265|327:299,1,75,2|8,0:0|0:0,0:0:0:0:
385,367,28885,2,0,L|480:360,2,75,2|8|0,1:2|0:0|1:0,0:0:0:0:
232,308,29400,6,0,P|190:303|94:365,1,150,10|8,0:0|0:0,0:0:0:0:
39,278,29914,2,0,L|29:180,1,75,2|8,1:2|0:0,0:0:0:0:
129,223,30257,2,0,L|134:149,1,75,2|8,1:2|0:0,0:0:0:0:
107,57,30600,1,0,1:0:0:0:
226,165,30771,6,0,P|296:187|361:153,1,150,10|8,0:0|0:0,0:0:0:0:
491,170,31285,2,0,B|488:215|493:244,1,75,2|8,0:0|0:0,0:0:0:0:
437,90,31628,2,0,L|440:-1,2,75,2|8|0,1:2|0:0|1:0,0:0:0:0:
291,86,32142,6,0,B|288:41|293:11,1,75,6|0,1:2|1:0,0:0:0:0:
361,153,32485,1,10,0:0:0:0:
291,310,32657,2,0,P|251:249|268:177,1,150,6|2,1:1|1:2,0:0:0:0:
166,45,33171,1,10,0:0:0:0:
135,35,33257,1,10,0:0:0:0:
101,35,33342,1,10,0:0:0:0:
69,46,33428,1,10,0:0:0:0:
45,68,33514,6,0,P|37:144|58:240,1,150,6|10,1:2|0:0,0:0:0:0:
60,340,34028,2,0,P|121:318|154:315,1,75,2|0,0:0|1:0,0:0:0:0:
265,245,34371,2,0,P|204:223|171:220,1,75,2|8,1:2|0:0,0:0:0:0:
242,358,34714,1,0,3:0:0:0:
383,329,34885,6,0,L|374:224,1,75,2|0,1:2|1:0,0:0:0:0:
317,153,35228,1,10,0:0:0:0:
448,83,35400,2,0,P|436:132|430:177,1,75,2|0,1:2|0:0,0:0:0:0:
317,153,35742,2,0,P|310:113|300:74,1,75,2|8,1:2|0:0,0:0:0:0:
200,19,36085,1,0,3:0:0:0:
55,135,36257,6,0,P|129:146|211:129,1,150,2|10,1:2|0:0,0:0:0:0:
336,225,36771,2,0,P|321:176|315:135,1,75,2|0,0:0|1:0,0:0:0:0:
220,244,37114,2,0,P|210:307|200:341,1,75,0|8,1:0|0:0,0:0:0:0:
94,367,37457,1,0,3:0:0:0:
19,245,37628,6,0,L|101:255,1,75,2|0,1:2|1:0,0:0:0:0:
197,178,37971,1,10,0:0:0:0:
207,318,38142,2,0,P|255:308|296:305,1,75,2|0,1:2|0:0,0:0:0:0:
413,345,38485,2,0,P|403:297|401:263,1,75,2|8,1:2|0:0,0:0:0:0:
440,159,38828,1,0,3:0:0:0:
358,32,39000,6,0,P|289:22|210:76,1,150,2|10,1:2|0:0,0:0:0:0:
331,188,39514,2,0,P|314:134|294:99,1,75,2|0,0:0|1:0,0:0:0:0:
207,192,39857,2,0,P|197:241|198:275,1,75,0|8,1:0|0:0,0:0:0:0:
305,316,40200,1,0,3:0:0:0:
405,177,40371,6,0,P|365:181|309:193,1,75,2|0,1:2|1:0,0:0:0:0:
477,258,40714,1,10,0:0:0:0:
507,128,40885,2,0,P|504:85|499:40,1,75,10|0,0:3|1:0,0:0:0:0:
405,177,41228,1,6,0:3:0:0:
501,53,41400,1,2,1:2:0:0:
241,77,41742,6,0,P|224:126|248:211,1,134.999995880127,4|2,1:2|1:2,0:0:0:0:
275,324,42428,2,0,B|346:306|346:306|424:319,1,134.999995880127,10|0,0:0|0:0,0:0:0:0:
504,239,43114,6,0,L|492:97,1,134.999995880127,2|2,1:2|1:2,0:0:0:0:
449,27,43628,1,2,0:0:0:0:
403,102,43800,2,0,B|370:105|370:105|317:90,1,67.4999979400635,8|2,0:0|0:0,0:0:0:0:
284,25,44142,2,0,P|248:78|277:163,1,134.999995880127,0|0,1:0|1:0,0:0:0:0:
356,274,44828,5,2,1:2:0:0:
235,256,45171,1,10,0:0:0:0:
140,332,45514,1,2,0:0:0:0:
45,254,45857,6,0,B|34:216|28:168|28:168|44:111,1,134.999995880127,2|2,1:2|1:2,0:0:0:0:
165,45,46371,1,2,0:0:0:0:
165,45,46457,1,2,0:0:0:0:
165,45,46542,1,10,0:0:0:0:
156,141,46714,1,10,0:3:0:0:
274,23,46885,1,6,0:3:0:0:
289,119,47057,1,0,1:0:0:0:
410,51,47228,6,0,P|398:99|444:178,1,134.999995880127,4|2,1:1|1:2,0:0:0:0:
462,298,47914,2,0,B|429:280|429:280|356:286|318:305,1,134.999995880127,10|0,0:0|0:0,0:0:0:0:
211,354,48600,6,0,B|154:371|154:371|68:352,1,134.999995880127,2|2,1:2|1:2,0:0:0:0:
3,311,49114,1,2,0:0:0:0:
78,265,49285,2,0,B|81:232|81:232|66:179,1,67.4999979400635,8|2,0:0|0:0,0:0:0:0:
6,140,49628,2,0,B|3:107|3:107|18:54,1,67.4999979400635,0|0,1:0|0:0,0:0:0:0:
132,125,49971,6,0,P|190:141|271:106,1,150,6|10,1:1|0:0,0:0:0:0:
400,27,50485,2,0,P|394:64|390:122,1,75,2|0,0:0|1:0,0:0:0:0:
286,181,50828,2,0,P|277:140|266:90,1,75,2|8,1:2|0:0,0:0:0:0:
373,226,51171,1,2,0:0:0:0:
286,181,51342,5,10,1:2:0:0:
450,167,51514,1,8,1:3:0:0:
381,317,51685,1,4,1:3:0:0:
381,317,52714,6,0,L|388:215,1,82.5000025177003,6|0,1:2|0:0,0:0:0:0:
234,126,53057,2,0,L|243:219,1,82.5000025177003,8|0,0:0|0:0,0:0:0:0:
222,354,53400,1,2,1:2:0:0:
116,212,53571,1,0,1:0:0:0:
18,335,53742,2,0,L|129:337,1,82.5000025177003,8|0,0:0|0:0,0:0:0:0:
242,208,54085,6,0,B|322:180|337:237|419:203,1,165.000005035401,2|10,1:2|0:0,0:0:0:0:
377,26,54600,2,0,P|367:72|370:116,1,82.5000025177003,2|0,1:2|0:0,0:0:0:0:
507,240,54942,2,0,P|508:193|499:154,1,82.5000025177003,2|8,1:2|0:0,0:0:0:0:
376,313,55285,1,0,0:0:0:0:
242,208,55457,6,0,L|249:106,1,82.5000025177003,2|0,1:2|0:0,0:0:0:0:
89,195,55800,2,0,L|98:288,1,82.5000025177003,8|0,0:0|0:0,0:0:0:0:
111,60,56142,1,2,1:2:0:0:
248,126,56314,1,0,1:0:0:0:
89,195,56485,2,0,L|-22:197,1,82.5000025177003,8|0,0:0|0:0,0:0:0:0:
185,310,56828,6,0,P|226:305|296:308,1,82.5000025177003,2|0,1:2|0:0,0:0:0:0:
334,186,57171,1,10,0:0:0:0:
465,309,57342,2,0,P|462:259|456:205,1,82.5000025177003,2|0,1:2|0:0,0:0:0:0:
340,104,57685,2,0,P|337:153|331:208,1,82.5000025177003,2|8,1:2|0:0,0:0:0:0:
425,32,58028,1,0,0:0:0:0:
254,45,58200,6,0,P|205:43|161:36,1,82.5000025177003,6|0,1:1|0:0,0:0:0:0:
41,106,58542,2,0,P|63:149|79:191,1,82.5000025177003,10|0,0:0|0:0,0:0:0:0:
140,329,58885,1,2,1:2:0:0:
29,292,59057,1,0,1:0:0:0:
186,217,59228,2,0,P|231:212|291:222,1,82.5000025177003,10|0,0:0|0:0,0:0:0:0:
422,335,59571,6,0,L|409:148,1,165.000005035401,0|10,1:0|0:0,0:0:0:0:
268,216,60085,2,0,P|268:263|272:315,1,82.5000025177003,0|0,1:0|0:0,0:0:0:0:
411,170,60428,1,0,1:0:0:0:
281,81,60600,2,0,P|226:81|177:82,1,82.5000025177003,10|0,0:0|0:0,0:0:0:0:
51,127,60942,6,0,P|43:77|57:19,1,82.5000025177003,2|0,1:2|0:0,0:0:0:0:
150,202,61285,1,10,0:0:0:0:
38,325,61457,1,0,3:0:0:0:
38,325,61542,1,8,0:0:0:0:
38,325,61628,2,0,L|140:313,1,82.5000025177003,2|0,1:2|1:0,0:0:0:0:
315,290,61971,2,0,L|213:278,1,82.5000025177003,8|0,0:0|0:0,0:0:0:0:
150,202,62314,5,2,1:2:0:0:
261,99,62485,2,0,L|297:65,2,41.2500012588501,8|8|8,0:0|0:0|1:2,0:0:0:0:
403,171,62828,2,0,L|453:197,2,41.2500012588501,8|8|8,0:0|0:0|1:2,0:0:0:0:
369,337,63171,1,8,0:0:0:0:
335,333,63257,1,8,0:0:0:0:
301,329,63342,1,8,1:2:0:0:
267,325,63428,1,8,0:0:0:0:
233,321,63514,1,8,0:0:0:0:
199,317,63600,1,8,0:0:0:0:
165,313,63685,6,0,P|120:316|79:328,1,82.5000025177003,6|0,1:2|0:0,0:0:0:0:
10,178,64028,2,0,P|54:177|96:186,1,82.5000025177003,8|0,0:0|0:0,0:0:0:0:
216,231,64371,1,2,1:2:0:0:
130,82,64542,1,0,1:0:0:0:
283,24,64714,2,0,L|278:124,1,82.5000025177003,8|0,0:0|0:0,0:0:0:0:
414,249,65057,6,0,P|446:171|400:92,1,165.000005035401,2|10,1:2|0:0,0:0:0:0:
283,24,65571,2,0,P|235:25|186:29,1,82.5000025177003,2|0,1:2|0:0,0:0:0:0:
60,149,65914,2,0,P|105:153|150:154,1,82.5000025177003,2|8,1:2|0:0,0:0:0:0:
201,28,66257,1,0,0:0:0:0:
326,142,66428,6,0,P|335:183|327:244,1,82.5000025177003,2|0,1:2|0:0,0:0:0:0:
173,325,66771,2,0,L|180:226,1,82.5000025177003,8|0,0:0|0:0,0:0:0:0:
60,149,67114,1,2,1:2:0:0:
18,292,67285,1,0,1:0:0:0:
179,243,67457,2,0,L|285:240,1,82.5000025177003,8|0,0:0|0:0,0:0:0:0:
423,301,67800,6,0,L|416:200,1,82.5000025177003,2|0,1:2|0:0,0:0:0:0:
292,149,68143,1,10,0:0:0:0:
417,15,68314,2,0,P|367:18|313:24,1,82.5000025177003,2|0,1:2|0:0,0:0:0:0:
210,143,68657,2,0,P|259:146|314:152,1,82.5000025177003,2|8,1:2|0:0,0:0:0:0:
146,30,69000,1,0,0:0:0:0:
4,140,69171,6,0,P|9:192|18:229,1,82.5000025177003,6|0,1:1|0:0,0:0:0:0:
106,336,69514,2,0,P|138:306|176:279,1,82.5000025177003,10|0,0:0|0:0,0:0:0:0:
210,143,69857,2,0,P|162:121|125:110,1,82.5000025177003,2|0,1:2|1:0,0:0:0:0:
293,233,70200,6,0,P|329:144|285:52,1,165.000005035401,10|0,0:0|1:0,0:0:0:0:
170,15,70714,1,2,0:0:0:0:
310,81,70885,2,0,P|356:77|409:72,1,82.5000025177003,10|0,0:0|1:0,0:0:0:0:
505,164,71228,2,0,P|484:202|463:254,1,82.5000025177003,2|0,0:0|1:0,0:0:0:0:
340,300,71571,2,0,P|317:266|282:218,1,82.5000025177003,10|0,0:0|0:0,0:0:0:0:
146,149,71914,6,0,P|84:203|107:296,2,165.000005035401,2|10|2,1:2|0:0|1:2,0:0:0:0:
293,232,72771,1,0,1:0:0:0:
262,107,72942,2,0,L|267:11,1,82.5000025177003,8|0,0:0|0:0,0:0:0:0:
428,88,73285,6,0,L|434:190,1,82.5000025177003,2|0,1:2|1:0,0:0:0:0:
343,302,73628,1,8,0:0:0:0:
258,148,73800,2,0,L|263:100,2,41.2500012588501,0|8|10,1:0|0:0|1:2,0:0:0:0:
64,198,74142,1,4,0:3:0:0:
126,376,74314,1,2,1:0:0:0:
249,234,74485,1,8,0:3:0:0:
145,274,74657,5,6,1:2:0:0:
145,274,76028,1,6,1:1:0:0:
336,150,76714,5,2,0:0:0:0:
237,120,76885,1,8,1:2:0:0:
303,250,77057,1,8,1:2:0:0:
150,367,77400,6,0,L|241:361,1,75,6|0,1:2|0:0,0:0:0:0:
194,246,77742,2,0,L|103:240,1,75,8|0,0:0|0:0,0:0:0:0:
303,250,78085,1,0,1:0:0:0:
225,362,78257,1,0,1:0:0:0:
194,246,78428,1,10,0:0:0:0:
319,352,78600,1,2,0:0:0:0:
407,231,78771,6,0,L|402:135,1,75,0|0,1:0|1:0,0:0:0:0:
462,33,79114,1,8,0:0:0:0:
319,32,79285,2,0,L|323:127,1,75,0|2,1:0|0:0,0:0:0:0:
462,33,79628,1,0,1:0:0:0:
403,156,79800,1,8,0:0:0:0:
144,52,80142,6,0,L|48:56,1,75,2|0,1:2|0:0,0:0:0:0:
216,134,80485,2,0,L|312:138,1,75,8|0,0:0|0:0,0:0:0:0:
147,220,80828,1,0,1:0:0:0:
56,154,81000,1,0,1:0:0:0:
27,306,81171,2,0,L|123:302,1,75,8|0,0:0|0:0,0:0:0:0:
329,229,81514,5,2,1:2:0:0:
196,300,81685,1,2,1:2:0:0:
313,355,81857,1,10,0:0:0:0:
236,212,82028,1,2,1:2:0:0:
236,212,82114,1,0,1:0:0:0:
236,212,82200,2,0,L|240:132,1,75,0|2,1:0|1:2,0:0:0:0:
389,90,82542,2,0,L|393:170,1,75,10|0,0:0|0:0,0:0:0:0:
250,25,82885,6,0,P|210:27|159:31,1,75,6|0,1:1|0:0,0:0:0:0:
389,90,83228,2,0,P|430:89|480:84,1,75,8|0,0:0|0:0,0:0:0:0:
240,137,83571,1,0,1:0:0:0:
347,222,83742,1,0,1:0:0:0:
389,90,83914,2,0,L|384:-10,1,75,8|0,0:0|0:0,0:0:0:0:
240,137,84257,6,0,L|244:233,1,75,2|0,1:2|1:0,0:0:0:0:
201,343,84600,1,8,0:0:0:0:
350,296,84771,2,0,L|346:200,1,75,0|2,1:0|0:0,0:0:0:0:
389,90,85114,1,0,1:0:0:0:
240,137,85285,2,0,L|244:233,1,75,10|0,0:0|0:0,0:0:0:0:
66,137,85628,6,0,P|59:100|67:64,1,75,2|0,1:2|0:0,0:0:0:0:
139,197,85971,2,0,P|111:221|75:232,1,75,8|0,0:0|0:0,0:0:0:0:
153,104,86314,1,0,1:0:0:0:
243,211,86485,1,0,1:0:0:0:
333,113,86657,2,0,L|432:110,1,75,8|0,0:0|0:0,0:0:0:0:
320,318,87000,6,0,L|218:321,1,75,0|0,1:0|1:0,0:0:0:0:
243,211,87342,1,8,0:0:0:0:
134,336,87514,1,0,1:0:0:0:
134,336,87600,1,0,1:0:0:0:
134,336,87685,1,8,1:2:0:0:
80,179,87857,5,4,0:3:0:0:
152,243,88028,1,0,1:0:0:0:
243,211,88200,1,8,0:3:0:0:
134,336,88371,5,6,1:2:0:0:
256,192,88542,12,0,97971,0:0:0:0:
