osu file format v14

[General]
AudioFilename: audio.mp3
AudioLeadIn: 0
PreviewTime: 51942
Countdown: 0
SampleSet: Soft
StackLeniency: 0.6
Mode: 0
LetterboxInBreaks: 0
WidescreenStoryboard: 0

[Editor]
Bookmarks: 52694,88371
DistanceSpacing: 0.4
BeatDivisor: 4
GridSize: 16
TimelineZoom: 1.5

[Metadata]
Title:Get the Freedom
TitleUnicode:Get the Freedom
Artist:Kicco
ArtistUnicode:Kicco
Creator:Bellicose
Version:Blossom
Source:ねこツク、さくら。
Tags:meis clauson angel note lump of sugar Nekotsuku Sakura kemonomimi eroge video game visual novel vn japanese pop opening short version sodarose superdaloubot [r] ron jpop j-pop op 羽生みいな hanyu miina
BeatmapID:2420193
BeatmapSetID:1159892

[Difficulty]
HPDrainRate:6
CircleSize:4
OverallDifficulty:8.5
ApproachRate:9
SliderMultiplier:1.7
SliderTickRate:1

[Events]
//Background and Video events
Video,0,"video.mp4"
0,0,"bg.jpg",0,0
//Break Periods
//Storyboard Layer 0 (Background)
//Storyboard Layer 1 (Fail)
//Storyboard Layer 2 (Pass)
//Storyboard Layer 3 (Foreground)
//Storyboard Layer 4 (Overlay)
//Storyboard Sound Samples

[TimingPoints]
600,342.857142857143,4,2,1,50,1,0
600,-125,4,2,1,50,0,0
11571,-100,4,2,1,65,0,0
22542,-125,4,2,1,55,0,0
22885,-125,4,2,2,55,0,0
28028,-125,4,2,1,55,0,0
28371,-125,4,2,2,55,0,0
32142,-125,4,2,1,60,0,0
32657,-111.111111111111,4,2,1,60,0,0
41742,-125,4,2,1,55,0,0
49971,-100,4,2,1,65,0,0
51342,-100,4,2,1,70,0,0
52028,-125,4,2,1,50,0,0
52714,-90.9090909090909,4,2,1,70,0,1
74657,-125,4,2,1,60,0,0
76028,-111.111111111111,4,2,1,60,0,0
77400,-100,4,2,1,65,0,0
97971,-100,4,2,1,5,0,0

[Colours]
Combo1 : 252,163,214
Combo2 : 255,230,253
Combo3 : 254,201,249
Combo4 : 227,174,253

[HitObjects]
83,51,600,6,0,P|132:74|218:84,1,136,2|0,0:0|0:0,0:0:0:0:
11,234,1285,2,0,P|73:207|140:200,1,136,2|0,0:0|0:0,0:0:0:0:
356,374,1971,6,0,P|346:304|330:231,1,136,2|2,0:0|0:0,0:0:0:0:
407,152,2485,2,0,P|421:216|431:248,1,68,2|0,0:0|0:0,0:0:0:0:
458,26,2828,2,0,P|419:52|310:85,1,136,2|0,0:0|0:0,0:0:0:0:
173,236,3342,6,0,P|251:204|240:140,1,136,2|0,0:0|0:0,0:0:0:0:
83,19,4028,2,0,P|161:51|150:115,1,136,2|0,0:0|0:0,0:0:0:0:
21,306,4714,6,0,P|41:235|74:158,1,136,2|2,0:0|0:0,0:0:0:0:
126,287,5228,2,0,P|111:336|103:371,1,68,2|0,0:0|0:0,0:0:0:0:
215,238,5571,2,0,P|281:247|350:299,1,136,2|0,0:0|0:0,0:0:0:0:
480,373,6085,5,2,0:0:0:0:
452,239,6428,1,2,0:0:0:0:
454,81,6771,5,2,0:0:0:0:
482,215,7114,1,2,0:0:0:0:
484,57,7457,5,0,0:0:0:0:
275,110,7800,2,0,P|342:147|400:159,2,136,2|2|2,0:0|0:0|0:0,0:0:0:0:
175,17,8828,5,2,0:0:0:0:
52,77,9171,1,2,0:0:0:0:
148,172,9514,2,0,P|185:239|197:297,1,136,2|0,0:0|0:0,0:0:0:0:
53,373,10200,6,0,P|-8:296|11:187,1,204,2|0,0:0|0:0,0:0:0:0:
46,52,10885,1,2,0:0:0:0:
57,76,10971,1,2,0:0:0:0:
78,92,11057,1,2,0:0:0:0:
104,96,11142,1,2,0:0:0:0:
133,87,11228,1,2,0:0:0:0:
165,75,11314,1,2,0:0:0:0:
202,81,11400,1,2,0:0:0:0:
234,105,11485,1,2,0:0:0:0:
260,147,11571,6,0,P|277:50|342:4,1,170,6|8,1:2|0:0,0:0:0:0:
492,136,12085,1,0,3:0:0:0:
492,136,12171,1,0,3:0:0:0:
492,136,12257,2,0,P|482:73|472:42,1,85,0|0,1:0|1:0,0:0:0:0:
374,276,12600,2,0,P|384:213|394:182,1,85,10|2,0:0|0:0,0:0:0:0:
504,310,12942,5,0,1:0:0:0:
378,375,13114,1,0,1:0:0:0:
161,266,13285,5,8,0:0:0:0:
290,331,13457,2,0,P|227:341|196:351,1,85,0|2,1:0|0:0,0:0:0:0:
0,238,13800,1,0,1:0:0:0:
0,238,13971,2,0,P|63:228|94:218,1,85,8|0,0:0|0:0,0:0:0:0:
264,102,14314,6,0,P|208:84|145:166,2,170,2|8|0,1:2|0:0|1:0,0:0:0:0:
333,206,15171,1,0,1:0:0:0:
486,155,15342,2,0,P|423:145|392:135,1,85,8|0,0:0|0:0,0:0:0:0:
170,54,15685,5,2,1:2:0:0:
328,5,15857,1,2,1:2:0:0:
193,238,16028,5,10,0:0:0:0:
264,102,16200,1,2,1:2:0:0:
272,125,16285,1,0,1:0:0:0:
276,150,16371,1,0,1:0:0:0:
352,339,16542,1,2,1:2:0:0:
352,339,16714,2,0,P|353:282|371:232,1,85,10|0,0:0|0:0,0:0:0:0:
132,170,17057,6,0,P|174:238|273:228,1,170,6|8,1:1|0:0,0:0:0:0:
124,364,17571,1,0,3:0:0:0:
124,364,17657,1,0,3:0:0:0:
124,364,17742,2,0,P|67:363|17:345,1,85,0|0,1:0|1:0,0:0:0:0:
257,239,18085,2,0,P|200:240|150:258,1,85,8|0,0:0|0:0,0:0:0:0:
16,90,18428,5,2,1:2:0:0:
132,170,18600,1,0,1:0:0:0:
316,70,18771,5,8,0:0:0:0:
204,123,18942,2,0,P|205:66|223:16,1,85,0|2,1:0|0:0,0:0:0:0:
448,159,19285,1,0,1:0:0:0:
448,159,19457,2,0,P|449:201|439:242,1,85,10|0,0:0|0:0,0:0:0:0:
238,361,19800,6,0,P|342:337|359:271,2,170,2|8|0,1:2|0:0|1:0,0:0:0:0:
121,301,20657,1,0,1:0:0:0:
249,189,20828,2,0,P|291:188|332:198,1,85,8|0,0:0|0:0,0:0:0:0:
40,92,21171,6,0,P|77:112|118:122,1,85,0|0,1:0|1:0,0:0:0:0:
310,93,21514,1,8,0:0:0:0:
201,289,21685,1,0,1:0:0:0:
195,264,21771,1,0,1:0:0:0:
180,242,21857,5,8,1:2:0:0:
25,77,22028,5,4,0:3:0:0:
97,198,22200,5,0,1:0:0:0:
16,282,22371,5,8,0:3:0:0:
51,359,22542,6,0,P|133:366|186:384,1,136,6|10,1:2|0:0,0:0:0:0:
258,322,23057,2,0,P|318:335|342:335,1,68,2|8,0:0|0:0,0:0:0:0:
416,371,23400,1,2,1:2:0:0:
416,371,23571,2,0,P|429:311|429:287,1,68,8|0,0:0|1:0,0:0:0:0:
478,101,23914,6,0,P|487:174|512:261,1,136,10|10,0:0|0:0,0:0:0:0:
392,212,24428,2,0,P|358:208|325:198,1,68,2|8,1:2|0:0,0:0:0:0:
247,252,24771,1,2,1:2:0:0:
247,252,24942,2,0,P|214:261|180:265,1,68,8|0,0:0|1:0,0:0:0:0:
0,384,25285,6,0,P|44:367|100:272,1,136,10|10,0:0|0:0,0:0:0:0:
164,181,25800,2,0,P|156:139|140:97,1,68,2|8,0:0|0:0,0:0:0:0:
43,24,26142,1,2,1:2:0:0:
43,24,26314,2,0,P|51:66|67:108,1,68,8|0,0:0|1:0,0:0:0:0:
0,238,26657,6,0,P|80:204|140:190,1,136,10|10,0:0|0:0,0:0:0:0:
223,243,27171,2,0,P|275:262|313:265,1,68,2|8,1:2|0:0,0:0:0:0:
388,227,27514,1,2,1:2:0:0:
388,227,27685,2,0,P|421:219|452:206,1,68,8|0,0:0|1:0,0:0:0:0:
511,22,28028,6,0,P|443:67|362:85,1,136,6|10,1:1|0:0,0:0:0:0:
284,22,28542,2,0,P|297:68|303:103,1,68,2|8,0:0|0:0,0:0:0:0:
235,164,28885,1,2,1:2:0:0:
235,164,29057,2,0,P|222:210|216:245,1,68,8|0,0:0|1:0,0:0:0:0:
126,384,29400,6,0,P|122:329|91:221,1,136,10|10,0:0|0:0,0:0:0:0:
18,197,29914,2,0,P|24:163|34:131,1,68,2|8,1:2|0:0,0:0:0:0:
18,29,30257,1,2,1:2:0:0:
18,29,30428,2,0,P|50:38|83:45,1,68,8|0,0:0|1:0,0:0:0:0:
353,5,30771,6,0,P|275:22|216:56,1,136,10|10,0:0|0:0,0:0:0:0:
170,155,31285,2,0,P|181:207|185:245,1,68,2|8,0:0|0:0,0:0:0:0:
255,360,31628,1,2,1:2:0:0:
255,360,31800,2,0,P|260:327|268:294,1,68,8|0,0:0|1:0,0:0:0:0:
494,213,32142,5,6,1:2:0:0:
360,339,32314,1,0,1:0:0:0:
512,196,32485,5,10,0:0:0:0:
345,124,32657,2,0,B|286:107|286:107|270:81|270:81|198:60,1,152.999995330811,6|2,1:1|1:2,0:0:0:0:
0,134,33171,1,10,0:0:0:0:
25,162,33257,1,10,0:0:0:0:
58,179,33342,1,10,0:0:0:0:
96,177,33428,1,10,0:0:0:0:
130,159,33514,6,0,P|130:110|98:-6,1,152.999995330811,6|10,1:2|0:0,0:0:0:0:
230,191,34028,1,2,0:0:0:0:
230,191,34114,1,2,0:0:0:0:
230,191,34200,2,0,P|214:239|214:284,1,76.4999976654053,2|2,1:2|1:2,0:0:0:0:
73,368,34542,2,0,P|89:320|89:275,1,76.4999976654053,8|0,0:0|0:0,0:0:0:0:
12,75,34885,6,0,P|60:91|105:91,1,76.4999976654053,2|0,1:2|1:0,0:0:0:0:
294,29,35228,1,10,0:0:0:0:
168,16,35400,2,0,P|183:78|188:110,1,76.4999976654053,2|0,1:2|0:0,0:0:0:0:
340,217,35742,1,2,1:2:0:0:
340,217,35914,2,0,P|330:180|322:142,1,76.4999976654053,8|0,0:0|0:0,0:0:0:0:
155,224,36257,6,0,P|202:292|274:278,1,152.999995330811,2|10,1:2|0:0,0:0:0:0:
466,374,36771,1,2,0:0:0:0:
466,374,36857,1,2,0:0:0:0:
466,374,36942,2,0,P|415:359|382:355,1,76.4999976654053,2|0,1:2|1:0,0:0:0:0:
511,209,37285,2,0,P|474:220|436:227,1,76.4999976654053,8|0,0:0|0:0,0:0:0:0:
304,68,37628,6,0,P|315:104|322:142,1,76.4999976654053,2|0,1:2|1:0,0:0:0:0:
502,73,37971,1,10,0:0:0:0:
436,227,38142,2,0,P|442:189|454:152,1,76.4999976654053,2|0,1:2|0:0,0:0:0:0:
472,384,38485,1,2,1:2:0:0:
305,314,38657,2,0,P|298:276|286:239,1,76.4999976654053,8|0,0:0|0:0,0:0:0:0:
166,41,39000,6,0,P|108:83|126:160,1,152.999995330811,2|10,1:2|0:0,0:0:0:0:
305,314,39514,1,2,0:0:0:0:
305,314,39600,1,2,0:0:0:0:
305,314,39685,2,0,P|250:327|197:332,1,76.4999976654053,2|0,1:2|1:0,0:0:0:0:
23,286,40028,2,0,P|78:273|131:268,1,76.4999976654053,8|0,0:0|0:0,0:0:0:0:
355,173,40371,6,0,P|317:166|280:157,1,76.4999976654053,2|0,1:2|1:0,0:0:0:0:
89,71,40714,1,10,0:0:0:0:
188,204,40885,2,0,P|177:149|160:103,1,76.4999976654053,10|0,0:3|1:0,0:0:0:0:
23,286,41228,1,6,0:3:0:0:
23,286,41400,2,0,P|34:231|51:185,1,76.4999976654053,2|0,1:2|0:0,0:0:0:0:
226,313,41742,6,0,P|186:368|102:341,1,136,4|2,1:2|1:2,0:0:0:0:
294,241,42428,2,0,P|367:256|452:279,1,136,10|0,0:0|0:0,0:0:0:0:
512,81,43114,6,0,P|445:67|379:50,1,136,2|2,1:2|1:2,0:0:0:0:
296,5,43628,1,2,0:0:0:0:
296,5,43800,2,0,P|328:31|317:124,1,136,8|0,0:0|1:0,0:0:0:0:
219,376,44485,6,0,P|209:281|191:221,1,136,0|2,1:0|1:2,0:0:0:0:
14,122,45171,2,0,P|-1:185|40:235,1,136,10|2,0:0|0:0,0:0:0:0:
327,198,45857,6,0,P|260:224|175:247,1,136,2|2,1:2|1:2,0:0:0:0:
146,73,46371,1,2,0:0:0:0:
152,57,46457,1,2,0:0:0:0:
158,41,46542,1,10,0:0:0:0:
222,137,46714,1,10,0:3:0:0:
37,118,46885,1,6,0:3:0:0:
258,19,47057,1,0,1:0:0:0:
111,220,47228,6,0,P|121:146|152:60,1,136,4|2,1:1|1:2,0:0:0:0:
302,312,47914,2,0,P|321:247|330:179,1,136,10|0,0:0|0:0,0:0:0:0:
137,348,48600,6,0,P|160:275|235:263,1,136,2|2,1:2|1:2,0:0:0:0:
302,312,49114,1,2,0:0:0:0:
302,312,49285,2,0,P|373:324|459:344,1,136,8|0,0:0|1:0,0:0:0:0:
163,158,49971,6,0,P|92:146|-7:121,1,170,6|10,1:1|0:0,0:0:0:0:
163,158,50485,1,2,0:0:0:0:
306,51,50657,2,0,P|257:65|210:72,1,85,0|2,1:0|1:2,0:0:0:0:
463,201,51000,2,0,P|498:152|486:86,1,127.5,8|0,0:0|0:0,0:0:0:0:
456,17,51342,5,10,1:2:0:0:
163,158,51514,1,8,1:3:0:0:
467,318,51685,1,4,1:3:0:0:
219,369,52028,6,0,P|276:351|291:275,1,136,2|2,0:0|0:0,0:0:0:0:
5,177,52714,6,0,P|108:203|199:221,1,187.000005706787,6|8,1:2|0:0,0:0:0:0:
380,159,53228,1,0,3:0:0:0:
380,159,53314,1,0,3:0:0:0:
380,159,53400,2,0,P|310:148|286:139,1,93.5000028533936,2|0,1:2|1:0,0:0:0:0:
136,8,53742,2,0,P|185:31|182:93,1,93.5000028533936,8|0,0:0|0:0,0:0:0:0:
180,99,54000,1,0,3:0:0:0:
180,99,54085,6,0,P|170:164|169:208,1,93.5000028533936,2|0,1:2|0:0,0:0:0:0:
267,357,54428,1,10,0:0:0:0:
57,378,54600,2,0,P|136:370|176:288,1,140.25000428009,2|0,1:2|0:0,0:0:0:0:
180,285,54942,1,2,1:2:0:0:
0,148,55114,2,0,P|106:175|169:193,1,140.25000428009,8|0,0:0|0:0,0:0:0:0:
168,191,55457,6,0,B|281:178|226:126|348:113,1,187.000005706787,2|8,1:2|0:0,0:0:0:0:
492,249,55971,1,0,3:0:0:0:
492,249,56057,1,0,3:0:0:0:
492,249,56142,2,0,P|475:160|464:132,1,93.5000028533936,2|0,1:2|1:0,0:0:0:0:
318,316,56485,2,0,P|335:227|346:199,1,93.5000028533936,8|0,0:0|0:0,0:0:0:0:
343,0,56828,6,0,P|408:51|489:56,1,140.25000428009,2|0,1:2|0:0,0:0:0:0:
496,64,57171,1,10,0:0:0:0:
243,74,57342,2,0,P|204:84|132:111,1,93.5000028533936,2|0,1:2|0:0,0:0:0:0:
335,224,57685,1,2,1:2:0:0:
335,224,57857,2,0,P|374:214|446:187,1,93.5000028533936,8|0,0:0|0:0,0:0:0:0:
193,376,58200,6,0,P|258:325|203:222,1,187.000005706787,6|10,1:1|0:0,0:0:0:0:
123,75,58714,1,0,3:0:0:0:
123,75,58800,1,0,3:0:0:0:
123,75,58885,2,0,P|111:120|104:166,1,93.5000028533936,2|0,1:2|1:0,0:0:0:0:
0,307,59228,2,0,P|46:299|91:287,1,93.5000028533936,10|0,0:0|0:0,0:0:0:0:
384,333,59571,6,0,B|265:302|342:264|218:231,1,187.000005706787,0|10,1:0|0:0,0:0:0:0:
1,96,60085,2,0,P|72:128|192:152,1,187.000005706787,0|0,1:0|1:0,0:0:0:0:
431,53,60600,2,0,P|362:82|326:88,1,93.5000028533936,10|0,0:0|0:0,0:0:0:0:
216,29,60942,6,0,P|277:56|285:200,1,187.000005706787,2|10,1:2|0:0,0:0:0:0:
3,34,61457,1,0,3:0:0:0:
13,18,61542,1,8,0:0:0:0:
30,10,61628,1,2,1:2:0:0:
178,150,61800,1,0,1:0:0:0:
103,40,61971,2,0,P|79:104|70:144,1,93.5000028533936,8|0,0:0|0:0,0:0:0:0:
109,314,62314,5,2,1:2:0:0:
266,228,62485,5,8,0:0:0:0:
243,223,62571,1,8,0:0:0:0:
221,232,62657,1,8,1:2:0:0:
272,366,62828,5,8,0:0:0:0:
304,370,62914,1,8,0:0:0:0:
332,353,63000,1,8,1:2:0:0:
500,190,63171,5,8,0:0:0:0:
469,177,63257,1,8,0:0:0:0:
431,177,63342,1,8,1:2:0:0:
399,205,63428,1,8,0:0:0:0:
366,239,63514,1,8,0:0:0:0:
316,253,63600,1,8,0:0:0:0:
266,228,63685,6,0,P|284:112|316:17,1,187.000005706787,6|8,1:2|0:0,0:0:0:0:
501,7,64200,1,0,3:0:0:0:
501,7,64285,1,0,3:0:0:0:
501,7,64371,2,0,P|493:64|480:106,1,93.5000028533936,2|0,1:2|1:0,0:0:0:0:
366,239,64714,2,0,P|427:265|444:322,1,93.5000028533936,8|0,0:0|0:0,0:0:0:0:
451,324,64971,1,0,3:0:0:0:
451,324,65057,6,0,P|395:337|342:355,1,93.5000028533936,2|0,1:2|0:0,0:0:0:0:
114,265,65400,1,10,0:0:0:0:
271,372,65571,2,0,P|182:349|114:338,1,140.25000428009,2|0,1:2|0:0,0:0:0:0:
95,347,65914,1,2,1:2:0:0:
293,239,66085,2,0,P|317:175|282:103,1,140.25000428009,8|0,0:0|0:0,0:0:0:0:
254,105,66428,6,0,B|137:117|209:164|75:183,1,187.000005706787,2|8,1:2|0:0,0:0:0:0:
24,9,66942,1,0,3:0:0:0:
24,9,67028,1,0,3:0:0:0:
24,9,67114,2,0,P|84:27|130:33,1,93.5000028533936,2|0,1:2|1:0,0:0:0:0:
0,203,67457,2,0,P|44:188|90:180,1,93.5000028533936,8|0,0:0|0:0,0:0:0:0:
314,62,67800,6,0,P|232:73|189:154,1,140.25000428009,2|0,1:2|0:0,0:0:0:0:
195,154,68142,1,10,0:0:0:0:
318,365,68314,2,0,P|337:284|349:246,1,93.5000028533936,2|0,1:2|0:0,0:0:0:0:
110,292,68657,1,2,1:2:0:0:
110,292,68828,2,0,P|91:373|79:411,1,93.5000028533936,8|0,0:0|0:0,0:0:0:0:
257,257,69171,6,0,P|312:193|419:244,1,187.000005706787,6|10,1:1|0:0,0:0:0:0:
503,65,69685,1,0,3:0:0:0:
503,65,69771,1,0,3:0:0:0:
503,65,69857,2,0,P|445:81|397:87,1,93.5000028533936,2|0,1:2|1:0,0:0:0:0:
116,190,70200,2,0,P|123:143|155:44,1,140.25000428009,10|0,0:0|0:0,0:0:0:0:
173,22,70542,6,0,B|285:38|211:95|346:116,1,187.000005706787,0|10,1:0|0:0,0:0:0:0:
509,338,71057,2,0,P|440:309|310:283,1,187.000005706787,0|0,1:0|1:0,0:0:0:0:
98,337,71571,2,0,P|162:357|221:365,1,93.5000028533936,10|0,0:0|0:0,0:0:0:0:
224,358,71828,1,0,3:0:0:0:
224,358,71914,6,0,P|242:299|219:251,1,93.5000028533936,2|0,1:2|0:0,0:0:0:0:
27,166,72257,2,0,P|69:211|122:215,1,93.5000028533936,10|0,0:0|0:0,0:0:0:0:
284,91,72600,2,0,P|223:104|193:148,1,93.5000028533936,2|0,1:2|1:0,0:0:0:0:
359,327,72942,2,0,P|382:208|396:148,1,140.25000428009,8|0,0:0|0:0,0:0:0:0:
402,150,73285,5,2,1:2:0:0:
503,40,73457,1,0,1:0:0:0:
274,173,73628,1,8,0:0:0:0:
512,258,73800,1,0,1:0:0:0:
492,245,73885,1,8,0:0:0:0:
468,246,73971,5,10,1:2:0:0:
359,327,74142,5,4,0:3:0:0:
246,280,74314,5,2,1:0:0:0:
145,325,74485,5,8,0:3:0:0:
26,336,74657,6,0,P|114:346|248:398,1,204,6|0,1:2|0:0,0:0:0:0:
442,328,75342,2,0,P|354:318|220:266,1,204,0|0,3:0|0:0,0:0:0:0:
178,79,76028,6,0,B|157:129|157:129|173:165|173:165|144:249,1,152.999995330811,6|2,1:1|0:0,0:0:0:0:
328,106,76542,2,0,P|277:124|236:132,1,76.4999976654053,2|0,0:0|0:0,0:0:0:0:
46,63,76885,1,8,1:2:0:0:
321,210,77057,1,8,1:2:0:0:
88,297,77400,6,0,P|107:347|224:347,1,170,6|8,1:2|0:0,0:0:0:0:
394,332,77914,1,0,3:0:0:0:
394,332,78000,1,0,3:0:0:0:
394,332,78085,2,0,P|353:323|290:318,1,85,0|0,1:0|1:0,0:0:0:0:
507,206,78428,2,0,P|466:214|403:219,1,85,10|2,0:0|0:0,0:0:0:0:
208,119,78771,5,0,1:0:0:0:
328,198,78942,1,0,1:0:0:0:
476,64,79114,5,8,0:0:0:0:
336,114,79285,2,0,P|348:45|361:11,1,85,0|2,1:0|0:0,0:0:0:0:
252,287,79628,1,0,1:0:0:0:
252,287,79800,2,0,P|246:244|235:204,1,85,8|0,0:0|0:0,0:0:0:0:
21,121,80142,6,0,P|45:186|160:186,2,170,2|8|0,1:2|0:0|1:0,0:0:0:0:
95,36,81000,1,0,1:0:0:0:
253,118,81171,2,0,P|188:106|156:102,1,85,8|0,0:0|0:0,0:0:0:0:
18,299,81514,5,2,1:2:0:0:
136,202,81685,1,2,1:2:0:0:
323,351,81857,5,10,0:0:0:0:
200,266,82028,1,2,1:2:0:0:
187,288,82114,1,0,1:0:0:0:
188,313,82200,1,0,1:0:0:0:
416,256,82371,1,2,1:2:0:0:
416,256,82542,2,0,P|357:247|301:224,1,85,10|0,0:0|0:0,0:0:0:0:
465,61,82885,6,0,P|514:106|468:201,1,170,6|8,1:1|0:0,0:0:0:0:
332,17,83400,1,0,3:0:0:0:
332,17,83485,1,0,3:0:0:0:
332,17,83571,2,0,P|343:57|348:99,1,85,0|0,1:0|1:0,0:0:0:0:
228,283,83914,2,0,P|216:242|211:200,1,85,8|0,0:0|0:0,0:0:0:0:
422,290,84257,5,2,1:2:0:0:
306,194,84428,1,0,1:0:0:0:
122,276,84600,5,8,0:0:0:0:
249,115,84771,2,0,P|243:72|232:32,1,85,0|2,1:0|0:0,0:0:0:0:
14,145,85114,1,0,1:0:0:0:
14,145,85285,2,0,P|19:187|30:227,1,85,10|0,0:0|0:0,0:0:0:0:
0,11,85628,6,0,P|45:8|123:111,1,170,2|8,1:2|0:0,0:0:0:0:
25,349,86142,1,0,3:0:0:0:
25,349,86228,1,0,3:0:0:0:
25,349,86314,2,0,P|88:328|122:325,1,85,0|0,1:0|1:0,0:0:0:0:
348,354,86657,2,0,P|299:355|235:276,1,127.5,8|0,0:0|0:0,0:0:0:0:
241,266,87000,5,0,1:0:0:0:
404,183,87171,1,0,1:0:0:0:
197,128,87342,5,8,0:0:0:0:
448,321,87514,2,0,L|471:264,1,42.5,0|0,1:0|1:0,0:0:0:0:
510,165,87685,5,8,1:2:0:0:
330,264,87857,5,4,0:3:0:0:
149,198,88028,5,0,1:0:0:0:
64,254,88200,5,8,0:3:0:0:
256,192,88371,5,6,1:2:0:0:
256,192,88457,12,0,97971,0:0:0:0:
