osu file format v14

[General]
AudioFilename: audio.mp3
AudioLeadIn: 0
PreviewTime: 55199
Countdown: 0
SampleSet: Soft
StackLeniency: 0.3
Mode: 0
LetterboxInBreaks: 0
EpilepsyWarning: 1
WidescreenStoryboard: 1

[Editor]
Bookmarks: 39799,129399,135199,138999,178199,178599,178999,179399,179799,180199,180599,180799,180999,181199,181399,181499,181599,181699,181799,181899,181999,182099,183699,199799,205599,244599
DistanceSpacing: 1.4
BeatDivisor: 8
GridSize: 32
TimelineZoom: 3.799999

[Metadata]
Title:Amazing sky
TitleUnicode:Amazing sky
Artist:Kicco
ArtistUnicode:Kicco
Creator:Rekkursion
Version:You're the only one
Source:タユタマ2 -you're the only one-
Tags:ランプオブシュガー Lump of Sugar Tayutama Full Version video game japanese Eroge Visual Novel Galgame Opening op cb128128cb
BeatmapID:1642431
BeatmapSetID:782115

[Difficulty]
HPDrainRate:7
CircleSize:4
OverallDifficulty:8
ApproachRate:8
SliderMultiplier:1.4
SliderTickRate:1

[Events]
//Background and Video events
0,0,"tayutama2_hifumi.jpg",0,0
//Break Periods
2,94399,103049
//Storyboard Layer 0 (Background)
Sprite,Background,Centre,"tytm2\hifumi01.jpg",320,240 S,0,55999,,0.7 M,0,55999,78199,320,240
Sprite,Background,Centre,"tytm2\hifumi01.jpg",320,240 S,0,145599,,0.7 M,0,145599,167799,320,240
Sprite,Background,Centre,"tytm2\hifumi02.jpg",320,240 S,0,184199,,0.7 M,0,184199,205599,320,240
Sprite,Background,Centre,"tytm2\hifumi03.jpg",320,240 S,0,206199,,0.7 M,0,206199,228599,320,240
//Storyboard Layer 1 (Fail)
//Storyboard Layer 2 (Pass)
//Storyboard Layer 3 (Foreground)
Sprite,Foreground,Centre,"Lyrics\0008.png",320,240 M,0,55199,55899,396.8,420.2667,391.4667,420.2667 F,0,55199,55899,0,1
Sprite,Foreground,Centre,"Lyrics\0008white.png",320,240 M,0,55199,55899,396.8,420.2667,391.4667,420.2667 F,0,55199,55899,0,1
Sprite,Foreground,Centre,"Lyrics\0008.png",320,240 M,0,55799,62999,296.2667,107.4667,352.8,107.4667 F,0,62199,62999,1,0
Sprite,Foreground,Centre,"Lyrics\0008white.png",320,240 M,0,55799,62999,296.2667,107.4667,352.8,107.4667 F,0,62199,62999,1,0
Sprite,Foreground,Centre,"Lyrics\0008white.png",320,240 M,0,55799,62999,292.2667,103.4667,348.8,103.4667 F,0,62199,62999,1,0
Sprite,Foreground,Centre,"Lyrics\0008.png",320,240 F,0,55799,56099,0 M,0,55799,62999,292.2667,103.4667,348.8,103.4667 F,0,56099,56199,0,1 F,0,56199,56299,1,0 F,0,56299,56899,0 F,0,56899,56999,0,1 F,0,56999,57099,1,0 F,0,57099,57699,0 F,0,57699,57799,0,1 F,0,57799,57899,1,0 F,0,57899,58499,0 F,0,58499,58599,0,1 F,0,58599,58699,1,0 F,0,58699,59299,0 F,0,59299,59399,0,1 F,0,59399,59499,1,0 F,0,59499,60099,0 F,0,60099,60199,0,1 F,0,60199,60299,1,0 F,0,60299,60899,0 F,0,60899,60999,0,1 F,0,60999,61099,1,0 F,0,61099,61699,0 F,0,61699,61799,0,1 F,0,61799,61899,1,0 F,0,61899,62199,0 F,0,62199,62499,0 F,0,62499,62599,0,1 F,0,62599,62699,1,0 F,0,62699,62999,0
Sprite,Foreground,Centre,"Lyrics\0008.png",320,240 M,0,55799,62999,292.2667,103.4667,348.8,103.4667 F,0,62199,62999,1,0
Sprite,Foreground,Centre,"white.jpg",320,240 M,0,55599,,320,240 S,0,55599,,1.5 F,0,55599,55799,0,1 F,0,55799,55999,1 F,0,55999,56199,1,0
Sprite,Foreground,Centre,"Lyrics\0021.png",320,240 M,0,144799,145499,341.3333,391.4667,336,391.4667 F,0,144799,145499,0,1
Sprite,Foreground,Centre,"Lyrics\0021white.png",320,240 M,0,144799,145499,341.3333,391.4667,336,391.4667 F,0,144799,145499,0,1
Sprite,Foreground,Centre,"Lyrics\0021.png",320,240 M,0,145399,152599,311.2,106.4,350.6667,106.4 F,0,151799,152599,1,0
Sprite,Foreground,Centre,"Lyrics\0021white.png",320,240 M,0,145399,152599,311.2,106.4,350.6667,106.4 F,0,151799,152599,1,0
Sprite,Foreground,Centre,"Lyrics\0021white.png",320,240 M,0,145399,152599,307.2,102.4,346.6667,102.4 F,0,151799,152599,1,0
Sprite,Foreground,Centre,"Lyrics\0021.png",320,240 M,0,145399,152599,307.2,102.4,346.6667,102.4 F,0,145699,145799,0,1 F,0,145799,145899,1,0 F,0,145899,146499,0 F,0,146499,146599,0,1 F,0,146599,146699,1,0 F,0,146699,147299,0 F,0,147299,147399,0,1 F,0,147399,147499,1,0 F,0,147499,148099,0 F,0,148099,148199,0,1 F,0,148199,148299,1,0 F,0,148299,148899,0 F,0,148899,148999,0,1 F,0,148999,149099,1,0 F,0,149099,149699,0 F,0,149699,149799,0,1 F,0,149799,149899,1,0 F,0,149899,150499,0 F,0,150499,150599,0,1 F,0,150599,150699,1,0 F,0,150699,151299,0 F,0,151299,151399,0,1 F,0,151399,151499,1,0 F,0,151499,151799,0,1 F,0,151799,152099,1,0 F,0,152099,152199,0,1 F,0,152199,152299,1,0 F,0,152299,152599,0
Sprite,Foreground,Centre,"Lyrics\0021.png",320,240 M,0,145399,152599,307.2,102.4,346.6667,102.4 F,0,151799,152599,1,0
Sprite,Foreground,Centre,"white.jpg",320,240 S,0,55599,,1.5 M,0,145199,,320,240 F,0,145199,145399,0,1 F,0,145399,145599,1 F,0,145599,145799,1,0
//Storyboard Layer 4 (Overlay)
//Storyboard Sound Samples

[TimingPoints]
1399,400,4,2,1,75,1,0
14199,-100,4,2,1,55,0,0
25399,-100,4,2,1,75,0,0
39799,-100,4,3,1,75,0,0
42999,-100,4,2,1,75,0,0
46199,-100,4,3,1,75,0,0
49399,-100,4,2,1,75,0,0
55799,-100,4,2,2,75,0,1
55999,-100,4,2,1,75,0,1
78199,-100,4,2,1,75,0,0
89199,-181.818181818181,4,2,1,75,0,0
89599,-100,4,2,1,75,0,0
103799,-100,4,2,1,55,0,0
114999,-100,4,2,1,75,0,0
129399,-100,4,3,1,75,0,0
132599,-100,4,2,1,75,0,0
135799,-100,4,3,1,75,0,0
138999,-100,4,2,1,75,0,0
145399,-100,4,2,2,75,0,1
145599,-100,4,2,1,75,0,1
167799,-100,4,2,1,75,0,0
180599,-83.3333333333333,4,2,1,75,0,0
183799,-133.333333333333,4,2,2,60,0,0
185199,-133.333333333333,4,2,2,10,0,0
185399,-133.333333333333,4,2,2,60,0,0
186799,-133.333333333333,4,2,2,10,0,0
186999,-133.333333333333,4,2,2,60,0,0
188399,-133.333333333333,4,2,2,10,0,0
188599,-133.333333333333,4,2,2,60,0,0
189999,-133.333333333333,4,2,2,10,0,0
190199,-133.333333333333,4,2,2,60,0,0
191599,-133.333333333333,4,2,2,10,0,0
191799,-133.333333333333,4,2,2,60,0,0
193199,-133.333333333333,4,2,2,10,0,0
193399,-133.333333333333,4,2,2,60,0,0
194799,-133.333333333333,4,2,2,10,0,0
194999,-133.333333333333,4,2,2,60,0,0
196399,-133.333333333333,4,2,2,10,0,0
196599,-100,4,3,0,55,0,0
199599,-100,4,2,1,75,0,0
202999,-100,4,2,1,40,0,0
203199,-100,4,2,1,45,0,0
203399,-100,4,2,1,50,0,0
203599,-100,4,2,1,55,0,0
203799,-100,4,2,1,60,0,0
203999,-100,4,2,1,65,0,0
204199,-100,4,2,1,70,0,0
204399,-100,4,2,1,75,0,0
206199,-76.9230769230769,4,2,2,75,0,1
206399,-76.9230769230769,4,2,1,75,0,1
228599,-76.9230769230769,4,2,1,75,0,0
231799,-100,4,2,1,75,0,0
239599,-181.818181818181,4,2,1,75,0,0
239999,-100,4,2,1,75,0,0

[Colours]
Combo1 : 128,255,255
Combo2 : 240,88,15
Combo3 : 118,46,239
Combo4 : 192,192,192

[HitObjects]
295,30,1399,6,0,L|225:39,1,70,4|0,0:0|0:0,0:0:0:0:
184,134,1799,1,8,0:0:0:0:
358,114,1999,2,0,L|288:123,1,70
184,134,2399,1,0,0:0:0:0:
143,231,2599,1,8,0:0:0:0:
247,219,2799,1,0,0:0:0:0:
351,207,2999,5,0,0:0:0:0:
310,303,3199,1,0,0:0:0:0:
310,303,3299,1,0,0:0:0:0:
310,303,3399,1,8,0:0:0:0:
414,291,3599,1,0,0:0:0:0:
288,122,3799,2,0,P|248:112|218:117,1,70
51,218,4199,2,0,P|30:190|24:156,1,70,8|8,0:0|0:0,0:0:0:0:
36,105,4500,1,8,0:0:0:0:
86,91,4599,6,0,P|150:117|219:116,1,140,12|8,0:0|0:0,0:0:0:0:
316,72,5199,1,0,0:0:0:0:
402,131,5399,1,0,0:0:0:0:
499,90,5599,2,0,P|507:124|504:159,1,70,0|8,0:0|0:0,0:0:0:0:
487,333,5999,2,0,L|378:231,1,140,2|0,0:0|0:0,0:0:0:0:
402,131,6599,1,8,0:0:0:0:
226,108,6799,2,0,L|123:203,1,140,2|0,0:0|0:0,0:0:0:0:
141,310,7399,1,8,0:0:0:0:
223,241,7599,1,0,0:0:0:0:
241,346,7799,5,2,0:0:0:0:
241,346,7899,1,0,0:0:0:0:
241,346,7999,2,0,L|303:321,1,35
378,331,8199,1,10,0:0:0:0:
378,331,8299,1,0,0:0:0:0:
378,331,8399,2,0,L|387:264,1,35
433,204,8599,1,2,0:0:0:0:
433,204,8699,1,0,0:0:0:0:
433,204,8799,2,0,L|380:162,1,35
350,92,8999,1,8,0:0:0:0:
155,55,9199,6,0,L|166:195,1,140,4|0,0:0|0:0,0:0:0:0:
241,346,9799,1,10,0:0:0:0:
409,357,9999,1,2,0:0:0:0:
409,357,10399,1,2,0:0:0:0:
335,207,10599,1,8,0:0:0:0:
300,206,10699,1,8,0:0:0:0:
265,205,10799,1,8,0:0:0:0:
230,204,10899,1,8,0:0:0:0:
194,204,10999,6,0,L|98:204,1,70,12|0,0:0|0:0,0:0:0:0:
75,111,11399,2,0,L|155:111,1,70,8|0,0:0|0:0,0:0:0:0:
250,111,11799,1,0,0:0:0:0:
355,112,11999,1,0,0:0:0:0:
302,21,12199,1,8,0:0:0:0:
407,22,12399,1,0,0:0:0:0:
408,203,12599,5,0,0:0:0:0:
303,202,12799,1,0,0:0:0:0:
355,112,12999,1,8,0:0:0:0:
460,113,13199,1,0,0:0:0:0:
461,294,13399,1,2,0:0:0:0:
356,293,13599,1,2,0:0:0:0:
251,292,13799,2,0,L|208:266,1,35,10|0,0:0|0:0,0:0:0:0:
119,302,13999,2,0,L|115:267,1,35,2|0,0:0|0:0,0:0:0:0:
74,170,14199,6,0,P|115:161|155:170,1,70,4|0,0:0|0:0,0:0:0:0:
217,91,14599,2,0,P|258:100|298:91,1,70,2|0,0:0|0:0,0:0:0:0:
362,23,14999,2,0,P|401:17|452:35,2,70,0|0|2,0:0|0:0|0:0,0:0:0:0:
392,125,15599,1,0,0:0:0:0:
422,227,15799,2,0,P|383:233|332:215,1,70
284,141,16199,1,2,0:0:0:0:
244,243,16399,1,0,0:0:0:0:
47,99,16599,2,0,L|175:157,1,140,0|2,0:0|0:3,0:0:0:0:
284,141,17199,1,0,0:0:0:0:
175,157,17399,6,0,P|140:205|134:230,1,70
34,229,17799,2,0,P|58:283|76:301,1,70,2|0,0:0|0:0,0:0:0:0:
166,314,18199,1,0,0:0:0:0:
237,239,18399,1,0,0:0:0:0:
336,262,18599,1,2,0:0:0:0:
506,210,18799,2,0,L|491:357,1,140
336,262,19399,1,2,0:0:0:0:
348,366,19599,1,0,0:0:0:0:
324,158,19799,2,0,L|255:141,1,70
84,100,20199,2,0,L|153:117,1,70,2|0,0:3|0:0,0:0:0:0:
101,211,20599,6,0,P|94:254|98:283,1,70,8|0,0:0|0:0,0:0:0:0:
110,384,20999,2,0,P|150:368|173:350,1,70,2|0,0:0|0:0,0:0:0:0:
198,252,21399,1,0,0:0:0:0:
186,148,21599,2,0,L|272:130,1,70,0|2,0:0|0:0,0:0:0:0:
453,25,21999,6,0,L|315:53,1,140,2|0,0:3|0:0,0:0:0:0:
145,54,22599,2,0,L|231:36,1,70,2|0,0:0|0:0,0:0:0:0:
254,133,22999,2,0,L|185:147,1,70
225,238,23399,2,0,L|311:220,1,70,2|0,0:0|0:0,0:0:0:0:
499,183,23799,5,8,0:3:0:0:
157,253,24199,2,0,L|225:238,1,70,2|0,0:0|0:0,0:0:0:0:
217,343,24599,1,8,0:3:0:0:
499,183,24999,2,0,P|492:139|468:106,1,70,2|0,0:0|0:0,0:0:0:0:
384,70,25399,5,8,0:3:0:0:
297,129,25599,1,10,0:0:0:0:
297,129,25699,1,8,0:0:0:0:
297,129,25799,1,10,0:0:0:0:
202,82,25999,1,0,0:0:0:0:
113,142,26199,1,8,0:3:0:0:
17,95,26399,1,10,0:0:0:0:
17,95,26499,1,8,0:0:0:0:
17,95,26599,1,10,0:0:0:0:
24,202,26799,1,8,0:0:0:0:
24,202,26899,1,8,0:0:0:0:
24,202,26999,6,0,B|31:285,1,70,4|0,0:0|0:0,0:0:0:0:
122,320,27399,2,0,B|129:237,1,70,8|0,0:0|0:0,0:0:0:0:
220,200,27799,2,0,B|227:283,2,70,0|0|8,0:0|0:0|0:0,0:0:0:0:
308,369,28399,1,0,0:0:0:0:
414,362,28599,1,0,0:0:0:0:
458,267,28799,1,0,0:0:0:0:
396,179,28999,1,8,0:0:0:0:
290,186,29199,1,0,0:0:0:0:
458,267,29399,2,0,P|502:190|488:131,1,140,0|8,0:0|0:0,0:0:0:0:
411,80,29999,1,0,0:0:0:0:
331,18,30199,6,0,L|259:35,2,70,0|0|8,0:0|0:0|0:0,0:0:0:0:
317,118,30799,1,0,0:0:0:0:
160,59,30999,2,0,L|16:95,1,140,0|8,0:0|0:0,0:0:0:0:
69,270,31599,1,0,0:0:0:0:
168,242,31799,1,0,0:0:0:0:
96,167,31999,1,0,0:0:0:0:
69,270,32199,1,8,0:0:0:0:
267,214,32399,1,0,0:0:0:0:
123,64,32599,1,2,0:0:0:0:
477,101,32999,2,0,P|430:69|415:66,1,70,8|0,0:0|0:0,0:0:0:0:
267,214,33399,6,0,P|335:202|397:169,1,140,2|8,0:0|0:0,0:0:0:0:
193,138,33999,2,0,P|170:172|162:206,1,70
267,214,34399,2,0,P|285:251|311:275,1,70,0|8,0:0|0:0,0:0:0:0:
474,366,34799,2,0,L|498:208,1,140,2|0,0:0|0:0,0:0:0:0:
511,123,35399,2,0,L|436:135,1,70,8|0,0:0|0:0,0:0:0:0:
344,94,35799,2,0,L|269:106,1,70
177,65,36199,2,0,L|102:77,1,70,8|0,0:0|0:0,0:0:0:0:
29,230,36599,6,0,P|34:163|4:94,1,140,8|8,0:3|0:3,0:0:0:0:
246,56,37199,2,0,L|107:76,1,140,8|8,0:3|0:3,0:0:0:0:
107,75,37999,2,0,P|128:188|112:210,1,140,8|0,0:3|0:0,0:0:0:0:
64,291,38599,2,0,L|139:303,1,70,8|0,0:0|0:0,0:0:0:0:
216,359,38999,2,0,L|291:371,1,70,0|8,0:0|0:0,0:0:0:0:
314,357,39299,1,8,0:0:0:0:
342,338,39399,1,8,0:0:0:0:
364,310,39499,1,8,0:0:0:0:
375,277,39599,1,8,0:0:0:0:
338,94,39799,5,12,0:0:0:0:
262,254,39999,1,0,0:0:0:0:
162,109,40199,2,0,L|92:115,1,70,8|0,0:0|0:0,0:0:0:0:
16,274,40599,1,8,0:0:0:0:
92,114,40799,1,0,0:0:0:0:
192,259,40999,2,0,L|262:253,1,70,8|0,0:0|0:0,0:0:0:0:
338,94,41399,2,0,L|478:82,1,140,8|8,0:0|0:0,0:0:0:0:
368,246,41999,1,0,0:0:0:0:
268,100,42199,2,0,L|338:94,1,70,8|0,0:0|0:0,0:0:0:0:
368,246,42599,2,0,L|298:252,1,70,8|0,0:0|0:0,0:0:0:0:
468,276,42999,6,0,P|460:200|419:156,1,140,2|8,0:0|0:0,0:0:0:0:
315,158,43599,1,0,0:0:0:0:
211,160,43799,2,0,P|166:108|162:40,1,140,2|8,0:0|0:0,0:0:0:0:
263,68,44399,1,0,0:0:0:0:
363,96,44599,2,0,L|507:137,1,140,2|8,0:0|0:0,0:0:0:0:
478,30,45199,1,0,0:0:0:0:
461,194,45399,2,0,L|497:134,1,70,10|0,0:0|0:0,0:0:0:0:
478,297,45799,2,0,L|409:291,1,70,10|0,0:0|0:0,0:0:0:0:
244,114,46199,5,12,0:0:0:0:
129,248,46399,1,0,0:0:0:0:
303,281,46599,2,0,L|277:208,1,70,8|0,0:0|0:0,0:0:0:0:
129,248,46999,1,8,0:0:0:0:
303,281,47199,1,0,0:0:0:0:
244,113,47399,2,0,L|193:172,1,70,8|0,0:0|0:0,0:0:0:0:
303,281,47799,2,0,L|398:170,1,140,8|8,0:0|0:0,0:0:0:0:
244,113,48399,1,0,0:0:0:0:
303,281,48599,2,0,L|253:335,1,70,8|0,0:0|0:0,0:0:0:0:
71,305,48999,2,0,L|121:251,1,70,8|0,0:0|0:0,0:0:0:0:
24,33,49399,6,0,P|103:40|147:87,1,140,6|8,0:0|0:0,0:0:0:0:
148,189,49999,1,0,0:0:0:0:
54,136,50199,1,0,0:0:0:0:
144,80,50399,2,0,L|218:80,2,70,0|8|0,0:0|0:0|0:0,0:0:0:0:
54,136,50999,2,0,P|62:179|58:206,1,70,8|0,0:0|0:0,0:0:0:0:
152,257,51399,2,0,P|144:214|148:187,1,70,8|0,0:0|0:0,0:0:0:0:
228,121,51799,1,8,0:0:0:0:
339,366,52199,1,8,0:0:0:0:
450,121,52599,5,8,0:0:0:0:
398,211,52799,1,8,0:0:0:0:
292,29,52999,1,8,0:0:0:0:
345,120,53199,1,8,0:0:0:0:
502,30,53399,1,8,0:0:0:0:
397,30,53599,1,8,0:0:0:0:
293,210,53799,1,8,0:0:0:0:
503,212,53999,1,8,0:0:0:0:
503,212,54399,5,8,0:0:0:0:
293,210,54599,1,8,0:0:0:0:
397,30,54799,1,8,0:0:0:0:
252,361,55199,1,8,0:0:0:0:
363,338,55399,1,8,0:0:0:0:
363,338,55499,1,8,0:0:0:0:
363,338,55599,1,8,0:0:0:0:
363,338,55699,1,8,0:0:0:0:
363,338,55799,6,0,P|381:310|391:275,1,70,4|0,0:0|0:0,0:0:0:0:
421,174,56199,2,0,P|387:171|352:180,1,70,8|0,0:0|0:0,0:0:0:0:
187,246,56599,1,2,0:0:0:0:
251,165,56799,1,0,0:0:0:0:
289,261,56999,1,8,0:0:0:0:
108,47,57199,2,0,L|37:27,1,70,0|2,0:0|0:0,0:0:0:0:
16,192,57599,6,0,L|87:212,2,70,0|8|0,0:0|0:0|0:0,0:0:0:0:
58,373,58199,1,2,0:0:0:0:
159,346,58399,1,0,0:0:0:0:
187,246,58599,1,8,0:0:0:0:
288,219,58799,1,0,0:0:0:0:
316,119,58999,6,0,L|395:98,1,70,2|0,0:0|0:0,0:0:0:0:
215,146,59399,2,0,L|236:67,1,70,8|0,0:0|0:0,0:0:0:0:
187,246,59799,2,0,L|129:188,1,70,2|0,0:0|0:0,0:0:0:0:
259,321,60199,1,8,0:0:0:0:
459,271,60399,1,0,0:0:0:0:
359,296,60599,5,2,0:0:0:0:
283,222,60799,2,0,L|225:164,1,70,0|8,0:0|0:0,0:0:0:0:
159,346,61199,1,0,0:0:0:0:
259,321,61399,1,2,0:0:0:0:
283,222,61599,2,0,L|304:142,1,70,0|8,0:0|0:0,0:0:0:0:
346,18,61999,1,8,0:0:0:0:
346,18,62099,1,8,0:0:0:0:
346,18,62199,6,0,P|306:15|266:29,1,70,6|0,0:0|0:0,0:0:0:0:
170,11,62599,2,0,P|147:44|139:85,1,70,8|0,0:0|0:0,0:0:0:0:
75,157,62999,2,0,P|92:193|124:220,1,70,2|0,0:0|0:0,0:0:0:0:
153,312,63399,1,8,0:0:0:0:
235,89,63599,2,0,L|218:228,1,140,2|0,0:0|0:0,0:0:0:0:
259,327,64199,1,8,0:0:0:0:
341,104,64399,2,0,L|323:242,1,140,2|0,0:0|0:0,0:0:0:0:
365,342,64999,1,8,0:0:0:0:
471,357,65199,1,0,0:0:0:0:
438,188,65399,6,0,L|447:119,1,70,10|0,0:0|0:0,0:0:0:0:
343,133,65799,2,0,L|351:202,1,70,8|0,0:0|0:0,0:0:0:0:
248,188,66199,2,0,L|256:118,1,70,10|0,0:0|0:0,0:0:0:0:
152,133,66599,2,0,L|160:202,1,70,8|0,0:0|0:0,0:0:0:0:
438,188,66999,5,10,0:0:0:0:
343,133,67199,1,0,0:0:0:0:
248,188,67399,1,8,0:0:0:0:
152,133,67599,1,0,0:0:0:0:
153,244,67799,1,10,0:0:0:0:
247,78,67999,1,0,0:0:0:0:
343,243,68199,1,8,0:0:0:0:
437,77,68399,1,0,0:0:0:0:
147,44,68599,6,0,P|141:78|147:112,1,70,6|0,0:0|0:0,0:0:0:0:
66,179,68999,2,0,P|71:213|65:247,1,70,8|0,0:0|0:0,0:0:0:0:
155,371,69399,2,0,P|149:337|155:303,1,70,2|0,0:0|0:0,0:0:0:0:
255,337,69799,1,8,0:0:0:0:
302,239,69999,2,0,P|355:303|354:377,2,140,8|8|8,0:0|0:0|0:0,0:0:0:0:
406,17,70999,2,0,L|346:144,1,140,10|8,0:0|0:0,0:0:0:0:
302,239,71599,1,0,0:0:0:0:
407,231,71799,5,10,0:0:0:0:
197,247,71999,1,0,0:0:0:0:
258,334,72199,1,8,0:0:0:0:
136,160,72399,1,0,0:0:0:0:
241,152,72599,1,10,0:0:0:0:
31,168,72799,1,0,0:0:0:0:
75,73,72999,1,8,0:0:0:0:
258,334,73199,6,0,L|404:324,1,140,8|8,0:0|0:0,0:0:0:0:
255,233,73799,1,8,0:0:0:0:
118,324,73999,2,0,L|257:333,1,140,8|8,0:0|0:0,0:0:0:0:
394,328,74599,1,8,0:0:0:0:
462,248,74799,1,8,0:0:0:0:
462,248,74899,1,8,0:0:0:0:
462,248,74999,6,0,P|484:171|464:109,1,140,12|8,0:0|0:0,0:0:0:0:
476,10,75599,2,0,L|332:37,1,140,10|0,0:0|0:0,0:0:0:0:
284,125,76199,1,8,0:0:0:0:
61,87,76399,2,0,L|199:62,1,140,10|0,0:0|0:0,0:0:0:0:
391,123,76999,2,0,P|387:157|370:188,1,70,8|0,0:0|0:0,0:0:0:0:
271,230,77399,1,2,0:0:0:0:
197,306,77599,2,0,P|224:327|258:336,1,70,0|8,0:0|0:0,0:0:0:0:
355,294,77999,1,0,0:0:0:0:
145,58,78199,6,0,L|112:120,1,70,12|0,0:0|0:0,0:0:0:0:
334,192,78599,2,0,L|368:131,1,70,8|0,0:0|0:0,0:0:0:0:
112,119,78999,2,0,L|78:180,1,70,8|0,0:0|0:0,0:0:0:0:
301,253,79399,2,0,L|334:191,1,70,8|0,0:0|0:0,0:0:0:0:
77,180,79799,6,0,L|39:251,1,70,8|0,0:0|0:0,0:0:0:0:
268,314,80199,2,0,L|301:252,1,70,8|0,0:0|0:0,0:0:0:0:
303,20,80599,2,0,L|265:91,1,70,8|0,0:0|0:0,0:0:0:0:
93,236,80999,1,8,0:0:0:0:
110,205,81099,1,8,0:0:0:0:
127,175,81199,1,8,0:0:0:0:
144,144,81299,1,8,0:0:0:0:
161,114,81399,6,0,P|170:73|161:37,1,70,12|0,0:0|0:0,0:0:0:0:
368,152,81799,2,0,P|359:193|368:229,1,70,8|0,0:0|0:0,0:0:0:0:
464,189,82199,2,0,P|463:114|422:65,1,140,2|8,0:0|0:0,0:0:0:0:
368,152,82799,1,0,0:0:0:0:
321,61,82999,2,0,L|182:88,1,140,2|8,0:0|0:0,0:0:0:0:
80,82,83599,1,0,0:0:0:0:
127,174,83799,1,0,0:0:0:0:
71,261,83999,2,0,P|111:278|138:279,1,70,0|8,0:0|0:0,0:0:0:0:
224,218,84399,1,0,0:0:0:0:
311,4,84599,6,0,P|344:37|354:62,1,70,4|0,0:0|0:0,0:0:0:0:
127,173,84999,2,0,P|94:140|84:115,1,70,8|0,0:0|0:0,0:0:0:0:
28,207,85399,2,0,P|67:264|57:332,1,140,2|8,0:0|0:0,0:0:0:0:
161,316,85998,1,0,0:0:0:0:
265,333,86199,2,0,P|255:265|293:208,1,140,2|8,0:0|0:0,0:0:0:0:
356,292,86799,1,0,0:0:0:0:
397,196,86999,1,8,0:0:0:0:
461,280,87199,1,0,0:0:0:0:
397,196,87399,1,8,0:0:0:0:
333,112,87599,1,0,0:0:0:0:
82,232,87799,5,12,0:0:0:0:
164,40,87999,1,8,0:0:0:0:
292,208,88199,1,8,0:0:0:0:
82,232,88399,1,8,0:0:0:0:
82,232,88799,1,8,0:0:0:0:
164,40,88999,1,8,0:0:0:0:
82,232,89199,6,0,L|168:258,1,77.0000023498536,8|0,0:0|0:0,0:0:0:0:
389,328,89799,6,0,L|255:288,1,140,4|0,0:0|0:0,0:0:0:0:
155,255,90399,1,0,0:0:0:0:
55,222,90599,1,8,0:0:0:0:
70,190,90699,1,8,0:0:0:0:
94,166,90799,1,8,0:0:0:0:
126,151,90899,1,8,0:0:0:0:
160,147,90999,1,12,0:0:0:0:
256,192,91199,12,4,94199,0:0:0:0:
484,132,103799,6,0,L|452:204,1,70,4|0,0:0|0:0,0:0:0:0:
471,299,104199,2,0,L|407:345,1,70,2|0,0:0|0:0,0:0:0:0:
308,345,104599,2,0,P|273:339|243:321,2,70,0|0|2,0:0|0:0|0:0,0:0:0:0:
309,240,105199,1,0,0:0:0:0:
206,224,105399,1,0,0:0:0:0:
271,142,105599,1,0,0:0:0:0:
168,126,105799,2,0,P|123:160|110:184,1,70,2|0,0:0|0:0,0:0:0:0:
53,322,106199,2,0,L|15:184,1,140,0|2,0:0|0:3,0:0:0:0:
51,92,106799,1,0,0:0:0:0:
139,35,106999,6,0,P|178:51|216:51,1,70
279,127,107399,2,0,P|318:111|356:111,1,70,2|0,0:0|0:0,0:0:0:0:
434,165,107799,1,0,0:0:0:0:
345,109,107999,1,0,0:0:0:0:
437,59,108199,1,2,0:0:0:0:
431,271,108399,2,0,L|306:191,1,140
227,256,108999,2,0,L|291:297,1,70,2|0,0:0|0:0,0:0:0:0:
200,355,109399,2,0,L|136:314,1,70
40,285,109799,2,0,P|34:319|42:354,1,70,2|0,0:3|0:0,0:0:0:0:
7,185,110199,6,0,L|71:144,1,70,8|0,0:0|0:0,0:0:0:0:
157,199,110599,2,0,L|191:130,1,70,2|0,0:0|0:0,0:0:0:0:
128,50,110999,1,0,0:0:0:0:
24,33,111199,2,0,P|24:75|38:106,1,70,0|2,0:0|0:0,0:0:0:0:
40,285,111599,6,0,L|193:259,1,140,8|0,0:3|0:0,0:0:0:0:
271,308,112199,2,0,P|284:267|275:228,1,70,2|0,0:0|0:0,0:0:0:0:
295,137,112599,2,0,P|328:146|354:168,1,70
443,225,112999,2,0,P|456:184|447:145,1,70,2|0,0:0|0:0,0:0:0:0:
359,319,113399,5,8,0:3:0:0:
475,21,113799,2,0,L|391:36,1,70,2|0,0:0|0:0,0:0:0:0:
302,51,114199,1,8,0:3:0:0:
7,18,114599,2,0,L|22:102,1,70,2|0,0:0|0:0,0:0:0:0:
37,192,114999,5,8,0:3:0:0:
55,298,115199,1,10,0:0:0:0:
55,298,115299,1,8,0:0:0:0:
55,298,115399,1,10,0:0:0:0:
132,230,115599,1,0,0:0:0:0:
227,268,115799,1,8,0:3:0:0:
209,162,115999,1,10,0:0:0:0:
209,162,116099,1,8,0:0:0:0:
209,162,116199,1,10,0:0:0:0:
304,200,116399,1,8,0:0:0:0:
304,200,116499,1,8,0:0:0:0:
304,200,116599,6,0,P|338:169|364:161,1,70,4|0,0:0|0:0,0:0:0:0:
459,163,116999,2,0,L|450:243,1,70,8|0,0:0|0:0,0:0:0:0:
411,321,117399,2,0,L|491:347,2,70,0|0|8,0:0|0:0|0:0,0:0:0:0:
235,266,117999,1,0,0:0:0:0:
158,334,118199,1,0,0:0:0:0:
140,228,118399,1,0,0:0:0:0:
122,122,118599,1,8,0:0:0:0:
45,190,118799,1,0,0:0:0:0:
235,266,118999,2,0,L|211:117,1,140,0|8,0:0|0:0,0:0:0:0:
289,59,119599,1,0,0:0:0:0:
384,97,119799,5,0,0:0:0:0:
461,29,119999,1,0,0:0:0:0:
384,97,120199,1,8,0:0:0:0:
402,203,120399,1,0,0:0:0:0:
325,271,120599,1,0,0:0:0:0:
402,203,120799,1,0,0:0:0:0:
497,241,120999,1,8,0:0:0:0:
325,271,121199,6,0,B|299:307|299:307|191:323,1,140
104,337,121799,1,8,0:0:0:0:
146,237,121999,1,0,0:0:0:0:
9,75,122199,1,2,0:0:0:0:
324,33,122599,1,8,0:0:0:0:
282,133,122799,1,0,0:0:0:0:
419,295,122999,6,0,L|272:317,1,140,2|8,0:0|0:0,0:0:0:0:
83,344,123599,2,0,L|115:265,1,70
8,246,123999,2,0,L|40:167,1,70,0|8,0:0|0:0,0:0:0:0:
18,16,124399,2,0,L|165:38,1,140,2|0,0:0|0:0,0:0:0:0:
258,10,124999,2,0,L|284:74,1,70,8|0,0:0|0:0,0:0:0:0:
379,119,125399,2,0,L|352:183,1,70
446,227,125799,2,0,L|472:291,1,70,8|0,0:0|0:0,0:0:0:0:
264,363,126199,6,0,P|295:302|360:285,1,140,8|8,0:3|0:3,0:0:0:0:
379,119,126799,2,0,P|347:179|282:196,1,140,8|8,0:3|0:3,0:0:0:0:
282,196,127599,2,0,P|221:164|204:99,1,140,8|0,0:3|0:0,0:0:0:0:
127,26,128199,2,0,L|100:90,1,70,8|0,0:0|0:0,0:0:0:0:
3,131,128599,2,0,L|29:195,1,70,0|8,0:0|0:0,0:0:0:0:
42,227,128899,1,8,0:0:0:0:
55,259,128999,1,8,0:0:0:0:
68,292,129099,1,8,0:0:0:0:
81,324,129199,1,8,0:0:0:0:
360,213,129399,5,12,0:0:0:0:
188,188,129599,1,0,0:0:0:0:
295,52,129799,2,0,P|329:41|366:40,1,70,8|0,0:0|0:0,0:0:0:0:
360,213,130199,1,8,0:0:0:0:
188,188,130399,1,0,0:0:0:0:
253,350,130599,2,0,P|282:369|318:379,1,70,8|0,0:0|0:0,0:0:0:0:
482,335,130999,2,0,L|464:187,1,140,8|8,0:0|0:0,0:0:0:0:
445,21,131599,1,0,0:0:0:0:
304,126,131799,2,0,B|276:153|232:157,1,70,8|0,0:0|0:0,0:0:0:0:
69,130,132199,2,0,B|97:103|131:100,1,70,8|0,0:0|0:0,0:0:0:0:
242,260,132599,6,0,B|204:306|117:319,1,140,2|8,0:0|0:0,0:0:0:0:
13,311,133199,1,0,0:0:0:0:
73,223,133399,2,0,B|110:176|197:163,1,140,2|8,0:0|0:0,0:0:0:0:
302,171,133999,1,0,0:0:0:0:
372,251,134199,2,0,P|307:275|240:256,1,140,2|8,0:0|0:0,0:0:0:0:
196,163,134799,1,0,0:0:0:0:
361,83,134999,2,0,L|429:54,1,70,10|0,0:0|0:0,0:0:0:0:
272,26,135399,2,0,L|207:53,1,70,10|0,0:0|0:0,0:0:0:0:
425,55,135799,5,12,0:0:0:0:
490,217,135999,1,0,0:0:0:0:
382,354,136199,2,0,L|300:342,1,70,8|0,0:0|0:0,0:0:0:0:
139,318,136599,1,8,0:0:0:0:
247,181,136799,1,0,0:0:0:0:
182,19,136999,2,0,L|100:7,1,70,8|0,0:0|0:0,0:0:0:0:
58,216,137399,2,0,P|116:253|139:317,1,140,8|8,0:0|0:0,0:0:0:0:
247,181,137999,1,0,0:0:0:0:
312,343,138199,2,0,P|343:299|371:291,1,70,8|0,0:0|0:0,0:0:0:0:
505,224,138599,2,0,P|475:205|460:174,1,70,8|0,0:0|0:0,0:0:0:0:
477,11,138999,6,0,L|311:31,1,140,6|8,0:0|0:0,0:0:0:0:
297,125,139599,1,0,0:0:0:0:
233,40,139799,1,0,0:0:0:0:
192,138,139999,2,0,L|162:210,2,70,0|8|0,0:0|0:0|0:0,0:0:0:0:
128,53,140599,2,0,L|51:63,1,70,8|0,0:0|0:0,0:0:0:0:
17,160,140999,2,0,L|86:150,1,70,8|0,0:0|0:0,0:0:0:0:
192,138,141399,1,8,0:0:0:0:
464,190,141799,1,8,0:0:0:0:
192,242,142199,5,8,0:0:0:0:
88,262,142399,1,8,0:0:0:0:
262,323,142599,1,8,0:0:0:0:
366,303,142799,1,8,0:0:0:0:
122,161,142999,1,8,0:0:0:0:
18,181,143199,1,8,0:0:0:0:
158,343,143399,1,8,0:0:0:0:
226,141,143599,1,8,0:0:0:0:
226,141,143999,5,8,0:0:0:0:
158,343,144199,1,8,0:0:0:0:
18,181,144399,1,8,0:0:0:0:
366,303,144799,1,8,0:0:0:0:
419,220,144999,1,8,0:0:0:0:
419,220,145099,1,8,0:0:0:0:
419,220,145199,1,8,0:0:0:0:
419,220,145299,1,8,0:0:0:0:
419,220,145399,6,0,L|503:220,1,70,4|0,0:0|0:0,0:0:0:0:
489,115,145799,2,0,L|405:115,1,70,8|0,0:0|0:0,0:0:0:0:
209,115,146199,1,2,0:0:0:0:
261,205,146399,1,0,0:0:0:0:
314,115,146599,1,8,0:0:0:0:
86,205,146799,2,0,L|156:205,1,70,0|2,0:0|0:0,0:0:0:0:
157,25,147199,6,0,L|87:25,2,70,0|8|0,0:0|0:0|0:0,0:0:0:0:
86,205,147799,1,2,0:0:0:0:
138,295,147999,1,0,0:0:0:0:
191,205,148199,1,8,0:0:0:0:
243,295,148399,1,0,0:0:0:0:
296,205,148599,6,0,P|336:172|356:166,1,70,2|0,0:0|0:0,0:0:0:0:
440,298,148999,2,0,P|406:288|378:268,1,70,8|0,0:0|0:0,0:0:0:0:
449,127,149399,2,0,P|457:160|453:195,1,70,2|0,0:0|0:0,0:0:0:0:
246,35,149799,1,8,0:0:0:0:
296,205,149999,1,0,0:0:0:0:
321,105,150199,5,2,0:0:0:0:
221,135,150399,2,0,L|149:158,1,70,0|8,0:0|0:0,0:0:0:0:
171,335,150799,1,0,0:0:0:0:
196,235,150999,1,2,0:0:0:0:
96,265,151199,2,0,L|24:288,1,70,0|8,0:0|0:0,0:0:0:0:
258,340,151599,1,8,0:0:0:0:
258,340,151699,1,8,0:0:0:0:
258,340,151799,6,0,L|325:321,1,70,6|0,0:0|0:0,0:0:0:0:
394,242,152199,2,0,L|326:223,1,70,8|0,0:0|0:0,0:0:0:0:
258,144,152599,2,0,L|325:125,1,70,2|0,0:0|0:0,0:0:0:0:
394,46,152999,1,8,0:0:0:0:
235,65,153199,2,0,P|137:35|120:8,1,140,2|0,0:0|0:0,0:0:0:0:
28,61,153799,1,8,0:0:0:0:
28,240,153999,2,0,P|126:270|143:297,1,140,2|0,0:0|0:0,0:0:0:0:
235,244,154599,1,8,0:0:0:0:
235,350,154799,1,0,0:0:0:0:
327,297,154999,6,0,P|355:259|386:243,1,70,10|0,0:0|0:0,0:0:0:0:
420,342,155399,2,0,L|491:374,1,70,8|0,0:0|0:0,0:0:0:0:
479,255,155799,2,0,P|473:208|454:178,1,70,10|0,0:0|0:0,0:0:0:0:
450,83,156199,2,0,L|379:115,1,70,8|0,0:0|0:0,0:0:0:0:
197,197,156599,5,10,0:0:0:0:
115,133,156799,1,0,0:0:0:0:
101,238,156999,1,8,0:0:0:0:
211,92,157199,1,0,0:0:0:0:
19,174,157399,1,10,0:0:0:0:
279,261,157599,1,0,0:0:0:0:
87,343,157799,1,8,0:0:0:0:
115,133,157999,1,0,0:0:0:0:
364,322,158199,6,0,P|311:360|296:365,1,70,6|0,0:0|0:0,0:0:0:0:
279,261,158599,2,0,L|279:187,1,70,8|0,0:0|0:0,0:0:0:0:
290,28,158999,2,0,P|267:54|253:86,1,70,2|0,0:0|0:0,0:0:0:0:
356,112,159399,1,8,0:0:0:0:
433,41,159599,2,0,P|456:86|435:181,2,140,8|8|8,0:0|0:0|0:0,0:0:0:0:
480,269,160599,2,0,L|340:321,1,140,10|8,0:0|0:0,0:0:0:0:
256,352,161199,1,0,0:0:0:0:
164,317,161399,5,10,0:0:0:0:
348,317,161599,1,0,0:0:0:0:
193,215,161799,1,8,0:0:0:0:
319,215,161999,1,0,0:0:0:0:
161,114,162199,1,10,0:0:0:0:
351,114,162399,1,0,0:0:0:0:
129,13,162599,1,8,0:0:0:0:
383,13,162799,6,0,L|234:13,1,140,8|8,0:0|0:0,0:0:0:0:
256,160,163399,1,8,0:0:0:0:
269,307,163599,2,0,L|129:307,1,140,8|8,0:0|0:0,0:0:0:0:
16,192,164199,1,8,0:0:0:0:
116,160,164399,1,8,0:0:0:0:
116,160,164499,1,8,0:0:0:0:
116,160,164599,6,0,L|263:160,1,140,12|8,0:0|0:0,0:0:0:0:
293,61,165199,2,0,L|153:62,1,140,10|0,0:0|0:0,0:0:0:0:
57,20,165799,1,8,0:0:0:0:
70,252,165999,2,0,P|46:188|69:123,1,140,10|0,0:0|0:0,0:0:0:0:
151,187,166599,2,0,P|199:179|231:155,1,70,8|0,0:0|0:0,0:0:0:0:
243,66,166999,2,0,P|277:53|311:54,1,70,2|0,0:0|0:0,0:0:0:0:
378,133,167399,1,8,0:0:0:0:
413,34,167599,1,8,0:0:0:0:
413,34,167699,1,8,0:0:0:0:
413,34,167800,6,0,P|481:127|376:238,1,280,12|0,0:0|0:0,0:0:0:0:
292,194,168799,1,0,0:0:0:0:
302,298,168999,1,0,0:0:0:0:
388,237,169199,1,0,0:0:0:0:
197,151,169399,2,0,L|56:87,1,140,2|0,0:0|0:0,0:0:0:0:
21,256,169999,2,0,L|162:320,1,140,2|8,0:0|0:0,0:0:0:0:
148,313,170499,1,8,0:0:0:0:
148,313,170599,1,8,0:0:0:0:
242,357,170799,1,0,0:0:0:0:
399,284,170999,6,0,L|336:313,1,70,8|0,0:0|0:0,0:0:0:0:
496,242,171399,1,0,0:0:0:0:
304,154,171599,2,0,L|176:96,2,140,2|0|0,0:0|0:0|0:0,0:0:0:0:
476,31,172599,1,8,0:0:0:0:
304,154,172799,1,0,0:0:0:0:
399,197,172999,1,0,0:0:0:0:
146,81,173199,2,0,L|18:139,2,140,2|0|0,0:0|0:0|0:0,0:0:0:0:
399,197,174199,6,0,L|385:57,1,140,10|0,0:0|0:0,0:0:0:0:
209,111,174799,1,8,0:0:0:0:
209,111,174899,1,8,0:0:0:0:
209,111,174999,2,0,L|222:250,1,140,10|0,0:0|0:0,0:0:0:0:
45,303,175599,1,8,0:0:0:0:
45,303,175699,1,8,0:0:0:0:
45,303,175799,2,0,L|31:163,1,140,10|0,0:0|0:0,0:0:0:0:
232,354,176399,1,8,0:0:0:0:
232,354,176499,1,8,0:0:0:0:
232,354,176599,2,0,L|222:250,2,105,10|8|8,0:0|0:0|0:0,0:0:0:0:
475,341,177399,6,0,L|335:327,1,140,6|0,0:0|0:0,0:0:0:0:
232,354,177999,1,0,0:0:0:0:
260,250,178199,6,0,L|211:244,3,35,8|0|0|0,0:0|0:0|0:0|0:0,0:0:0:0:
190,240,178599,1,8,0:0:0:0:
155,235,178699,1,0,0:0:0:0:
120,231,178799,1,0,0:0:0:0:
85,226,178899,1,0,0:0:0:0:
106,198,178999,6,0,L|135:158,3,35,8|0|0|0,0:0|0:0|0:0|0:0,0:0:0:0:
149,142,179399,1,8,0:0:0:0:
170,114,179499,1,0,0:0:0:0:
192,86,179599,1,0,0:0:0:0:
213,58,179699,1,0,0:0:0:0:
227,90,179799,6,0,L|246:135,3,35,8|0|0|0,0:0|0:0|0:0|0:0,0:0:0:0:
253,155,180199,1,8,0:0:0:0:
267,187,180299,1,0,0:0:0:0:
280,220,180399,1,0,0:0:0:0:
294,252,180499,1,0,0:0:0:0:
315,224,180599,6,0,P|353:217|372:223,3,41.9999987182618,8|0|8|0,0:0|0:0|0:0|0:0,0:0:0:0:
394,233,180999,2,0,P|432:226|447:214,3,41.9999987182618,8|0|8|0,0:0|0:0|0:0|0:0,0:0:0:0:
476,223,181399,5,8,0:0:0:0:
459,184,181499,1,8,0:0:0:0:
443,145,181599,1,8,0:0:0:0:
426,106,181699,1,8,0:0:0:0:
410,68,181799,1,8,0:0:0:0:
375,46,181899,1,8,0:0:0:0:
334,38,181999,1,8,0:0:0:0:
292,45,182099,1,8,0:0:0:0:
257,67,182199,6,0,P|221:107|140:108,2,125.999996154785,8|8|8,0:0|0:0|0:0,0:0:0:0:
221,279,182999,2,0,P|169:262|99:301,2,125.999996154785,8|8|8,0:0|0:0|0:0,0:0:0:0:
411,67,183799,6,0,P|384:244|218:278,1,367.500014019013,4|0,0:0|0:0,0:0:0:0:
155,329,185399,2,0,B|125:279|141:228|185:207|185:207|121:226|66:194|43:112|94:65,1,367.500014019013,8|0,0:0|0:0,0:0:0:0:
165,41,186999,2,0,B|243:54|244:128|239:145|239:145|297:110|297:110|295:160|332:217|399:202,1,367.500014019013,8|0,0:0|0:0,0:0:0:0:
463,251,188599,2,0,B|433:283|441:325|441:325|362:344|321:330|267:310|236:282|236:282|170:320,1,367.500014019013,8|0,0:0|0:0,0:0:0:0:
125,255,190199,6,0,B|46:280|1:212|-2:177|35:122|58:117|90:110|90:110|137:147|198:124,1,367.500014019013,8|0,0:0|0:0,0:0:0:0:
240,56,191799,2,0,B|295:9|353:36|353:36|352:146|451:138|459:252,1,367.500014019013,8|0,0:0|0:0,0:0:0:0:
464,332,193399,2,0,B|412:329|389:290|389:290|361:342|361:342|282:279|140:321,1,367.500014019013,8|0,0:0|0:0,0:0:0:0:
68,334,194999,2,0,B|21:328|-3:259|49:223|49:223|13:191|13:191|73:145|61:76|61:76|114:76,1,367.500014019013,8|0,0:0|0:0,0:0:0:0:
168,131,196599,5,8,0:0:0:0:
374,91,196999,1,2,0:0:0:0:
374,91,197599,1,8,0:0:0:0:
274,56,197799,1,2,0:0:0:0:
452,288,198199,1,8,0:0:0:0:
246,248,198599,1,2,0:0:0:0:
246,248,199199,1,8,0:0:0:0:
346,213,199399,1,6,0:0:0:0:
146,283,199599,1,8,0:0:0:0:
146,283,199699,1,8,0:0:0:0:
146,283,199799,6,0,P|140:233|148:205,1,70,8|0,0:0|0:0,0:0:0:0:
326,317,200199,1,8,0:0:0:0:
266,145,200399,2,0,P|306:114|334:107,1,70,8|0,0:0|0:0,0:0:0:0:
326,317,200799,1,0,0:0:0:0:
445,180,200999,2,0,P|491:199|511:220,2,70,8|0|0,0:0|0:0|0:0,0:0:0:0:
326,317,201599,1,8,0:0:0:0:
146,283,201799,1,8,0:0:0:0:
266,145,201999,2,0,P|199:107|125:92,1,140,8|0,0:0|0:0,0:0:0:0:
1,159,202599,2,0,L|19:120,3,35,8|8|8|8,0:0|0:0|0:0|0:0,0:0:0:0:
31,99,202999,5,8,0:0:0:0:
138,92,203199,1,8,0:0:0:0:
228,32,203399,1,8,0:0:0:0:
235,140,203599,1,8,0:0:0:0:
296,230,203799,1,8,0:0:0:0:
393,277,203999,1,8,0:0:0:0:
433,71,204199,1,8,0:0:0:0:
235,140,204399,1,8,0:0:0:0:
235,140,204799,5,8,0:0:0:0:
76,2,204999,1,8,0:0:0:0:
37,209,205199,1,8,0:0:0:0:
433,71,205599,1,8,0:0:0:0:
433,281,205799,1,8,0:0:0:0:
433,281,205899,1,8,0:0:0:0:
433,281,205999,1,8,0:0:0:0:
433,281,206099,1,8,0:0:0:0:
433,281,206199,6,0,P|410:335|368:360,1,90.9999958343508,4|0,0:0|0:0,0:0:0:0:
250,375,206599,2,0,L|224:277,1,90.9999958343508,8|0,0:0|0:0,0:0:0:0:
95,251,206999,1,2,0:0:0:0:
192,154,207199,1,0,0:0:0:0:
324,190,207399,1,8,0:0:0:0:
95,251,207599,2,0,L|71:163,1,90.9999958343508,0|2,0:0|0:0,0:0:0:0:
324,190,207999,6,0,L|298:92,2,90.9999958343508,0|8|0,0:0|0:0|0:0,0:0:0:0:
71,162,208599,1,2,0:0:0:0:
37,30,208799,1,0,0:0:0:0:
71,162,208999,1,8,0:0:0:0:
168,66,209199,1,0,0:0:0:0:
105,294,209399,6,0,L|79:391,1,90.9999958343508,2|0,0:0|0:0,0:0:0:0:
337,233,209799,2,0,L|311:330,1,90.9999958343508,8|0,0:0|0:0,0:0:0:0:
168,66,210199,2,0,L|142:163,1,90.9999958343508,2|0,0:0|0:0,0:0:0:0:
337,233,210599,1,8,0:0:0:0:
398,9,210799,1,0,0:0:0:0:
494,105,210999,5,2,0:0:0:0:
241,137,211199,2,0,L|135:151,1,90.9999958343508,0|8,0:0|0:0,0:0:0:0:
182,362,211599,1,0,0:0:0:0:
86,265,211799,1,2,0:0:0:0:
337,233,211999,2,0,L|442:219,1,90.9999958343508,0|8,0:0|0:0,0:0:0:0:
272,350,212399,1,8,0:0:0:0:
272,350,212499,1,8,0:0:0:0:
272,350,212599,6,6,L|166:364,1,90.9999958343508,6|0,0:0|0:0,0:0:0:0:
34,374,212999,2,0,L|43:276,1,90.9999958343508,8|0,0:0|0:0,0:0:0:0:
29,146,213399,2,0,P|80:114|129:105,1,90.9999958343508,2|0,0:0|0:0,0:0:0:0:
239,131,213799,1,8,0:0:0:0:
354,337,213999,2,0,P|450:337|490:254,1,181.999991668702,2|0,0:0|0:0,0:0:0:0:
475,135,214599,1,8,0:0:0:0:
286,53,214799,2,0,P|190:53|150:136,1,181.999991668702,2|0,0:0|0:0,0:0:0:0:
165,255,215399,1,8,0:0:0:0:
40,200,215599,1,0,0:0:0:0:
290,310,215799,6,0,L|370:349,1,90.9999958343508,10|0,0:0|0:0,0:0:0:0:
388,213,216199,2,0,L|433:121,1,90.9999958343508,8|0,0:0|0:0,0:0:0:0:
291,114,216599,2,0,L|199:68,1,90.9999958343508,10|0,0:0|0:0,0:0:0:0:
193,211,216999,2,0,L|147:302,1,90.9999958343508,8|0,0:0|0:0,0:0:0:0:
388,213,217399,5,10,0:0:0:0:
290,310,217599,1,0,0:0:0:0:
193,211,217799,1,8,0:0:0:0:
291,114,217999,1,0,0:0:0:0:
193,310,218199,1,10,0:0:0:0:
388,310,218399,1,0,0:0:0:0:
193,114,218599,1,8,0:0:0:0:
388,114,218799,1,0,0:0:0:0:
58,75,218999,6,0,P|51:119|59:164,1,90.9999958343508,6|0,0:0|0:0,0:0:0:0:
169,255,219399,2,0,P|134:284|91:300,1,90.9999958343508,8|0,0:0|0:0,0:0:0:0:
193,114,219799,2,0,P|235:129|270:158,1,90.9999958343508,2|0,0:0|0:0,0:0:0:0:
299,293,220199,1,8,0:0:0:0:
402,201,220399,2,0,B|487:122|487:122|487:39,2,181.999991668702,8|8|8,0:0|0:0|0:0,0:0:0:0:
195,317,221399,2,0,B|195:251|195:251|280:172,1,181.999991668702,10|8,0:0|0:0,0:0:0:0:
279,35,221999,1,0,0:0:0:0:
161,104,222199,5,10,0:0:0:0:
43,36,222399,1,0,0:0:0:0:
43,173,222599,1,8,0:0:0:0:
161,104,222799,1,0,0:0:0:0:
43,173,222999,1,10,0:0:0:0:
161,241,223199,1,0,0:0:0:0:
161,104,223399,1,8,0:0:0:0:
43,310,223599,5,0,0:0:0:0:
279,172,223799,1,2,0:0:0:0:
161,378,223999,1,8,0:0:0:0:
279,309,224199,1,8,0:0:0:0:
161,241,224399,1,8,0:0:0:0:
397,240,224599,1,8,0:0:0:0:
279,172,224799,1,0,0:0:0:0:
397,103,224999,1,8,0:0:0:0:
161,103,225199,1,8,0:0:0:0:
161,103,225299,1,8,0:0:0:0:
161,103,225399,6,0,P|131:188|162:272,1,181.999991668702,12|8,0:0|0:0,0:0:0:0:
398,271,225999,2,0,P|427:186|397:103,1,181.999991668702,10|0,0:0|0:0,0:0:0:0:
161,103,226599,1,8,0:0:0:0:
398,271,226799,2,0,P|313:300|266:375,1,181.999991668702,10|0,0:0|0:0,0:0:0:0:
140,326,227399,2,0,P|122:260|132:219,1,90.9999958343508,8|0,0:0|0:0,0:0:0:0:
162,104,227799,1,2,0:0:0:0:
34,50,227999,2,0,P|21:93|26:138,1,90.9999958343508,0|8,0:0|0:0,0:0:0:0:
125,238,228398,1,0,0:0:0:0:
373,135,228599,6,0,P|386:92|387:47,1,90.9999958343508,12|0,0:0|0:0,0:0:0:0:
133,138,228999,2,0,P|89:146|50:168,1,90.9999958343508,8|0,0:0|0:0,0:0:0:0:
379,276,229399,2,0,P|423:267|462:244,1,90.9999958343508,8|0,0:0|0:0,0:0:0:0:
252,67,229799,2,0,P|222:34|184:10,1,90.9999958343508,8|0,0:0|0:0,0:0:0:0:
0,296,230199,5,8,0:0:0:0:
135,276,230399,1,0,0:0:0:0:
219,384,230599,1,8,0:0:0:0:
270,256,230799,1,0,0:0:0:0:
405,236,230999,1,8,0:0:0:0:
321,128,231199,1,0,0:0:0:0:
372,0,231399,1,8,0:0:0:0:
327,7,231499,1,8,0:0:0:0:
282,15,231599,1,8,0:0:0:0:
237,22,231699,1,8,0:0:0:0:
192,29,231799,6,0,L|122:40,1,70,12|0,0:0|0:0,0:0:0:0:
180,240,232199,2,0,L|250:229,1,70,8|0,0:0|0:0,0:0:0:0:
221,129,232599,2,0,L|82:152,1,140,2|8,0:0|0:0,0:0:0:0:
60,254,233199,1,0,0:0:0:0:
38,356,233399,2,0,L|176:332,1,140,2|8,0:0|0:0,0:0:0:0:
210,233,233999,1,0,0:0:0:0:
279,314,234199,1,0,0:0:0:0:
313,214,234399,2,0,L|389:201,1,70,0|8,0:0|0:0,0:0:0:0:
484,183,234799,1,0,0:0:0:0:
232,63,234999,6,0,L|243:132,1,70,4|0,0:0|0:0,0:0:0:0:
443,74,235399,2,0,L|431:4,1,70,8|0,0:0|0:0,0:0:0:0:
332,34,235799,2,0,L|355:172,1,140,2|8,0:0|0:0,0:0:0:0:
373,276,236399,1,0,0:0:0:0:
470,230,236599,2,0,P|423:180|355:172,1,140,2|8,0:0|0:0,0:0:0:0:
274,240,237199,1,0,0:0:0:0:
255,136,237399,1,8,0:0:0:0:
175,204,237599,1,0,0:0:0:0:
156,100,237799,1,8,0:0:0:0:
76,168,237999,1,0,0:0:0:0:
373,276,238199,5,12,0:0:0:0:
336,68,238399,1,8,0:0:0:0:
174,204,238599,1,8,0:0:0:0:
373,276,238799,1,8,0:0:0:0:
373,276,239199,1,8,0:0:0:0:
336,68,239399,1,8,0:0:0:0:
373,276,239599,6,0,L|387:354,1,77.0000023498536,8|0,0:0|0:0,0:0:0:0:
174,204,240199,6,0,L|146:51,1,140,4|0,0:0|0:0,0:0:0:0:
51,30,240799,1,0,0:0:0:0:
68,133,240999,1,8,0:0:0:0:
74,167,241099,1,8,0:0:0:0:
80,201,241199,1,8,0:0:0:0:
86,236,241299,1,8,0:0:0:0:
93,270,241399,1,12,0:0:0:0:
256,192,241599,12,0,244199,0:0:0:0:
217,30,244599,6,0,L|287:39,1,70,4|0,0:0|0:0,0:0:0:0:
328,135,244999,1,8,0:0:0:0:
154,114,245199,2,0,L|224:123,1,70
328,135,245599,1,0,0:0:0:0:
369,231,245799,1,8,0:0:0:0:
265,219,245999,1,0,0:0:0:0:
161,207,246199,5,0,0:0:0:0:
202,303,246399,1,0,0:0:0:0:
202,303,246499,1,0,0:0:0:0:
202,303,246599,1,8,0:0:0:0:
98,291,246799,1,0,0:0:0:0:
224,122,246999,2,0,P|264:112|294:117,1,70
460,218,247399,2,0,P|481:190|488:156,1,70,8|8,0:0|0:0,0:0:0:0:
476,105,247699,1,8,0:0:0:0:
426,91,247799,6,0,P|361:117|292:116,1,140,12|8,0:0|0:0,0:0:0:0:
196,72,248399,1,0,0:0:0:0:
110,131,248599,1,0,0:0:0:0:
13,90,248799,2,0,P|5:124|8:159,1,70,0|8,0:0|0:0,0:0:0:0:
25,333,249199,2,0,L|134:231,1,140,2|0,0:0|0:0,0:0:0:0:
110,131,249799,1,8,0:0:0:0:
286,108,249999,2,0,L|389:203,1,140,2|0,0:0|0:0,0:0:0:0:
371,310,250599,1,8,0:0:0:0:
289,241,250799,1,0,0:0:0:0:
271,346,250999,5,2,0:0:0:0:
271,346,251099,1,0,0:0:0:0:
271,346,251199,2,0,L|209:321,1,35
134,331,251399,1,10,0:0:0:0:
134,331,251499,1,0,0:0:0:0:
134,331,251599,2,0,L|125:264,1,35
79,204,251799,1,2,0:0:0:0:
79,204,251899,1,0,0:0:0:0:
79,204,251999,2,0,L|132:162,1,35
162,92,252199,1,8,0:0:0:0:
357,55,252399,6,0,L|346:195,1,140,4|0,0:0|0:0,0:0:0:0:
271,346,252999,1,10,0:0:0:0:
103,357,253199,1,2,0:0:0:0:
103,357,253599,1,2,0:0:0:0:
177,207,253799,1,8,0:0:0:0:
191,173,253899,1,8,0:0:0:0:
206,142,253999,1,8,0:0:0:0:
222,112,254099,1,8,0:0:0:0:
238,78,254199,6,0,L|283:-6,1,70,12|0,0:0|0:0,0:0:0:0:
342,93,254599,2,0,L|437:89,1,70,8|0,0:0|0:0,0:0:0:0:
381,190,254999,2,0,L|431:271,1,70
316,272,255399,2,0,L|270:356,1,70,8|0,0:0|0:0,0:0:0:0:
212,257,255799,5,0,0:0:0:0:
173,160,255999,1,8,0:0:0:0:
173,160,256099,1,8,0:0:0:0:
173,160,256199,1,8,0:0:0:0:
109,243,256399,1,0,0:0:0:0:
6,229,256599,2,0,L|29:147,1,70,8|0,0:0|0:0,0:0:0:0:
14,55,256999,2,0,L|74:-4,1,70,8|0,0:0|0:0,0:0:0:0:
205,221,257599,5,8,0:0:0:0:
307,163,257799,1,8,0:0:0:0:
174,167,258199,5,8,0:0:0:0:
338,217,258399,1,8,0:0:0:0:
143,221,258799,5,8,0:0:0:0:
369,163,258999,1,8,0:0:0:0:
111,167,259399,5,8,0:0:0:0:
401,217,259599,1,8,0:0:0:0:
81,222,259999,5,8,0:0:0:0:
431,162,260199,1,8,0:0:0:0:
179,244,260399,6,0,B|172:273|221:301|257:249|302:236|167:211|292:222|264:190|224:148|169:146|183:81|75:150|0:274|118:198|41:298|153:312|92:408|189:285|154:443|242:283|314:439|289:319|401:204|210:199|510:324|76:56|426:242|344:24,1,840,8|0,0:0|0:0,0:0:0:0:
249,71,262999,5,8,0:0:0:0:
216,81,263099,1,8,0:0:0:0:
182,73,263199,1,8,0:0:0:0:
153,55,263299,1,8,0:0:0:0:
122,38,263399,1,8,0:0:0:0:
89,31,263499,1,8,0:0:0:0:
55,39,263599,1,12,0:0:0:0:
