osu file format v14

[General]
AudioFilename: audio.mp3
AudioLeadIn: 0
PreviewTime: 55199
Countdown: 0
SampleSet: Soft
StackLeniency: 0.7
Mode: 0
LetterboxInBreaks: 0
EpilepsyWarning: 1
WidescreenStoryboard: 1

[Editor]
Bookmarks: 53799,78099,109399,129199,199799,206199
DistanceSpacing: 1.1
BeatDivisor: 4
GridSize: 8
TimelineZoom: 2.3

[Metadata]
Title:Amazing sky
TitleUnicode:Amazing sky
Artist:Kicco
ArtistUnicode:Kicco
Creator:Rekkursion
Version:Normal
Source:タユタマ2 -you're the only one-
Tags:ランプオブシュガー Lump of Sugar Tayutama Full Version video game japanese Eroge Visual Novel Galgame Opening op cb128128cb
BeatmapID:1686583
BeatmapSetID:782115

[Difficulty]
HPDrainRate:3
CircleSize:3
OverallDifficulty:4
ApproachRate:5
SliderMultiplier:1.1
SliderTickRate:1

[Events]
//Background and Video events
0,0,"tayutama2_nano.jpg",0,0
//Break Periods
2,94399,102599
2,183999,195279
//Storyboard Layer 0 (Background)
Sprite,Background,Centre,"tytm2\nano01.jpg",320,240 S,0,55999,,0.7 M,0,55999,78199,320,240
Sprite,Background,Centre,"tytm2\nano01.jpg",320,240 S,0,145599,,0.7 M,0,145599,167799,320,240
Sprite,Background,Centre,"tytm2\nano02.jpg",320,240 S,0,184199,,0.7 M,0,184199,205599,320,240
Sprite,Background,Centre,"tytm2\nano03.jpg",320,240 S,0,206199,,0.7 M,0,206199,228599,320,240
//Storyboard Layer 1 (Fail)
//Storyboard Layer 2 (Pass)
//Storyboard Layer 3 (Foreground)
Sprite,Foreground,Centre,"Lyrics\0008.png",320,240 M,0,55199,55899,396.8,420.2667,391.4667,420.2667 F,0,55199,55899,0,1
Sprite,Foreground,Centre,"Lyrics\0008white.png",320,240 M,0,55199,55899,396.8,420.2667,391.4667,420.2667 F,0,55199,55899,0,1
Sprite,Foreground,Centre,"Lyrics\0008.png",320,240 M,0,55799,62999,296.2667,107.4667,352.8,107.4667 F,0,62199,62999,1,0
Sprite,Foreground,Centre,"Lyrics\0008white.png",320,240 M,0,55799,62999,296.2667,107.4667,352.8,107.4667 F,0,62199,62999,1,0
Sprite,Foreground,Centre,"Lyrics\0008white.png",320,240 M,0,55799,62999,292.2667,103.4667,348.8,103.4667 F,0,62199,62999,1,0
Sprite,Foreground,Centre,"Lyrics\0008.png",320,240 F,0,55799,56099,0 M,0,55799,62999,292.2667,103.4667,348.8,103.4667 F,0,56099,56199,0,1 F,0,56199,56299,1,0 F,0,56299,56899,0 F,0,56899,56999,0,1 F,0,56999,57099,1,0 F,0,57099,57699,0 F,0,57699,57799,0,1 F,0,57799,57899,1,0 F,0,57899,58499,0 F,0,58499,58599,0,1 F,0,58599,58699,1,0 F,0,58699,59299,0 F,0,59299,59399,0,1 F,0,59399,59499,1,0 F,0,59499,60099,0 F,0,60099,60199,0,1 F,0,60199,60299,1,0 F,0,60299,60899,0 F,0,60899,60999,0,1 F,0,60999,61099,1,0 F,0,61099,61699,0 F,0,61699,61799,0,1 F,0,61799,61899,1,0 F,0,61899,62199,0 F,0,62199,62499,0 F,0,62499,62599,0,1 F,0,62599,62699,1,0 F,0,62699,62999,0
Sprite,Foreground,Centre,"Lyrics\0008.png",320,240 M,0,55799,62999,292.2667,103.4667,348.8,103.4667 F,0,62199,62999,1,0
Sprite,Foreground,Centre,"white.jpg",320,240 M,0,55599,,320,240 S,0,55599,,1.5 F,0,55599,55799,0,1 F,0,55799,55999,1 F,0,55999,56199,1,0
Sprite,Foreground,Centre,"Lyrics\0021.png",320,240 M,0,144799,145499,341.3333,391.4667,336,391.4667 F,0,144799,145499,0,1
Sprite,Foreground,Centre,"Lyrics\0021white.png",320,240 M,0,144799,145499,341.3333,391.4667,336,391.4667 F,0,144799,145499,0,1
Sprite,Foreground,Centre,"Lyrics\0021.png",320,240 M,0,145399,152599,311.2,106.4,350.6667,106.4 F,0,151799,152599,1,0
Sprite,Foreground,Centre,"Lyrics\0021white.png",320,240 M,0,145399,152599,311.2,106.4,350.6667,106.4 F,0,151799,152599,1,0
Sprite,Foreground,Centre,"Lyrics\0021white.png",320,240 M,0,145399,152599,307.2,102.4,346.6667,102.4 F,0,151799,152599,1,0
Sprite,Foreground,Centre,"Lyrics\0021.png",320,240 M,0,145399,152599,307.2,102.4,346.6667,102.4 F,0,145699,145799,0,1 F,0,145799,145899,1,0 F,0,145899,146499,0 F,0,146499,146599,0,1 F,0,146599,146699,1,0 F,0,146699,147299,0 F,0,147299,147399,0,1 F,0,147399,147499,1,0 F,0,147499,148099,0 F,0,148099,148199,0,1 F,0,148199,148299,1,0 F,0,148299,148899,0 F,0,148899,148999,0,1 F,0,148999,149099,1,0 F,0,149099,149699,0 F,0,149699,149799,0,1 F,0,149799,149899,1,0 F,0,149899,150499,0 F,0,150499,150599,0,1 F,0,150599,150699,1,0 F,0,150699,151299,0 F,0,151299,151399,0,1 F,0,151399,151499,1,0 F,0,151499,151799,0,1 F,0,151799,152099,1,0 F,0,152099,152199,0,1 F,0,152199,152299,1,0 F,0,152299,152599,0
Sprite,Foreground,Centre,"Lyrics\0021.png",320,240 M,0,145399,152599,307.2,102.4,346.6667,102.4 F,0,151799,152599,1,0
Sprite,Foreground,Centre,"white.jpg",320,240 S,0,55599,,1.5 M,0,145199,,320,240 F,0,145199,145399,0,1 F,0,145399,145599,1 F,0,145599,145799,1,0
//Storyboard Layer 4 (Overlay)
//Storyboard Sound Samples

[TimingPoints]
1399,400,4,2,1,75,1,0
14199,-100,4,2,1,55,0,0
25399,-100,4,2,1,75,0,0
39799,-100,4,3,1,75,0,0
42999,-100,4,2,1,75,0,0
46199,-100,4,3,1,75,0,0
49399,-100,4,2,1,75,0,0
55799,-100,4,2,2,75,0,1
55999,-100,4,2,1,75,0,1
78199,-100,4,2,1,75,0,0
103799,-100,4,2,1,55,0,0
114999,-100,4,2,1,75,0,0
129399,-100,4,3,1,75,0,0
132599,-100,4,2,1,75,0,0
135799,-100,4,3,1,75,0,0
138999,-100,4,2,1,75,0,0
145399,-100,4,2,2,75,0,1
145599,-100,4,2,1,75,0,1
167799,-100,4,2,1,75,0,0
183799,-100,4,2,2,75,0,0
196599,-100,4,3,0,55,0,0
199599,-100,4,2,1,75,0,0
202999,-100,4,2,1,40,0,0
203199,-100,4,2,1,45,0,0
203399,-100,4,2,1,50,0,0
203599,-100,4,2,1,55,0,0
203799,-100,4,2,1,60,0,0
203999,-100,4,2,1,65,0,0
204199,-100,4,2,1,70,0,0
204399,-100,4,2,1,75,0,0
206199,-100,4,2,2,75,0,1
206399,-100,4,2,1,75,0,1
228599,-100,4,2,1,75,0,0
231799,-100,4,2,1,75,0,0

[Colours]
Combo1 : 128,255,255
Combo2 : 240,88,15
Combo3 : 118,46,239
Combo4 : 192,192,192

[HitObjects]
127,241,1399,6,0,P|227:237|275:261,1,110,4|8,0:0|0:0,0:0:0:0:
324,320,2199,2,0,L|380:366,2,55,0|0|8,0:0|0:0|0:0,0:0:0:0:
234,239,2999,2,0,P|225:185|235:131,1,110,0|8,0:0|0:0,0:0:0:0:
299,29,3799,2,0,L|376:29,2,55,0|0|8,0:0|0:0|0:0,0:0:0:0:
178,25,4599,6,0,P|90:73|74:121,1,110,0|8,0:0|0:0,0:0:0:0:
80,137,5199,1,0,0:0:0:0:
94,195,5399,2,0,L|199:224,1,110,0|8,0:0|0:0,0:0:0:0:
320,222,6199,2,0,L|425:192,1,110,0|8,0:0|0:0,0:0:0:0:
440,135,6799,1,0,0:0:0:0:
433,76,6999,2,0,P|394:37|342:23,1,110,0|8,0:0|0:0,0:0:0:0:
222,44,7799,6,0,L|120:82,2,55,0|0|8,0:0|0:0|0:0,0:0:0:0:
285,146,8599,2,0,L|387:108,2,55,0|0|8,0:0|0:0|0:0,0:0:0:0:
229,170,9199,2,0,P|176:175|112:142,1,110,4|0,0:0|0:0,0:0:0:0:
73,120,9799,2,0,L|21:139,1,55,8|8,0:0|0:0,0:0:0:0:
41,258,10399,2,0,P|76:313|124:339,1,110,8|0,0:0|0:0,0:0:0:0:
171,353,10999,6,0,P|222:328|274:315,1,110,4|8,0:0|0:0,0:0:0:0:
370,241,11799,2,0,L|442:241,2,55,0|0|8,0:0|0:0|0:0,0:0:0:0:
274,164,12599,2,0,P|212:151|148:118,1,110,0|8,0:0|0:0,0:0:0:0:
75,50,13399,2,0,L|16:50,2,55,0|0|8,0:0|0:0|0:0,0:0:0:0:
57,171,14199,6,0,P|50:250|41:282,1,110,4|2,0:0|0:0,0:0:0:0:
139,350,14999,2,0,P|164:363|192:367,1,55
247,348,15399,1,2,0:0:0:0:
288,304,15599,2,0,L|307:184,1,110,0|0,0:0|0:0,0:0:0:0:
365,190,16199,2,0,P|390:203|418:207,2,55,2|0|0,0:0|0:0|0:0,0:0:0:0:
425,85,16999,1,2,0:0:0:0:
320,23,17399,6,0,L|195:37,2,110,0|2|0,0:0|0:0|0:0,0:0:0:0:
425,85,18599,1,2,0:0:0:0:
413,144,18799,2,0,P|409:183|416:257,1,110
436,309,19399,2,0,L|491:364,2,55,2|0|0,0:0|0:0|0:0,0:0:0:0:
326,255,20200,1,2,0:0:0:0:
384,149,20599,6,0,P|332:134|266:152,1,110,0|2,0:0|0:0,0:0:0:0:
171,90,21399,2,0,P|156:143|174:209,1,110,0|2,0:0|0:0,0:0:0:0:
112,304,22199,2,0,P|165:320|231:302,1,110,0|2,0:0|0:0,0:0:0:0:
325,363,22999,2,0,P|341:311|323:245,1,110,0|2,0:0|0:0,0:0:0:0:
286,217,23599,1,0,0:0:0:0:
241,177,23799,6,0,P|231:124|247:72,1,110,0|2,0:0|0:0,0:0:0:0:
352,131,24599,2,0,L|470:131,1,110,0|2,0:0|0:0,0:0:0:0:
433,248,25399,2,0,P|451:268|466:291,2,55,0|0|10,0:0|0:0|0:0,0:0:0:0:
328,310,26199,2,0,P|331:336|330:364,2,55,0|0|10,0:0|0:0|0:0,0:0:0:0:
217,260,26999,6,0,L|125:169,1,110,4|8,0:0|0:0,0:0:0:0:
23,141,27799,2,0,P|37:117|57:99,1,55
111,69,28199,1,8,0:0:0:0:
171,70,28399,2,0,P|205:112|252:140,1,110
307,114,28999,2,0,P|333:120|357:133,2,55,8|0|0,0:0|0:0|0:0,0:0:0:0:
282,233,29799,1,8,0:0:0:0:
258,353,30199,6,0,P|231:346|168:284,1,110,0|8,0:0|0:0,0:0:0:0:
132,177,30999,2,0,P|187:168|240:143,1,110,0|8,0:0|0:0,0:0:0:0:
294,163,31599,2,0,B|347:179|347:179|416:173,1,110
446,214,32199,2,0,B|500:209,2,55,8|0|0,0:0|0:0|0:0,0:0:0:0:
371,309,32999,1,8,0:0:0:0:
251,297,33399,6,0,L|163:212,1,110,0|8,0:0|0:0,0:0:0:0:
54,190,34199,2,0,L|14:151,2,55,0|0|8,0:0|0:0|0:0,0:0:0:0:
139,103,34999,2,0,L|99:64,2,55,0|0|8,0:0|0:0|0:0,0:0:0:0:
256,133,35799,2,0,L|336:210,1,110,0|8,0:0|0:0,0:0:0:0:
422,293,36599,6,0,P|365:328|304:330,1,110,8|0,0:0|0:0,0:0:0:0:
264,316,37199,2,0,P|210:307|138:329,2,110,8|8|8,0:0|0:0|0:0,0:0:0:0:
372,271,38399,2,0,P|420:292|441:292,2,55,0|8|0,0:0|0:0|0:0,0:0:0:0:
356,212,38999,2,0,P|352:184|340:160,1,55
302,112,39399,1,8,0:0:0:0:
193,57,39799,6,0,L|83:90,1,110,4|8,0:0|0:0,0:0:0:0:
43,129,40399,2,0,P|17:161|12:178,2,55
100,147,40999,1,8,0:0:0:0:
157,253,41399,6,0,L|267:220,1,110,0|8,0:0|0:0,0:0:0:0:
307,181,41999,2,0,P|332:148|338:132,2,55
321,239,42599,1,8,0:0:0:0:
376,346,42999,6,0,P|421:375|473:365,1,110,0|8,0:0|0:0,0:0:0:0:
491,244,43799,2,0,L|471:178,2,55,0|0|8,0:0|0:0|0:0,0:0:0:0:
366,245,44599,2,0,L|250:230,1,110,0|8,0:0|0:0,0:0:0:0:
135,240,45399,2,0,P|103:265|90:285,2,55,0|0|8,0:0|0:0|0:0,0:0:0:0:
189,130,46199,6,0,P|255:117|298:87,1,110,4|8,0:0|0:0,0:0:0:0:
313,37,46799,1,0,0:0:0:0:
370,19,46999,2,0,P|411:19|436:28,1,55
477,50,47399,1,8,0:0:0:0:
453,168,47799,6,0,L|424:299,1,110,0|8,0:0|0:0,0:0:0:0:
387,318,48399,1,0,0:0:0:0:
327,329,48599,2,0,P|290:328|255:310,1,55
233,276,48999,1,8,0:0:0:0:
148,189,49399,6,0,P|116:187|84:199,2,55,4|0|8,0:0|0:0|0:0,0:0:0:0:
233,103,50199,2,0,P|301:104|364:93,1,110,0|8,0:0|0:0,0:0:0:0:
432,174,50999,2,0,P|463:175|495:163,2,55,0|0|8,0:0|0:0|0:0,0:0:0:0:
347,260,51799,2,0,P|278:259|216:270,1,110,0|8,0:0|0:0,0:0:0:0:
128,317,52599,5,8,0:0:0:0:
137,196,52999,1,8,0:0:0:0:
246,143,53399,1,8,0:0:0:0:
416,81,53999,2,0,P|427:138|414:194,1,110,12|8,0:0|0:0,0:0:0:0:
378,235,54599,1,8,0:0:0:0:
319,250,54799,1,8,0:0:0:0:
198,255,55199,2,0,P|152:268|138:278,2,55,8|8|8,0:0|0:0|0:0,0:0:0:0:
219,310,55799,6,0,P|256:351|313:366,1,110,4|8,0:0|0:0,0:0:0:0:
427,360,56599,2,0,L|391:245,1,110,2|8,0:0|0:0,0:0:0:0:
374,199,57199,1,10,0:0:0:0:
253,206,57599,2,0,P|189:188|152:158,1,110,8|0,0:0|0:0,0:0:0:0:
136,103,58199,2,0,B|74:103,2,55,10|0|8,0:0|0:0|0:0,0:0:0:0:
183,66,58799,1,0,0:0:0:0:
233,32,58999,6,0,L|350:32,1,110,2|8,0:0|0:0,0:0:0:0:
416,128,59799,2,0,P|363:143|287:147,1,110,2|8,0:0|0:0,0:0:0:0:
260,186,60399,2,0,B|260:311,2,110,8|8|8,0:0|0:0|0:0,0:0:0:0:
211,148,61399,2,0,P|156:144|103:129,1,110,2|8,0:0|0:0,0:0:0:0:
69,245,62199,6,0,P|58:295|67:356,1,110,6|8,0:0|0:0,0:0:0:0:
175,301,62999,2,0,L|286:302,1,110,2|8,0:0|0:0,0:0:0:0:
344,303,63599,1,10,0:0:0:0:
427,215,63999,2,0,P|398:193|364:183,1,55,8|0,0:0|0:0,0:0:0:0:
321,185,64399,2,0,P|313:131|325:77,1,110,8|0,0:0|0:0,0:0:0:0:
364,32,64999,2,0,P|402:50|431:51,1,55,8|0,0:0|0:0,0:0:0:0:
440,106,65399,6,0,P|467:112|491:126,2,55,2|0|8,0:0|0:0|0:0,0:0:0:0:
421,226,66199,2,0,P|429:253|429:281,2,55,2|0|8,0:0|0:0|0:0,0:0:0:0:
307,270,66999,2,0,P|288:291|264:305,2,55,10|0|8,0:0|0:0|0:0,0:0:0:0:
309,210,67599,2,0,L|228:118,1,110,8|0,0:0|0:0,0:0:0:0:
196,82,68199,1,8,0:0:0:0:
93,16,68599,6,0,P|74:68|81:125,1,110,6|8,0:0|0:0,0:0:0:0:
72,243,69399,2,0,P|120:257|176:287,1,110,2|8,0:0|0:0,0:0:0:0:
219,324,69999,1,10,0:0:0:0:
332,281,70399,2,0,P|363:229|371:175,1,110,8|0,0:0|0:0,0:0:0:0:
353,123,70999,2,0,B|233:69,1,110,2|8,0:0|0:0,0:0:0:0:
142,29,71799,6,0,B|114:73|144:141,1,110,10|8,0:0|0:0,0:0:0:0:
134,255,72599,2,0,B|210:272,1,55,10|0,0:0|0:0,0:0:0:0:
246,250,72999,1,8,0:0:0:0:
294,213,73199,2,0,P|311:158|301:83,2,110,4|8|8,0:0|0:0|0:0,0:0:0:0:
319,267,74199,2,0,P|315:330|331:376,1,110,10|8,0:0|0:0,0:0:0:0:
430,305,74999,6,0,L|473:193,1,110,6|8,0:0|0:0,0:0:0:0:
459,142,75599,1,8,0:0:0:0:
374,54,75999,2,0,P|330:54|296:47,1,55,8|8,0:0|0:0,0:0:0:0:
258,47,76399,6,0,P|204:86|175:130,1,110,8|0,0:0|0:0,0:0:0:0:
176,182,76999,1,8,0:0:0:0:
204,299,77399,1,10,0:0:0:0:
151,329,77599,2,0,P|115:337|87:332,1,55,0|8,0:0|0:0,0:0:0:0:
55,291,77999,1,0,0:0:0:0:
27,238,78199,6,0,L|68:121,1,110,8|8,0:0|0:0,0:0:0:0:
124,29,78999,2,0,P|161:16|191:18,1,55,8|0,0:0|0:0,0:0:0:0:
213,63,79399,2,0,L|235:124,1,55,8|0,0:0|0:0,0:0:0:0:
290,128,79799,2,0,L|331:244,1,110,8|8,0:0|0:0,0:0:0:0:
406,322,80599,2,0,P|433:325|460:321,1,55,8|0,0:0|0:0,0:0:0:0:
471,261,80999,2,0,L|449:200,1,55,8|0,0:0|0:0,0:0:0:0:
473,152,81399,6,0,L|432:36,1,110,4|8,0:0|0:0,0:0:0:0:
316,40,82199,2,0,P|286:30|240:28,2,55,8|0|8,0:0|0:0|0:0,0:0:0:0:
259,147,82999,2,0,L|235:264,1,110,0|8,0:0|0:0,0:0:0:0:
121,292,83799,2,0,P|91:302|45:304,2,55,8|0|8,0:0|0:0|0:0,0:0:0:0:
123,231,84399,1,0,0:0:0:0:
85,183,84599,6,0,P|90:115|101:74,1,110,4|8,0:0|0:0,0:0:0:0:
200,143,85399,2,0,P|204:210|216:252,1,110,0|8,0:0|0:0,0:0:0:0:
316,183,86199,2,0,P|321:115|332:74,1,110,0|8,0:0|0:0,0:0:0:0:
385,47,86799,1,0,0:0:0:0:
438,27,86999,2,0,L|490:5,2,55,8|8|8,0:0|0:0|0:0,0:0:0:0:
444,147,87799,6,0,P|448:214|460:256,1,110,4|8,0:0|0:0,0:0:0:0:
428,306,88399,2,0,L|320:321,2,110,8|8|8,0:0|0:0|0:0,0:0:0:0:
328,154,89799,1,8,0:0:0:0:
221,97,90199,1,8,0:0:0:0:
226,219,90599,1,8,0:0:0:0:
256,192,90999,12,4,94199,0:0:0:0:
452,41,103799,6,0,L|324:63,1,110,4|2,0:0|0:0,0:0:0:0:
248,135,104599,2,0,L|171:148,1,55
136,123,104999,1,2,0:0:0:0:
80,145,105199,2,0,P|41:179|25:233,1,110,0|0,0:0|0:0,0:0:0:0:
32,293,105799,2,0,L|41:347,2,55,2|0|0,0:0|0:0|0:0,0:0:0:0:
152,287,106599,1,2,0:0:0:0:
268,319,106999,6,0,L|396:297,2,110,0|2|0,0:0|0:0|0:0,0:0:0:0:
237,202,108199,1,2,0:0:0:0:
240,141,108399,2,0,P|251:100|311:53,1,110
360,47,108999,2,0,L|432:44,2,55,2|0|0,0:0|0:0|0:0,0:0:0:0:
360,168,109800,1,2,0:0:0:0:
459,236,110199,6,0,P|415:276|358:288,1,110,0|2,0:0|0:0,0:0:0:0:
256,336,110999,2,0,P|242:278|196:237,1,110,0|2,0:0|0:0,0:0:0:0:
108,173,111799,2,0,P|152:133|209:121,1,110,0|2,0:0|0:0,0:0:0:0:
306,178,112599,2,0,P|362:196|401:239,1,110,0|2,0:0|0:0,0:0:0:0:
421,286,113199,1,0,0:0:0:0:
387,336,113399,6,0,B|360:367|311:364|311:364|275:328|214:355,2,165,8|8|2,0:0|0:0|0:0,0:0:0:0:
420,219,114999,2,0,L|401:153,2,55,8|0|10,0:0|0:0|0:0,0:0:0:0:
302,190,115799,2,0,L|236:173,2,55,8|0|10,0:0|0:0|0:0,0:0:0:0:
297,310,116599,6,0,P|385:280|410:236,1,110,4|8,0:0|0:0,0:0:0:0:
490,196,117399,2,0,P|474:168|470:143,1,55
428,101,117799,1,8,0:0:0:0:
368,96,117999,2,0,L|244:116,1,110
206,143,118599,2,0,P|169:120|151:88,2,55,8|0|0,0:0|0:0|0:0,0:0:0:0:
294,232,119399,1,8,0:0:0:0:
295,352,119799,6,0,P|242:341|199:307,1,110,0|8,0:0|0:0,0:0:0:0:
200,186,120599,2,0,P|164:145|113:126,1,110,0|8,0:0|0:0,0:0:0:0:
81,177,121199,2,0,B|89:286,1,110
73,345,121799,2,0,P|50:359|17:362,2,55,8|0|0,0:0|0:0|0:0,0:0:0:0:
191,357,122599,1,8,0:0:0:0:
311,365,122999,6,0,P|364:341|399:280,1,110,0|8,0:0|0:0,0:0:0:0:
285,244,123799,2,0,L|241:199,2,55,0|0|8,0:0|0:0|0:0,0:0:0:0:
174,292,124599,2,0,L|212:331,2,55,0|0|8,0:0|0:0|0:0,0:0:0:0:
67,236,125399,2,0,P|99:192|149:170,1,110,0|8,0:0|0:0,0:0:0:0:
260,122,126199,6,0,P|317:157|378:159,1,110,8|0,0:0|0:0,0:0:0:0:
418,151,126799,2,0,L|465:261,2,110,8|8|8,0:0|0:0|0:0,0:0:0:0:
324,73,127999,2,0,P|346:44|378:29,2,55,0|8|0,0:0|0:0|0:0,0:0:0:0:
275,109,128599,2,0,P|234:105|212:92,1,55
187,49,128999,1,8,0:0:0:0:
94,126,129399,6,0,P|87:179|100:258,1,110,4|8,0:0|0:0,0:0:0:0:
110,293,129999,2,0,L|69:340,2,55
168,308,130599,1,8,0:0:0:0:
285,279,130999,6,0,L|395:246,1,110,0|8,0:0|0:0,0:0:0:0:
450,249,131599,2,0,P|471:285|471:308,2,55
475,194,132199,1,8,0:0:0:0:
461,73,132599,6,0,P|423:42|342:43,1,110,0|8,0:0|0:0,0:0:0:0:
263,103,133399,2,0,P|247:71|240:40,2,55,0|0|8,0:0|0:0|0:0,0:0:0:0:
310,214,134199,2,0,P|272:244|191:244,1,110,0|8,0:0|0:0,0:0:0:0:
94,224,134999,2,0,P|67:228|42:241,2,55,0|0|8,0:0|0:0|0:0,0:0:0:0:
177,134,135799,6,0,P|146:89|95:68,1,110,4|8,0:0|0:0,0:0:0:0:
38,88,136399,1,0,0:0:0:0:
35,148,136599,2,0,L|30:219,1,55
65,253,136999,1,8,0:0:0:0:
173,306,137399,6,0,L|317:317,1,110,0|8,0:0|0:0,0:0:0:0:
342,302,137999,1,0,0:0:0:0:
395,273,138199,2,0,P|414:240|418:209,1,55
409,163,138599,1,8,0:0:0:0:
305,100,138999,6,0,P|329:68|354:54,2,55,4|0|8,0:0|0:0|0:0,0:0:0:0:
302,221,139799,2,0,P|238:201|205:165,1,110,0|8,0:0|0:0,0:0:0:0:
115,94,140599,2,0,L|112:19,2,55,0|0|8,0:0|0:0|0:0,0:0:0:0:
24,174,141399,2,0,L|27:293,1,110,0|8,0:0|0:0,0:0:0:0:
142,324,142199,5,8,0:0:0:0:
256,280,142599,1,8,0:0:0:0:
370,324,142999,1,8,0:0:0:0:
481,180,143599,2,0,P|431:150|374:143,1,110,12|8,0:0|0:0,0:0:0:0:
323,163,144199,1,8,0:0:0:0:
289,214,144399,1,8,0:0:0:0:
183,273,144799,2,0,P|134:291|106:291,2,55,8|8|8,0:0|0:0|0:0,0:0:0:0:
178,212,145399,6,0,L|162:88,1,110,4|8,0:0|0:0,0:0:0:0:
249,17,146199,2,0,P|301:37|358:43,1,110,2|8,0:0|0:0,0:0:0:0:
414,31,146799,1,10,0:0:0:0:
486,128,147199,2,0,P|471:179|470:246,1,110,8|0,0:0|0:0,0:0:0:0:
481,294,147799,2,0,B|498:352,2,55,10|0|8,0:0|0:0|0:0,0:0:0:0:
422,279,148399,1,0,0:0:0:0:
361,273,148599,6,0,P|297:266|244:273,1,110,2|8,0:0|0:0,0:0:0:0:
237,151,149399,2,0,P|173:158|120:151,1,110,2|8,0:0|0:0,0:0:0:0:
69,170,149999,2,0,B|50:302,2,110,8|8|8,0:0|0:0|0:0,0:0:0:0:
31,122,150999,2,0,B|57:69|57:69|115:47,1,110,2|8,0:0|0:0,0:0:0:0:
218,92,151799,6,0,P|258:129|278:179,1,110,6|8,0:0|0:0,0:0:0:0:
252,298,152599,2,0,P|302:287|363:296,1,110,2|8,0:0|0:0,0:0:0:0:
404,336,153199,1,10,0:0:0:0:
490,250,153599,2,0,P|475:213|474:185,1,55,8|0,0:0|0:0,0:0:0:0:
470,138,153999,2,0,B|466:91|466:91|414:35,1,110,8|0,0:0|0:0,0:0:0:0:
362,44,154599,2,0,L|306:47,1,55,8|0,0:0|0:0,0:0:0:0:
246,50,154999,6,0,L|210:94,2,55,2|0|8,0:0|0:0|0:0,0:0:0:0:
310,152,155799,2,0,L|274:196,2,55,2|0|8,0:0|0:0|0:0,0:0:0:0:
374,254,156599,2,0,L|338:298,2,55,10|0|8,0:0|0:0|0:0,0:0:0:0:
407,202,157199,2,0,P|412:132|398:83,1,110,8|0,0:0|0:0,0:0:0:0:
356,54,157799,1,8,0:0:0:0:
236,33,158199,6,0,L|113:49,1,110,6|8,0:0|0:0,0:0:0:0:
46,138,158999,2,0,P|31:184|45:243,1,110,2|8,0:0|0:0,0:0:0:0:
87,286,159599,1,10,0:0:0:0:
207,297,159999,2,0,L|324:275,1,110,8|0,0:0|0:0,0:0:0:0:
363,312,160599,2,0,L|480:290,1,110,2|8,0:0|0:0,0:0:0:0:
447,172,161399,6,0,B|436:104|456:64,1,110,10|8,0:0|0:0,0:0:0:0:
335,53,162199,2,0,P|305:46|281:33,1,55,10|0,0:0|0:0,0:0:0:0:
223,37,162599,1,8,0:0:0:0:
184,83,162799,2,0,B|174:119|174:119|193:190,2,110,4|8|8,0:0|0:0|0:0,0:0:0:0:
163,26,163799,2,0,B|127:16|127:16|56:35,1,110,10|8,0:0|0:0,0:0:0:0:
60,155,164599,6,0,L|41:264,1,110,6|8,0:0|0:0,0:0:0:0:
28,323,165199,1,8,0:0:0:0:
148,333,165599,2,0,L|167:224,1,110,8|8,0:0|0:0,0:0:0:0:
214,113,166399,1,8,0:0:0:0:
260,75,166599,2,0,P|316:60|383:68,1,110,8|2,0:0|0:0,0:0:0:0:
441,160,167399,1,8,0:0:0:0:
455,280,167799,6,0,B|436:281|378:286|359:249|334:227|326:191|326:191|342:258|286:288|273:297|226:286,1,330,4|0,0:0|0:0,0:0:0:0:
183,258,169199,1,0,0:0:0:0:
164,200,169399,2,0,B|201:120|129:69|77:77|44:104|44:104|59:174|32:232,1,330,2|0,0:0|0:0,0:0:0:0:
20,336,170999,6,0,B|84:336|122:358|122:358|205:278|341:330,1,330,8|0,0:0|0:0,0:0:0:0:
389,343,172399,1,0,0:0:0:0:
448,333,172599,2,0,B|475:299|475:256|475:256|411:240|411:144|475:128|475:128|475:88|452:55,1,330,2|0,0:0|0:0,0:0:0:0:
339,22,174199,6,0,P|270:41|233:91,1,110,8|0,0:0|0:0,0:0:0:0:
140,128,174999,2,0,P|190:178|252:185,1,110,8|0,0:0|0:0,0:0:0:0:
331,247,175799,2,0,P|349:177|324:120,1,110,8|0,0:0|0:0,0:0:0:0:
244,67,176599,2,0,B|170:37|170:37|128:43,1,110,8|8,0:0|0:0,0:0:0:0:
42,113,177399,6,0,L|65:220,1,110,4|8,0:0|0:0,0:0:0:0:
64,342,178199,2,0,P|141:317|166:290,1,110,0|8,0:0|0:0,0:0:0:0:
266,359,178999,2,0,P|283:280|272:245,1,110,0|8,0:0|0:0,0:0:0:0:
380,193,179799,2,0,P|320:139|284:131,1,110,0|8,0:0|0:0,0:0:0:0:
182,175,180599,6,0,L|173:46,1,110,8|8,0:0|0:0,0:0:0:0:
116,46,181199,1,0,0:0:0:0:
61,71,181399,2,0,L|70:200,1,110,8|8,0:0|0:0,0:0:0:0:
79,301,182199,2,0,P|147:274|178:229,1,110,8|8,0:0|0:0,0:0:0:0:
225,223,182799,1,0,0:0:0:0:
280,246,182999,2,0,P|318:285|371:301,1,110,8|8,0:0|0:0,0:0:0:0:
431,296,183599,1,0,0:0:0:0:
478,258,183799,5,4,0:0:0:0:
75,109,196599,6,0,L|189:85,1,110,8|2,0:0|0:0,0:0:0:0:
271,4,197399,2,0,L|329:105,1,110,8|2,0:0|0:0,0:0:0:0:
431,157,198199,2,0,L|352:243,1,110,8|2,0:0|0:0,0:0:0:0:
334,356,198999,2,0,L|227:308,1,110,8|6,0:0|0:0,0:0:0:0:
114,325,199799,6,0,L|126:209,1,110,8|0,0:0|0:0,0:0:0:0:
135,155,200399,2,0,P|172:128|252:116,1,110,8|0,0:0|0:0,0:0:0:0:
292,128,200999,1,8,0:0:0:0:
411,110,201399,2,0,L|399:226,1,110,8|0,0:0|0:0,0:0:0:0:
390,280,201999,2,0,P|353:307|273:319,1,110,8|0,0:0|0:0,0:0:0:0:
233,307,202599,1,8,0:0:0:0:
119,265,202999,6,0,L|68:287,2,55,8|8|8,0:0|0:0|0:0,0:0:0:0:
151,214,203599,2,0,L|201:191,2,55,8|8|8,0:0|0:0|0:0,0:0:0:0:
90,211,204199,1,8,0:0:0:0:
38,179,204399,2,0,P|37:118|80:69,1,110,8|8,0:0|0:0,0:0:0:0:
121,54,204999,2,0,L|172:32,1,55,8|8,0:0|0:0,0:0:0:0:
450,192,206199,6,0,P|466:149|453:78,1,110,4|8,0:0|0:0,0:0:0:0:
356,22,206999,2,0,L|223:36,1,110,2|8,0:0|0:0,0:0:0:0:
187,43,207599,1,10,0:0:0:0:
89,115,207999,2,0,P|101:179|86:240,1,110,8|0,0:0|0:0,0:0:0:0:
51,266,208599,2,0,P|26:277|3:311,2,55,10|0|8,0:0|0:0|0:0,0:0:0:0:
109,283,209199,1,0,0:0:0:0:
161,312,209399,6,0,P|212:326|279:324,1,110,2|8,0:0|0:0,0:0:0:0:
379,276,210199,2,0,B|396:234|396:234|376:158,1,110,2|8,0:0|0:0,0:0:0:0:
364,112,210799,2,0,B|409:66|409:66|454:60,2,110,8|8|8,0:0|0:0|0:0,0:0:0:0:
320,154,211799,2,0,B|257:137|257:137|230:102,1,110,2|8,0:0|0:0,0:0:0:0:
112,72,212599,6,0,B|80:118|89:186,1,110,6|8,0:0|0:0,0:0:0:0:
80,297,213399,2,0,B|209:323,1,110,2|8,0:0|0:0,0:0:0:0:
246,331,213999,1,10,0:0:0:0:
364,306,214399,2,0,P|390:273|416:258,1,55,8|0,0:0|0:0,0:0:0:0:
427,211,214799,2,0,B|397:144|312:143,1,110,8|0,0:0|0:0,0:0:0:0:
294,112,215399,2,0,L|239:141,1,55,8|0,0:0|0:0,0:0:0:0:
185,139,215799,6,0,L|165:201,1,55,2|0,0:0|0:0,0:0:0:0:
151,250,216199,1,8,0:0:0:0:
239,334,216599,2,0,L|258:270,1,55,2|0,0:0|0:0,0:0:0:0:
273,224,216999,1,8,0:0:0:0:
185,139,217399,2,0,L|232:110,1,55,10|0,0:0|0:0,0:0:0:0:
284,79,217799,1,8,0:0:0:0:
341,101,217999,2,0,P|353:156|321:216,1,110,8|0,0:0|0:0,0:0:0:0:
273,224,218599,1,8,0:0:0:0:
179,301,218999,6,0,P|154:252|154:198,1,110,6|8,0:0|0:0,0:0:0:0:
77,104,219799,2,0,P|143:74|191:80,1,110,2|8,0:0|0:0,0:0:0:0:
233,107,220399,1,10,0:0:0:0:
348,69,220799,2,0,B|336:132|352:181,1,110,8|0,0:0|0:0,0:0:0:0:
397,217,221399,2,0,B|409:280|393:329,1,110,2|8,0:0|0:0,0:0:0:0:
278,363,222199,6,0,L|172:324,1,110,10|8,0:0|0:0,0:0:0:0:
61,282,222999,2,0,P|77:247|106:224,1,55,10|0,0:0|0:0,0:0:0:0:
136,199,223399,1,8,0:0:0:0:
195,212,223599,2,0,B|314:258,2,110,4|8|8,0:0|0:0|0:0,0:0:0:0:
174,154,224599,2,0,B|180:85|148:45,1,110,10|8,0:0|0:0,0:0:0:0:
54,122,225399,6,0,L|73:231,1,110,6|8,0:0|0:0,0:0:0:0:
86,289,225999,1,8,0:0:0:0:
180,364,226399,2,0,P|222:360|255:344,1,55,8|8,0:0|0:0,0:0:0:0:
256,299,226799,6,0,L|237:190,1,110,8|0,0:0|0:0,0:0:0:0:
226,131,227399,1,8,0:0:0:0:
345,109,227799,1,10,0:0:0:0:
402,128,227999,2,0,P|432:150|448:176,1,55,0|8,0:0|0:0,0:0:0:0:
470,217,228399,1,0,0:0:0:0:
466,277,228599,6,0,P|434:320|385:344,1,110,8|8,0:0|0:0,0:0:0:0:
299,258,229399,2,0,P|262:245|232:247,1,55,8|0,0:0|0:0,0:0:0:0:
209,292,229799,2,0,P|172:305|142:303,1,55,8|0,0:0|0:0,0:0:0:0:
108,267,230199,2,0,P|106:213|129:164,1,110,8|8,0:0|0:0,0:0:0:0:
77,54,230999,2,0,P|114:41|144:43,1,55,8|0,0:0|0:0,0:0:0:0:
188,54,231399,2,0,P|225:67|255:65,1,55,8|0,0:0|0:0,0:0:0:0:
299,52,231799,6,0,L|328:181,1,110,4|8,0:0|0:0,0:0:0:0:
296,277,232599,2,0,L|312:352,2,55,8|0|8,0:0|0:0|0:0,0:0:0:0:
210,190,233399,2,0,P|155:189|86:229,1,110,0|8,0:0|0:0,0:0:0:0:
44,316,234199,2,0,P|41:348|28:370,2,55,8|0|8,0:0|0:0|0:0,0:0:0:0:
35,255,234799,1,0,0:0:0:0:
87,224,234999,6,0,B|161:224|161:224|208:191,1,110,4|8,0:0|0:0,0:0:0:0:
269,294,235799,2,0,B|306:229|306:229|300:172,1,110,0|8,0:0|0:0,0:0:0:0:
420,171,236599,2,0,B|383:106|383:106|330:82,1,110,0|8,0:0|0:0,0:0:0:0:
289,89,237199,1,0,0:0:0:0:
228,90,237399,2,0,P|195:85|167:67,2,55,8|8|8,0:0|0:0|0:0,0:0:0:0:
283,197,238199,6,0,L|274:327,1,110,4|8,0:0|0:0,0:0:0:0:
317,350,238799,2,0,P|373:358|436:345,2,110,8|8|8,0:0|0:0|0:0,0:0:0:0:
152,271,240199,1,8,0:0:0:0:
152,150,240599,1,8,0:0:0:0:
152,30,240999,1,8,0:0:0:0:
256,192,241399,12,0,243799,0:0:0:0:
385,241,244599,6,0,P|285:237|237:261,1,110,4|8,0:0|0:0,0:0:0:0:
188,320,245399,2,0,L|132:366,2,55,0|0|8,0:0|0:0|0:0,0:0:0:0:
278,239,246199,2,0,P|287:185|277:131,1,110,0|8,0:0|0:0,0:0:0:0:
213,29,246999,2,0,L|136:29,2,55,0|0|8,0:0|0:0|0:0,0:0:0:0:
334,25,247799,6,0,P|422:73|438:121,1,110,0|8,0:0|0:0,0:0:0:0:
432,137,248399,1,0,0:0:0:0:
418,195,248599,2,0,L|313:224,1,110,0|8,0:0|0:0,0:0:0:0:
192,222,249399,2,0,L|87:192,1,110,0|8,0:0|0:0,0:0:0:0:
72,135,249999,1,0,0:0:0:0:
79,76,250199,2,0,P|118:37|170:23,1,110,0|8,0:0|0:0,0:0:0:0:
290,44,250999,6,0,L|392:82,2,55,0|0|8,0:0|0:0|0:0,0:0:0:0:
227,146,251799,2,0,L|125:108,2,55,0|0|8,0:0|0:0|0:0,0:0:0:0:
283,170,252399,2,0,P|336:175|400:142,1,110,4|0,0:0|0:0,0:0:0:0:
439,120,252999,2,0,L|491:139,1,55,8|8,0:0|0:0,0:0:0:0:
471,258,253599,2,0,P|436:313|388:339,1,110,8|0,0:0|0:0,0:0:0:0:
337,339,254199,6,0,L|201:339,1,110,6|8,0:0|0:0,0:0:0:0:
150,245,254999,2,0,L|14:245,1,110,2|8,0:0|0:0,0:0:0:0:
20,125,255799,2,0,L|156:125,1,110,2|8,0:0|0:0,0:0:0:0:
251,125,256599,1,2,0:0:0:0:
351,57,256999,1,10,0:0:0:0:
471,192,257599,6,0,L|395:192,1,55,8|8,0:0|0:0,0:0:0:0:
374,305,258199,2,0,L|298:305,1,55,8|8,0:0|0:0,0:0:0:0:
277,192,258799,2,0,L|222:192,1,55,8|8,0:0|0:0,0:0:0:0:
180,79,259399,2,0,L|125:79,1,55,8|8,0:0|0:0,0:0:0:0:
83,192,259999,2,0,L|28:192,2,55,8|8|8,0:0|0:0|0:0,0:0:0:0:
256,192,260599,12,4,263599,0:0:0:0:
