osu file format v14

[General]
AudioFilename: audio.mp3
AudioLeadIn: 0
PreviewTime: 55199
Countdown: 0
SampleSet: Drum
StackLeniency: 0.7
Mode: 0
LetterboxInBreaks: 0
EpilepsyWarning: 1
WidescreenStoryboard: 1

[Editor]
Bookmarks: 10399,15799,18999,46199,53799,78099,109399,129199,199799
DistanceSpacing: 1.4
BeatDivisor: 8
GridSize: 8
TimelineZoom: 2.4

[Metadata]
Title:Amazing sky
TitleUnicode:Amazing sky
Artist:Kicco
ArtistUnicode:Kicco
Creator:Rekkursion
Version:Easy
Source:タユタマ2 -you're the only one-
Tags:ランプオブシュガー Lump of Sugar Tayutama Full Version video game japanese Eroge Visual Novel Galgame Opening op cb128128cb
BeatmapID:1709842
BeatmapSetID:782115

[Difficulty]
HPDrainRate:1.5
CircleSize:2.5
OverallDifficulty:2.5
ApproachRate:3
SliderMultiplier:0.9
SliderTickRate:1

[Events]
//Background and Video events
0,0,"tayutama2_mashiro.jpg",0,0
//Break Periods
2,94399,102359
2,183999,195159
//Storyboard Layer 0 (Background)
Sprite,Background,Centre,"tytm2\mashiro01.jpg",320,240 S,0,55999,,0.7 M,0,55999,78199,320,240
Sprite,Background,Centre,"tytm2\mashiro01.jpg",320,240 S,0,145599,,0.7 M,0,145599,167799,320,240
Sprite,Background,Centre,"tytm2\mashiro02.jpg",320,240 S,0,184199,,0.7 M,0,184199,205599,320,240
Sprite,Background,Centre,"tytm2\mashiro01.jpg",320,240 S,0,206199,,0.7 M,0,206199,228599,320,240
//Storyboard Layer 1 (Fail)
//Storyboard Layer 2 (Pass)
//Storyboard Layer 3 (Foreground)
Sprite,Foreground,Centre,"Lyrics\0008.png",320,240 M,0,55199,55899,396.8,420.2667,391.4667,420.2667 F,0,55199,55899,0,1
Sprite,Foreground,Centre,"Lyrics\0008white.png",320,240 M,0,55199,55899,396.8,420.2667,391.4667,420.2667 F,0,55199,55899,0,1
Sprite,Foreground,Centre,"Lyrics\0008.png",320,240 M,0,55799,62999,296.2667,107.4667,352.8,107.4667 F,0,62199,62999,1,0
Sprite,Foreground,Centre,"Lyrics\0008white.png",320,240 M,0,55799,62999,296.2667,107.4667,352.8,107.4667 F,0,62199,62999,1,0
Sprite,Foreground,Centre,"Lyrics\0008white.png",320,240 M,0,55799,62999,292.2667,103.4667,348.8,103.4667 F,0,62199,62999,1,0
Sprite,Foreground,Centre,"Lyrics\0008.png",320,240 F,0,55799,56099,0 M,0,55799,62999,292.2667,103.4667,348.8,103.4667 F,0,56099,56199,0,1 F,0,56199,56299,1,0 F,0,56299,56899,0 F,0,56899,56999,0,1 F,0,56999,57099,1,0 F,0,57099,57699,0 F,0,57699,57799,0,1 F,0,57799,57899,1,0 F,0,57899,58499,0 F,0,58499,58599,0,1 F,0,58599,58699,1,0 F,0,58699,59299,0 F,0,59299,59399,0,1 F,0,59399,59499,1,0 F,0,59499,60099,0 F,0,60099,60199,0,1 F,0,60199,60299,1,0 F,0,60299,60899,0 F,0,60899,60999,0,1 F,0,60999,61099,1,0 F,0,61099,61699,0 F,0,61699,61799,0,1 F,0,61799,61899,1,0 F,0,61899,62199,0 F,0,62199,62499,0 F,0,62499,62599,0,1 F,0,62599,62699,1,0 F,0,62699,62999,0
Sprite,Foreground,Centre,"Lyrics\0008.png",320,240 M,0,55799,62999,292.2667,103.4667,348.8,103.4667 F,0,62199,62999,1,0
Sprite,Foreground,Centre,"white.jpg",320,240 M,0,55599,,320,240 S,0,55599,,1.5 F,0,55599,55799,0,1 F,0,55799,55999,1 F,0,55999,56199,1,0
Sprite,Foreground,Centre,"Lyrics\0021.png",320,240 M,0,144799,145499,341.3333,391.4667,336,391.4667 F,0,144799,145499,0,1
Sprite,Foreground,Centre,"Lyrics\0021white.png",320,240 M,0,144799,145499,341.3333,391.4667,336,391.4667 F,0,144799,145499,0,1
Sprite,Foreground,Centre,"Lyrics\0021.png",320,240 M,0,145399,152599,311.2,106.4,350.6667,106.4 F,0,151799,152599,1,0
Sprite,Foreground,Centre,"Lyrics\0021white.png",320,240 M,0,145399,152599,311.2,106.4,350.6667,106.4 F,0,151799,152599,1,0
Sprite,Foreground,Centre,"Lyrics\0021white.png",320,240 M,0,145399,152599,307.2,102.4,346.6667,102.4 F,0,151799,152599,1,0
Sprite,Foreground,Centre,"Lyrics\0021.png",320,240 M,0,145399,152599,307.2,102.4,346.6667,102.4 F,0,145699,145799,0,1 F,0,145799,145899,1,0 F,0,145899,146499,0 F,0,146499,146599,0,1 F,0,146599,146699,1,0 F,0,146699,147299,0 F,0,147299,147399,0,1 F,0,147399,147499,1,0 F,0,147499,148099,0 F,0,148099,148199,0,1 F,0,148199,148299,1,0 F,0,148299,148899,0 F,0,148899,148999,0,1 F,0,148999,149099,1,0 F,0,149099,149699,0 F,0,149699,149799,0,1 F,0,149799,149899,1,0 F,0,149899,150499,0 F,0,150499,150599,0,1 F,0,150599,150699,1,0 F,0,150699,151299,0 F,0,151299,151399,0,1 F,0,151399,151499,1,0 F,0,151499,151799,0,1 F,0,151799,152099,1,0 F,0,152099,152199,0,1 F,0,152199,152299,1,0 F,0,152299,152599,0
Sprite,Foreground,Centre,"Lyrics\0021.png",320,240 M,0,145399,152599,307.2,102.4,346.6667,102.4 F,0,151799,152599,1,0
Sprite,Foreground,Centre,"white.jpg",320,240 S,0,55599,,1.5 M,0,145199,,320,240 F,0,145199,145399,0,1 F,0,145399,145599,1 F,0,145599,145799,1,0
//Storyboard Layer 4 (Overlay)
//Storyboard Sound Samples

[TimingPoints]
1399,400,4,2,1,75,1,0
14199,-100,4,2,1,55,0,0
25399,-100,4,2,1,75,0,0
39799,-100,4,3,1,75,0,0
42999,-100,4,2,1,75,0,0
46199,-100,4,3,1,75,0,0
49399,-100,4,2,1,75,0,0
55799,-100,4,2,2,75,0,1
55999,-100,4,2,1,75,0,1
78199,-100,4,2,1,75,0,0
103799,-100,4,2,1,55,0,0
114999,-100,4,2,1,75,0,0
129399,-100,4,3,1,75,0,0
132599,-100,4,2,1,75,0,0
135799,-100,4,3,1,75,0,0
138999,-100,4,2,1,75,0,0
145399,-100,4,2,2,75,0,1
145599,-100,4,2,1,75,0,1
167799,-100,4,2,1,75,0,0
183799,-100,4,2,2,75,0,0
196599,-100,4,3,0,55,0,0
199599,-100,4,2,1,75,0,0
202999,-100,4,2,1,40,0,0
203199,-100,4,2,1,45,0,0
203399,-100,4,2,1,50,0,0
203599,-100,4,2,1,55,0,0
203799,-100,4,2,1,60,0,0
203999,-100,4,2,1,65,0,0
204199,-100,4,2,1,70,0,0
204399,-100,4,2,1,75,0,0
206199,-100,4,2,2,75,0,1
206399,-100,4,2,1,75,0,1
228599,-100,4,2,1,75,0,0
231799,-100,4,2,1,75,0,0

[Colours]
Combo1 : 128,255,255
Combo2 : 240,88,15
Combo3 : 118,46,239
Combo4 : 192,192,192

[HitObjects]
162,103,1399,6,0,L|134:18,1,90,4|8,0:0|0:0,0:0:0:0:
61,71,2199,2,0,L|90:157,1,90,0|8,0:0|0:0,0:0:0:0:
144,230,3000,1,0,0:0:0:0:
224,271,3398,2,0,P|268:273|309:254,1,90,8|0,0:0|0:0,0:0:0:0:
337,168,4199,1,8,0:0:0:0:
278,100,4599,6,0,P|233:98|192:117,1,90,0|8,0:0|0:0,0:0:0:0:
105,89,5399,2,0,P|103:133|121:174,1,90,0|8,0:0|0:0,0:0:0:0:
76,252,6199,2,0,L|265:289,1,180
341,304,7399,1,8,0:0:0:0:
430,315,7799,6,0,P|420:259|384:226,1,90,0|8,0:0|0:0,0:0:0:0:
311,220,8599,1,0,0:0:0:0:
368,151,8999,2,0,L|375:100,1,45,8|4,0:0|0:0,0:0:0:0:
426,33,9599,2,0,P|370:17|313:40,1,90,8|8,0:0|0:0,0:0:0:0:
286,95,10399,1,8,0:0:0:0:
325,224,10999,6,0,P|280:229|236:220,1,90,4|8,0:0|0:0,0:0:0:0:
150,192,11799,2,0,L|55:210,1,90,0|8,0:0|0:0,0:0:0:0:
32,123,12599,2,0,L|127:105,1,90,0|8,0:0|0:0,0:0:0:0:
208,89,13399,1,8,0:0:0:0:
295,72,13799,1,8,0:0:0:0:
382,89,14199,6,0,L|471:106,1,90,4|2,0:0|0:0,0:0:0:0:
482,195,14999,2,0,L|393:178,1,90,0|2,0:0|0:0,0:0:0:0:
310,144,15799,2,0,P|239:177|233:284,1,180
298,325,16999,1,2,0:0:0:0:
379,282,17399,6,0,P|394:240|386:196,1,90,0|2,0:0|0:0,0:0:0:0:
379,106,18199,2,0,L|291:126,1,90,0|2,0:0|0:0,0:0:0:0:
216,76,18999,2,0,P|129:92|79:164,1,180
115,246,20199,1,2,0:0:0:0:
204,242,20599,6,0,P|245:256|275:301,1,90,0|2,0:0|0:0,0:0:0:0:
362,284,21399,2,0,P|409:288|451:270,1,90,0|2,0:0|0:0,0:0:0:0:
481,189,22199,2,0,L|420:113,1,90,0|2,0:0|0:0,0:0:0:0:
368,48,22999,1,0,0:0:0:0:
280,29,23399,1,2,0:0:0:0:
191,44,23799,6,0,P|108:37|39:14,2,135,0|0|2,0:0|0:0|0:0,0:0:0:0:
193,133,25399,2,0,P|215:171|253:195,1,90,0|10,0:0|0:0,0:0:0:0:
284,280,26199,2,0,L|372:261,1,90,0|10,0:0|0:0,0:0:0:0:
461,275,26999,6,0,P|445:208|417:184,1,90,4|8,0:0|0:0,0:0:0:0:
404,108,27799,2,0,P|348:167|343:211,1,90,0|8,0:0|0:0,0:0:0:0:
372,261,28599,2,0,L|181:302,1,180
108,318,29799,1,8,0:0:0:0:
48,250,30199,6,0,P|66:215|77:162,1,90,0|8,0:0|0:0,0:0:0:0:
69,75,30999,2,0,L|168:48,1,90,0|8,0:0|0:0,0:0:0:0:
246,48,31799,2,0,P|346:62|432:43,1,180
488,107,32999,1,8,0:0:0:0:
467,194,33399,6,0,P|412:237|366:240,1,90,0|8,0:0|0:0,0:0:0:0:
379,331,34199,2,0,P|320:292|302:248,1,90,0|8,0:0|0:0,0:0:0:0:
222,288,34999,2,0,P|240:220|275:189,1,90,0|8,0:0|0:0,0:0:0:0:
214,125,35799,2,0,P|284:120|322:144,1,90,0|8,0:0|0:0,0:0:0:0:
340,209,36599,5,8,0:0:0:0:
285,332,37199,2,0,P|226:331|170:302,2,90,8|8|8,0:0|0:0|0:0,0:0:0:0:
259,200,38599,1,8,0:0:0:0:
214,125,38999,2,0,L|115:115,1,90,8|8,0:0|0:0,0:0:0:0:
139,27,39799,6,0,L|318:44,1,180,4|8,0:0|0:0,0:0:0:0:
372,116,40999,1,8,0:0:0:0:
318,188,41399,2,0,L|127:207,1,180,8|8,0:0|0:0,0:0:0:0:
69,148,42599,1,8,0:0:0:0:
17,221,42999,6,0,L|36:358,2,135,2|2|0,0:0|0:0|0:0,0:0:0:0:
106,211,44599,2,0,L|86:71,2,135,2|2|0,0:0|0:0|0:0,0:0:0:0:
79,296,46199,6,0,B|114:304|149:287|149:287|235:221,1,180,4|8,0:0|0:0,0:0:0:0:
306,166,47399,1,8,0:0:0:0:
284,78,47799,2,0,B|320:70|355:87|355:87|440:153,1,180,8|8,0:0|0:0,0:0:0:0:
465,238,48999,1,8,0:0:0:0:
403,304,49399,6,0,P|376:247|380:205,1,90,4|2,0:0|0:0,0:0:0:0:
292,186,50199,2,0,L|191:194,1,90,0|2,0:0|0:0,0:0:0:0:
123,149,50999,2,0,P|150:92|146:50,1,90,0|2,0:0|0:0,0:0:0:0:
239,52,51799,2,0,L|328:54,1,90,0|2,0:0|0:0,0:0:0:0:
368,136,52599,6,0,L|239:176,1,135,8|8,0:0|0:0,0:0:0:0:
209,260,53599,1,8,0:0:0:0:
289,299,53999,2,0,P|258:336|197:349,2,90,8|8|8,0:0|0:0|0:0,0:0:0:0:
464,155,55799,6,0,P|461:76|443:50,1,90,4|8,0:0|0:0,0:0:0:0:
374,39,56599,2,0,L|259:26,1,90,2|8,0:0|0:0,0:0:0:0:
195,24,57399,2,0,P|128:56|86:167,1,180,2|2,0:0|0:0,0:0:0:0:
105,237,58599,1,8,0:0:0:0:
173,297,58999,6,0,L|288:284,1,90,2|8,0:0|0:0,0:0:0:0:
278,199,59799,2,0,L|163:212,1,90,2|8,0:0|0:0,0:0:0:0:
203,121,60599,2,0,L|397:98,1,180,2|2,0:0|0:0,0:0:0:0:
471,87,61799,1,8,0:0:0:0:
472,176,62199,6,0,P|464:236|440:262,1,90,6|8,0:0|0:0,0:0:0:0:
409,339,62999,2,0,P|358:340|319:358,1,90,2|8,0:0|0:0,0:0:0:0:
248,305,63799,2,0,P|150:330|70:315,1,180,2|2,0:0|0:0,0:0:0:0:
21,242,64999,1,8,0:0:0:0:
37,153,65399,6,0,L|56:61,2,90,10|8|10,0:0|0:0|0:0,0:0:0:0:
107,211,66599,1,8,0:0:0:0:
177,269,66999,2,0,L|158:361,2,90,10|8|10,0:0|0:0|0:0,0:0:0:0:
193,180,68199,1,8,0:0:0:0:
263,238,68599,6,0,L|336:300,1,90,6|8,0:0|0:0,0:0:0:0:
389,227,69399,2,0,L|316:165,1,90,2|8,0:0|0:0,0:0:0:0:
259,105,70199,2,0,P|169:88|66:94,1,180,2|2,0:0|0:0,0:0:0:0:
47,174,71399,1,8,0:0:0:0:
82,256,71799,6,0,P|176:332|211:346,2,135,10|8|8,0:0|0:0|0:0,0:0:0:0:
162,215,73399,2,0,P|282:202|316:187,2,135,10|8|8,0:0|0:0|0:0,0:0:0:0:
196,131,74999,6,0,P|236:124|359:52,1,180,10|10,0:0|0:0,0:0:0:0:
445,44,76199,1,8,0:0:0:0:
496,117,76599,2,0,L|496:309,1,180,10|10,0:0|0:0,0:0:0:0:
409,320,77799,1,8,0:0:0:0:
374,236,78199,6,0,B|333:250|311:287|316:332|316:332|248:354,1,180,8|8,0:0|0:0,0:0:0:0:
173,331,79399,1,8,0:0:0:0:
102,275,79799,2,0,L|14:301,2,90,8|8|8,0:0|0:0|0:0,0:0:0:0:
66,192,80999,1,8,0:0:0:0:
44,105,81399,6,0,P|116:36|194:63,1,180,8|2,0:0|0:0,0:0:0:0:
257,107,82599,1,2,0:0:0:0:
329,55,82999,2,0,P|414:40|470:105,1,180,8|2,0:0|0:0,0:0:0:0:
489,195,84199,1,2,0:0:0:0:
471,285,84599,2,0,P|414:351|329:336,1,180,8|2,0:0|0:0,0:0:0:0:
257,283,85799,1,2,0:0:0:0:
186,336,86199,2,0,P|101:351|44:285,1,180,8|2,0:0|0:0,0:0:0:0:
98,114,87799,6,0,L|249:78,1,135,4|8,0:0|0:0,0:0:0:0:
300,26,88799,2,0,P|320:93|304:135,1,90,8|8,0:0|0:0,0:0:0:0:
344,244,89799,2,0,P|390:227|423:198,2,90,8|8|8,0:0|0:0|0:0,0:0:0:0:
256,192,90999,12,4,94199,0:0:0:0:
76,238,103799,6,0,P|112:210|135:172,1,90,4|2,0:0|0:0,0:0:0:0:
218,207,104600,2,0,P|235:249|236:293,1,90,0|2,0:0|0:0,0:0:0:0:
319,329,105399,2,0,P|394:284|418:200,1,180
394,114,106600,1,2,0:0:0:0:
306,89,107000,6,0,L|218:108,1,90,0|2,0:0|0:0,0:0:0:0:
130,83,107799,2,0,L|33:104,1,90,0|2,0:0|0:0,0:0:0:0:
40,192,108599,2,0,B|57:252|135:272|135:272|212:255,1,180
269,235,109799,1,2,0:0:0:0:
285,144,110199,6,0,P|240:148|203:171,1,90,0|2,0:0|0:0,0:0:0:0:
112,155,110999,2,0,P|116:199|139:237,1,90,0|2,0:0|0:0,0:0:0:0:
134,327,111799,2,0,L|223:316,2,90,0|2|0,0:0|0:0|0:0,0:0:0:0:
57,279,112999,1,2,0:0:0:0:
57,189,113399,6,0,P|93:108|186:48,1,180
256,48,114599,1,2,0:0:0:0:
347,54,114999,2,0,P|418:107|455:189,1,180,8|8,0:0|0:0,0:0:0:0:
455,279,116199,1,10,0:0:0:0:
390,342,116599,6,0,L|275:366,1,90,4|8,0:0|0:0,0:0:0:0:
222,317,117399,2,0,L|133:298,1,90,0|8,0:0|0:0,0:0:0:0:
45,317,118199,2,0,P|85:221|184:222,1,180
217,271,119399,1,8,0:0:0:0:
259,350,119799,6,0,P|296:315|306:268,1,90,0|8,0:0|0:0,0:0:0:0:
270,195,120599,2,0,P|216:178|176:188,1,90,0|8,0:0|0:0,0:0:0:0:
118,122,121399,2,0,P|194:92|303:112,1,180
369,147,122599,1,8,0:0:0:0:
450,185,122999,6,0,L|437:297,1,90,0|8,0:0|0:0,0:0:0:0:
387,348,123799,2,0,P|318:362|275:344,1,90,0|8,0:0|0:0,0:0:0:0:
211,348,124599,2,0,L|224:236,1,90,0|8,0:0|0:0,0:0:0:0:
192,172,125399,2,0,P|151:152|107:154,1,90,0|8,0:0|0:0,0:0:0:0:
30,201,126199,5,8,0:0:0:0:
113,307,126799,2,0,P|70:330|18:334,2,90,8|8|8,0:0|0:0|0:0,0:0:0:0:
164,183,128199,1,8,0:0:0:0:
242,227,128599,2,0,P|254:184|244:141,1,90,8|8,0:0|0:0,0:0:0:0:
167,92,129399,6,0,P|81:144|106:250,1,180,4|8,0:0|0:0,0:0:0:0:
143,279,130599,1,8,0:0:0:0:
141,368,130999,2,0,B|210:364|230:301|230:301|291:274,1,180,8|8,0:0|0:0,0:0:0:0:
314,191,132199,1,8,0:0:0:0:
390,238,132599,6,0,P|456:274|518:255,2,135,2|2|0,0:0|0:0|0:0,0:0:0:0:
463,186,134199,2,0,P|473:127|429:59,2,135,2|2|0,0:0|0:0|0:0,0:0:0:0:
385,140,135799,6,0,B|338:172|338:172|315:295,1,180,4|8,0:0|0:0,0:0:0:0:
256,360,136999,1,8,0:0:0:0:
196,293,137399,2,0,B|174:172|174:172|127:140,1,180,8|8,0:0|0:0,0:0:0:0:
51,90,138599,1,8,0:0:0:0:
26,178,138999,6,0,L|110:234,1,90,4|2,0:0|0:0,0:0:0:0:
112,317,139799,2,0,L|210:340,1,90,0|2,0:0|0:0,0:0:0:0:
292,338,140599,2,0,L|379:316,1,90,0|2,0:0|0:0,0:0:0:0:
391,227,141399,2,0,L|466:178,1,90,0|2,0:0|0:0,0:0:0:0:
400,116,142199,6,0,L|260:209,1,135,8|8,0:0|0:0,0:0:0:0:
199,173,143199,1,8,0:0:0:0:
227,86,143599,2,0,P|196:44|151:19,2,90,8|8|8,0:0|0:0|0:0,0:0:0:0:
428,189,145399,6,0,P|431:233|413:274,1,90,4|8,0:0|0:0,0:0:0:0:
342,217,146199,2,0,L|331:127,1,90,2|8,0:0|0:0,0:0:0:0:
335,37,146999,2,0,B|262:39|240:114|240:114|245:161,1,180,2|2,0:0|0:0,0:0:0:0:
259,250,148199,1,8,0:0:0:0:
192,310,148599,6,0,L|102:299,1,90,2|8,0:0|0:0,0:0:0:0:
103,209,149399,2,0,L|218:196,1,90,2|8,0:0|0:0,0:0:0:0:
192,108,150199,2,0,B|82:95|82:95|24:137,1,180,2|2,0:0|0:0,0:0:0:0:
27,225,151399,1,8,0:0:0:0:
95,283,151799,6,0,L|184:293,1,90,6|8,0:0|0:0,0:0:0:0:
267,256,152599,2,0,P|286:213|273:149,1,90,2|8,0:0|0:0,0:0:0:0:
221,105,153399,2,0,B|249:77|312:68|353:112|353:112|402:117,1,180,2|2,0:0|0:0,0:0:0:0:
469,81,154599,1,8,0:0:0:0:
460,170,154999,6,0,B|452:222|462:278,2,90,10|8|10,0:0|0:0|0:0,0:0:0:0:
373,143,156199,1,8,0:0:0:0:
286,170,156599,2,0,B|294:222|284:278,2,90,10|8|10,0:0|0:0|0:0,0:0:0:0:
199,143,157799,1,8,0:0:0:0:
112,170,158199,6,0,P|135:209|174:232,1,90,6|8,0:0|0:0,0:0:0:0:
263,211,158999,2,0,L|368:222,1,90,2|8,0:0|0:0,0:0:0:0:
437,244,159799,2,0,B|451:178|392:139|392:139|315:128,1,180,2|2,0:0|0:0,0:0:0:0:
245,123,160999,1,8,0:0:0:0:
155,116,161399,6,0,B|87:161|87:161|59:212,2,135,10|8|0,0:0|0:0|0:0,0:0:0:0:
221,177,162999,2,0,B|153:222|153:222|125:273,2,135,10|8|0,0:0|0:0|0:0,0:0:0:0:
295,126,164599,6,0,B|323:170|303:218|303:218|329:230|353:262|353:295,1,180,10|10,0:0|0:0,0:0:0:0:
263,299,165799,1,8,0:0:0:0:
181,338,166199,2,0,P|112:280|36:233,1,180,10|10,0:0|0:0,0:0:0:0:
29,143,167399,1,8,0:0:0:0:
35,53,167799,6,0,P|119:143|36:233,1,270,4|0,0:0|0:0,0:0:0:0:
36,323,169399,2,0,L|306:323,1,270,2|0,0:0|0:0,0:0:0:0:
396,323,170999,2,0,P|480:233|397:143,1,270,2|0,0:0|0:0,0:0:0:0:
391,234,172599,2,0,B|301:234|301:234|289:329|200:334|161:313,1,270,2|0,0:0|0:0,0:0:0:0:
210,233,174199,6,0,P|152:205|133:165,1,90,2|0,0:0|0:0,0:0:0:0:
220,144,174999,2,0,L|290:42,1,90,2|0,0:0|0:0,0:0:0:0:
194,18,175799,2,0,L|123:119,1,90,2|0,0:0|0:0,0:0:0:0:
139,184,176599,1,6,0:0:0:0:
318,178,177399,6,0,P|280:125|237:113,1,90,8|0,0:0|0:0,0:0:0:0:
204,47,178199,2,0,L|111:80,1,90,8|0,0:0|0:0,0:0:0:0:
34,47,178999,2,0,L|14:145,1,90,8|0,0:0|0:0,0:0:0:0:
35,223,179799,2,0,P|76:203|104:152,1,90,8|0,0:0|0:0,0:0:0:0:
119,77,180599,6,0,L|203:107,1,90,8|8,0:0|0:0,0:0:0:0:
287,74,181399,2,0,L|325:155,1,90,8|8,0:0|0:0,0:0:0:0:
411,187,182199,2,0,B|380:275|380:275|304:337,1,180,8|0,0:0|0:0,0:0:0:0:
223,343,183399,1,0,0:0:0:0:
145,296,183799,5,4,0:0:0:0:
31,272,196599,6,0,L|123:272,1,90,8|2,0:0|0:0,0:0:0:0:
166,194,197399,2,0,L|245:241,1,90,8|2,0:0|0:0,0:0:0:0:
333,248,198199,2,0,P|291:318|187:309,1,180,8|2,0:0|0:0,0:0:0:0:
244,241,199399,1,4,0:0:0:0:
293,166,199799,6,0,P|243:152|158:221,2,135,8|8|0,0:0|0:0|0:0,0:0:0:0:
379,188,201399,2,0,P|377:136|285:75,2,135,8|8|0,0:0|0:0|0:0,0:0:0:0:
256,192,202999,12,4,204399,0:0:0:0:
30,307,206199,6,0,P|74:306|118:319,1,90,4|8,0:0|0:0,0:0:0:0:
157,238,206999,2,0,P|202:237|246:225,1,90,2|8,0:0|0:0,0:0:0:0:
287,307,207799,2,0,B|377:316|377:316|426:303|440:259,1,180,2|2,0:0|0:0,0:0:0:0:
429,170,208999,1,8,0:0:0:0:
444,81,209399,6,0,P|390:90|355:120,1,90,2|8,0:0|0:0,0:0:0:0:
307,39,210199,2,0,P|275:83|271:129,1,90,2|8,0:0|0:0,0:0:0:0:
292,205,210999,2,0,B|240:221|192:171|192:171|151:169|108:195,1,180,2|2,0:0|0:0,0:0:0:0:
76,260,212199,1,8,0:0:0:0:
88,349,212599,6,0,P|136:341|191:357,1,90,6|8,0:0|0:0,0:0:0:0:
261,321,213399,2,0,L|245:221,1,90,2|8,0:0|0:0,0:0:0:0:
177,175,214199,2,0,B|139:171|109:191|109:191|53:185|23:131,1,180,2|2,0:0|0:0,0:0:0:0:
26,41,215399,1,8,0:0:0:0:
116,41,215799,6,0,P|151:69|193:85,1,90,10|8,0:0|0:0,0:0:0:0:
260,145,216599,2,0,P|309:147|351:136,1,90,10|8,0:0|0:0,0:0:0:0:
435,114,217399,2,0,L|446:203,1,90,10|8,0:0|0:0,0:0:0:0:
360,230,218199,2,0,L|349:319,1,90,10|8,0:0|0:0,0:0:0:0:
259,310,218999,6,0,P|214:302|179:271,1,90,6|8,0:0|0:0,0:0:0:0:
121,341,219799,2,0,P|94:303|92:257,1,90,2|8,0:0|0:0,0:0:0:0:
146,189,220599,2,0,B|216:170|253:218|253:218|277:204|318:195|353:220,1,180,2|2,0:0|0:0,0:0:0:0:
383,258,221799,1,8,0:0:0:0:
303,298,222199,6,0,B|211:333|166:256,2,135,10|8|8,0:0|0:0|0:0,0:0:0:0:
383,258,223799,2,0,B|467:220|520:300,2,135,10|8|8,0:0|0:0|0:0,0:0:0:0:
312,204,225399,6,0,P|214:169|140:116,1,180,10|10,0:0|0:0,0:0:0:0:
64,105,226599,1,8,0:0:0:0:
89,192,226999,2,0,P|148:259|189:339,1,180,10|10,0:0|0:0,0:0:0:0:
272,373,228199,1,8,0:0:0:0:
352,333,228599,6,0,L|441:324,1,90,8|8,0:0|0:0,0:0:0:0:
413,238,229399,2,0,L|324:247,1,90,8|8,0:0|0:0,0:0:0:0:
284,166,230199,2,0,L|184:175,1,90,8|8,0:0|0:0,0:0:0:0:
166,88,230999,2,0,L|255:79,1,90,8|8,0:0|0:0,0:0:0:0:
314,12,231799,6,0,B|347:43|345:86|345:86|414:88|469:138,1,180,8|2,0:0|0:0,0:0:0:0:
480,192,232999,1,2,0:0:0:0:
436,270,233399,2,0,B|414:296|345:298|345:298|347:341|314:372,1,180,8|2,0:0|0:0,0:0:0:0:
256,304,234599,1,2,0:0:0:0:
197,371,234999,2,0,B|165:341|167:298|167:298|98:296|75:270,1,180,8|2,0:0|0:0,0:0:0:0:
32,192,236199,1,2,0:0:0:0:
75,113,236599,2,0,B|98:88|167:86|167:86|165:43|197:12,1,180,8|2,0:0|0:0,0:0:0:0:
343,118,238199,6,0,L|490:173,1,135,4|8,0:0|0:0,0:0:0:0:
462,255,239199,2,0,L|377:223,1,90,8|8,0:0|0:0,0:0:0:0:
243,236,240199,2,0,L|158:204,2,90,8|8|8,0:0|0:0|0:0,0:0:0:0:
256,192,241399,12,0,242999,0:0:0:0:
349,103,244599,6,0,L|378:18,1,90,4|8,0:0|0:0,0:0:0:0:
450,71,245399,2,0,L|422:157,1,90,0|8,0:0|0:0,0:0:0:0:
368,230,246199,1,0,0:0:0:0:
287,271,246598,2,0,P|243:273|202:254,1,90,8|0,0:0|0:0,0:0:0:0:
175,168,247399,1,8,0:0:0:0:
234,100,247799,6,0,P|278:98|319:117,1,90,0|8,0:0|0:0,0:0:0:0:
407,89,248599,2,0,P|409:133|391:174,1,90,0|8,0:0|0:0,0:0:0:0:
436,252,249399,2,0,L|247:289,1,180
171,304,250599,1,8,0:0:0:0:
82,315,250999,6,0,P|92:259|128:226,1,90,0|8,0:0|0:0,0:0:0:0:
201,220,251799,1,0,0:0:0:0:
144,151,252199,2,0,L|137:100,1,45,8|4,0:0|0:0,0:0:0:0:
86,33,252799,2,0,P|142:17|199:40,1,90,8|8,0:0|0:0,0:0:0:0:
226,95,253599,1,8,0:0:0:0:
187,224,254199,6,0,P|232:229|276:220,1,90,4|8,0:0|0:0,0:0:0:0:
337,154,254999,2,0,P|361:191|363:236,1,90,0|8,0:0|0:0,0:0:0:0:
387,322,255799,2,0,L|294:352,1,90,0|8,0:0|0:0,0:0:0:0:
217,317,256599,2,0,L|64:366,1,135,8|8,0:0|0:0,0:0:0:0:
34,285,257599,6,0,L|78:271,1,45,8|8,0:0|0:0,0:0:0:0:
134,202,258199,2,0,L|176:188,1,45,8|8,0:0|0:0,0:0:0:0:
234,119,258799,2,0,L|278:105,1,45,8|8,0:0|0:0,0:0:0:0:
334,36,259399,2,0,L|376:22,1,45,8|8,0:0|0:0,0:0:0:0:
414,103,259999,2,0,L|457:90,2,45,8|8|8,0:0|0:0|0:0,0:0:0:0:
256,192,260599,12,4,263599,0:0:0:0:
