osu file format v14

[General]
AudioFilename: audio.ogg
AudioLeadIn: 0
PreviewTime: 55275
Countdown: 0
SampleSet: Soft
StackLeniency: 0.7
Mode: 3
LetterboxInBreaks: 0
SpecialStyle: 0
WidescreenStoryboard: 1

[Editor]
DistanceSpacing: 1.3
BeatDivisor: 4
GridSize: 4
TimelineZoom: 1.4

[Metadata]
Title:Amazing sky
TitleUnicode:Amazing sky
Artist:Kicco
ArtistUnicode:Kicco
Creator:MCPXiaoBai
Version:Normal
Source:タユタマ2 -you're the only one-
Tags:tayutama Lump of sugar galgame visual novel op opening short version japanese eroge vn video game pop jpop j-pop
BeatmapID:2793400
BeatmapSetID:1349143

[Difficulty]
HPDrainRate:7.5
CircleSize:4
OverallDifficulty:7.5
ApproachRate:9
SliderMultiplier:1.7
SliderTickRate:2

[Events]
//Background and Video events
0,0,"ev_a02_1.png",0,0
//Break Periods
//Storyboard Layer 0 (Background)
//Storyboard Layer 1 (Fail)
//Storyboard Layer 2 (Pass)
//Storyboard Layer 3 (Foreground)
//Storyboard Layer 4 (Overlay)
//Storyboard Sound Samples

[TimingPoints]
1575,400,4,2,1,75,1,0
55975,400,4,2,1,75,1,1
68175,-100,4,2,1,75,0,0
68775,-100,4,2,1,75,0,1
81175,-100,4,2,1,75,0,0
81575,-100,4,2,1,75,0,1
94375,-100,4,2,1,75,0,0

[HitObjects]
64,192,1575,128,2,1775:0:0:0:0:
320,192,1575,1,4,0:0:0:0:
448,192,1775,128,0,1975:0:0:0:0:
64,192,1975,128,8,2175:0:0:0:0:
192,192,1975,1,2,0:0:0:0:
320,192,2175,128,0,2375:0:0:0:0:
192,192,2375,128,2,2575:0:0:0:0:
320,192,2575,128,0,2775:0:0:0:0:
64,192,2775,1,2,0:0:0:0:
192,192,2775,1,8,0:0:0:0:
448,192,2975,1,0,0:0:0:0:
64,192,3175,1,2,0:0:0:0:
320,192,3375,128,0,3575:0:0:0:0:
64,192,3575,128,2,3775:0:0:0:0:
192,192,3575,1,8,0:0:0:0:
448,192,3775,128,0,3975:0:0:0:0:
192,192,3975,128,2,4175:0:0:0:0:
64,192,4175,128,0,4375:0:0:0:0:
320,192,4375,128,10,4575:0:0:0:0:
448,192,4575,128,0,5175:0:0:0:0:
192,192,4775,1,2,0:0:0:0:
64,192,5175,1,2,0:0:0:0:
192,192,5175,1,8,0:0:0:0:
320,192,5575,1,2,0:0:0:0:
192,192,5775,128,0,5975:0:0:0:0:
320,192,5975,1,2,0:0:0:0:
448,192,5975,128,8,6175:0:0:0:0:
64,192,6175,128,0,6375:0:0:0:0:
320,192,6375,1,2,0:0:0:0:
192,192,6575,128,0,6775:0:0:0:0:
64,192,6775,1,2,0:0:0:0:
448,192,6775,128,8,6975:0:0:0:0:
320,192,6975,128,0,7175:0:0:0:0:
192,192,7175,1,2,0:0:0:0:
448,192,7375,128,0,7575:0:0:0:0:
64,192,7575,128,2,7975:0:0:0:0:
192,192,7575,1,8,0:0:0:0:
448,192,7975,1,2,0:0:0:0:
192,192,8175,128,0,8375:0:0:0:0:
320,192,8375,128,2,8575:0:0:0:0:
448,192,8375,1,8,0:0:0:0:
64,192,8575,128,0,8775:0:0:0:0:
192,192,8775,128,2,8975:0:0:0:0:
448,192,8975,128,0,9175:0:0:0:0:
64,192,9175,1,2,0:0:0:0:
320,192,9175,128,8,9375:0:0:0:0:
192,192,9375,128,2,9575:0:0:0:0:
448,192,9375,1,0,0:0:0:0:
320,192,9775,128,8,9975:0:0:0:0:
448,192,9775,1,2,0:0:0:0:
64,192,9975,1,2,0:0:0:0:
192,192,9975,128,8,10175:0:0:0:0:
320,192,10175,1,8,0:0:0:0:
448,192,10175,128,2,10375:0:0:0:0:
64,192,10575,1,10,0:0:0:0:
320,192,10575,128,4,10975:0:0:0:0:
192,192,10975,128,8,11175:0:0:0:0:
64,192,11175,1,8,0:0:0:0:
448,192,11175,1,4,0:0:0:0:
192,192,11375,1,0,0:0:0:0:
64,192,11575,1,8,0:0:0:0:
320,192,11575,1,0,0:0:0:0:
448,192,11775,1,0,0:0:0:0:
192,192,11975,1,8,0:0:0:0:
320,192,11975,1,0,0:0:0:0:
64,192,12175,1,2,0:0:0:0:
192,192,12375,1,8,0:0:0:0:
448,192,12375,1,0,0:0:0:0:
320,192,12575,1,2,0:0:0:0:
64,192,12775,1,8,0:0:0:0:
192,192,12775,1,0,0:0:0:0:
448,192,12975,1,2,0:0:0:0:
192,192,13175,1,8,0:0:0:0:
320,192,13175,1,0,0:0:0:0:
64,192,13375,1,0,0:0:0:0:
192,192,13575,1,8,0:0:0:0:
448,192,13575,128,0,13775:0:0:0:0:
64,192,13775,128,2,13975:0:0:0:0:
320,192,13975,128,2,14175:0:0:0:0:
192,192,14175,128,8,14375:0:0:0:0:
64,192,14375,1,2,0:0:0:0:
448,192,14375,1,4,0:0:0:0:
320,192,14575,1,0,0:0:0:0:
192,192,14775,1,2,0:0:0:0:
448,192,14975,1,0,0:0:0:0:
64,192,15175,1,2,0:0:0:0:
192,192,15375,1,0,0:0:0:0:
320,192,15575,1,2,0:0:0:0:
448,192,15775,128,0,16175:0:0:0:0:
192,192,15975,1,2,0:0:0:0:
64,192,16175,128,0,16375:0:0:0:0:
320,192,16375,128,2,16575:0:0:0:0:
192,192,16575,128,0,16775:0:0:0:0:
64,192,16775,1,2,0:0:0:0:
448,192,16775,128,0,17175:0:0:0:0:
64,192,17175,1,2,0:0:0:0:
192,192,17375,1,0,0:0:0:0:
448,192,17575,1,2,0:0:0:0:
192,192,17775,1,0,0:0:0:0:
320,192,17975,1,2,0:0:0:0:
64,192,18175,1,0,0:0:0:0:
448,192,18375,1,2,0:0:0:0:
320,192,18575,1,0,0:0:0:0:
192,192,18775,1,2,0:0:0:0:
64,192,18975,128,0,19375:0:0:0:0:
320,192,19175,1,2,0:0:0:0:
448,192,19375,128,0,19575:0:0:0:0:
192,192,19575,128,2,19775:0:0:0:0:
320,192,19775,128,0,19975:0:0:0:0:
64,192,19975,128,2,20375:0:0:0:0:
448,192,19975,1,0,0:0:0:0:
448,192,20375,1,2,0:0:0:0:
192,192,20575,1,0,0:0:0:0:
64,192,20775,1,2,0:0:0:0:
320,192,20775,128,0,21175:0:0:0:0:
192,192,21175,1,2,0:0:0:0:
448,192,21375,1,0,0:0:0:0:
64,192,21575,1,2,0:0:0:0:
320,192,21775,1,0,0:0:0:0:
192,192,21975,1,2,0:0:0:0:
448,192,22175,1,0,0:0:0:0:
64,192,22375,128,2,22775:0:0:0:0:
320,192,22375,1,0,0:0:0:0:
192,192,22775,1,2,0:0:0:0:
448,192,22775,128,0,23175:0:0:0:0:
192,192,23175,128,2,23575:0:0:0:0:
320,192,23175,1,0,0:0:0:0:
64,192,23575,1,2,0:0:0:0:
320,192,23575,128,0,23975:0:0:0:0:
64,192,23975,128,2,24375:0:0:0:0:
448,192,23975,1,0,0:0:0:0:
448,192,24375,1,2,0:0:0:0:
192,192,24575,128,0,24775:0:0:0:0:
320,192,24775,1,2,0:0:0:0:
192,192,25175,1,2,0:0:0:0:
320,192,25175,128,0,25575:0:0:0:0:
64,192,25575,128,2,25975:0:0:0:0:
448,192,25575,1,0,0:0:0:0:
448,192,25975,1,2,0:0:0:0:
192,192,26175,1,0,0:0:0:0:
320,192,26375,1,2,0:0:0:0:
64,192,26575,1,8,0:0:0:0:
192,192,26575,1,0,0:0:0:0:
448,192,26775,1,2,0:0:0:0:
192,192,26975,1,8,0:0:0:0:
320,192,27075,1,8,0:0:0:0:
64,192,27175,1,2,0:0:0:0:
448,192,27175,1,4,0:0:0:0:
192,192,27375,1,0,0:0:0:0:
320,192,27575,1,8,0:0:0:0:
448,192,27575,1,0,0:0:0:0:
64,192,27775,1,0,0:0:0:0:
448,192,27975,1,2,0:0:0:0:
320,192,28175,1,2,0:0:0:0:
64,192,28375,1,8,0:0:0:0:
192,192,28375,1,0,0:0:0:0:
448,192,28575,128,2,28975:0:0:0:0:
192,192,28975,1,2,0:0:0:0:
64,192,29175,1,8,0:0:0:0:
320,192,29175,1,0,0:0:0:0:
448,192,29375,1,0,0:0:0:0:
192,192,29575,1,2,0:0:0:0:
320,192,29775,1,2,0:0:0:0:
64,192,29975,1,8,0:0:0:0:
448,192,29975,1,0,0:0:0:0:
192,192,30175,1,0,0:0:0:0:
320,192,30275,1,8,0:0:0:0:
448,192,30375,1,2,0:0:0:0:
320,192,30575,1,0,0:0:0:0:
64,192,30775,1,8,0:0:0:0:
192,192,30775,1,0,0:0:0:0:
448,192,30975,1,0,0:0:0:0:
64,192,31175,1,2,0:0:0:0:
192,192,31375,1,2,0:0:0:0:
320,192,31575,1,8,0:0:0:0:
448,192,31575,1,0,0:0:0:0:
64,192,31775,128,2,32175:0:0:0:0:
320,192,32175,1,2,0:0:0:0:
192,192,32375,1,8,0:0:0:0:
448,192,32375,1,0,0:0:0:0:
64,192,32575,1,0,0:0:0:0:
320,192,32775,1,2,0:0:0:0:
192,192,32975,1,2,0:0:0:0:
64,192,33175,1,8,0:0:0:0:
448,192,33175,128,0,33375:0:0:0:0:
320,192,33375,128,0,33575:0:0:0:0:
64,192,33575,128,2,33975:0:0:0:0:
320,192,33975,1,8,0:0:0:0:
448,192,33975,1,0,0:0:0:0:
192,192,34175,128,0,34375:0:0:0:0:
320,192,34375,1,2,0:0:0:0:
448,192,34575,128,2,34775:0:0:0:0:
64,192,34775,1,8,0:0:0:0:
192,192,34775,1,0,0:0:0:0:
320,192,34975,128,2,35375:0:0:0:0:
448,192,35375,1,2,0:0:0:0:
64,192,35575,128,8,35975:0:0:0:0:
192,192,35575,1,0,0:0:0:0:
448,192,35975,1,2,0:0:0:0:
192,192,36175,1,2,0:0:0:0:
320,192,36375,1,8,0:0:0:0:
448,192,36375,1,0,0:0:0:0:
64,192,36775,1,8,0:0:0:0:
192,192,36775,1,0,0:0:0:0:
448,192,36975,1,2,0:0:0:0:
64,192,37175,1,2,0:0:0:0:
320,192,37375,1,8,0:0:0:0:
448,192,37375,1,0,0:0:0:0:
192,192,37575,1,2,0:0:0:0:
64,192,37775,1,8,0:0:0:0:
320,192,37775,1,0,0:0:0:0:
448,192,37975,1,2,0:0:0:0:
192,192,38175,1,8,0:0:0:0:
320,192,38175,1,0,0:0:0:0:
64,192,38575,128,8,38775:0:0:0:0:
192,192,38575,1,0,0:0:0:0:
320,192,38775,128,8,38975:0:0:0:0:
192,192,38975,128,2,39175:0:0:0:0:
448,192,39175,128,8,39375:0:0:0:0:
320,192,39375,128,2,39575:0:0:0:0:
192,192,39575,128,2,39775:0:0:0:0:
64,192,39775,128,8,39975:0:0:0:0:
320,192,39975,1,2,0:0:0:0:
448,192,39975,1,4,0:0:0:0:
192,192,40175,1,0,0:0:0:0:
64,192,40375,1,8,0:0:0:0:
320,192,40375,1,0,0:0:0:0:
192,192,40575,1,0,0:0:0:0:
64,192,40775,1,8,0:0:0:0:
448,192,40775,1,0,0:0:0:0:
320,192,40975,1,2,0:0:0:0:
192,192,41175,1,8,0:0:0:0:
448,192,41175,1,0,0:0:0:0:
320,192,41375,1,2,0:0:0:0:
64,192,41575,128,8,41975:0:0:0:0:
192,192,41575,1,0,0:0:0:0:
320,192,41975,1,8,0:0:0:0:
448,192,41975,1,0,0:0:0:0:
192,192,42175,1,0,0:0:0:0:
64,192,42375,1,8,0:0:0:0:
448,192,42375,1,0,0:0:0:0:
320,192,42575,1,2,0:0:0:0:
64,192,42775,1,8,0:0:0:0:
192,192,42775,1,0,0:0:0:0:
320,192,42975,1,2,0:0:0:0:
192,192,43175,1,2,0:0:0:0:
448,192,43175,128,4,43575:0:0:0:0:
64,192,43575,1,8,0:0:0:0:
320,192,43575,1,0,0:0:0:0:
192,192,43775,1,0,0:0:0:0:
448,192,43975,1,2,0:0:0:0:
320,192,44175,1,2,0:0:0:0:
64,192,44375,1,8,0:0:0:0:
448,192,44375,1,0,0:0:0:0:
192,192,44575,1,0,0:0:0:0:
64,192,44775,128,2,45175:0:0:0:0:
320,192,44775,1,0,0:0:0:0:
192,192,45175,1,8,0:0:0:0:
448,192,45175,1,0,0:0:0:0:
320,192,45375,1,0,0:0:0:0:
64,192,45575,1,2,0:0:0:0:
448,192,45775,1,2,0:0:0:0:
64,192,45975,1,8,0:0:0:0:
320,192,45975,1,0,0:0:0:0:
192,192,46175,1,2,0:0:0:0:
64,192,46375,1,8,0:0:0:0:
448,192,46375,1,4,0:0:0:0:
320,192,46575,1,0,0:0:0:0:
192,192,46775,1,8,0:0:0:0:
448,192,46775,1,0,0:0:0:0:
320,192,46975,1,0,0:0:0:0:
64,192,47175,1,8,0:0:0:0:
448,192,47175,1,0,0:0:0:0:
192,192,47375,1,2,0:0:0:0:
64,192,47575,1,8,0:0:0:0:
320,192,47575,1,0,0:0:0:0:
192,192,47775,1,2,0:0:0:0:
320,192,47975,1,8,0:0:0:0:
448,192,47975,128,0,48375:0:0:0:0:
64,192,48375,1,8,0:0:0:0:
192,192,48375,1,0,0:0:0:0:
320,192,48575,1,0,0:0:0:0:
64,192,48775,1,8,0:0:0:0:
448,192,48775,1,0,0:0:0:0:
192,192,48975,1,2,0:0:0:0:
320,192,49175,1,8,0:0:0:0:
448,192,49175,1,0,0:0:0:0:
192,192,49375,1,2,0:0:0:0:
64,192,49575,128,2,49975:0:0:0:0:
320,192,49575,1,4,0:0:0:0:
192,192,49975,1,8,0:0:0:0:
448,192,49975,1,0,0:0:0:0:
320,192,50175,1,0,0:0:0:0:
448,192,50375,1,2,0:0:0:0:
64,192,50575,1,2,0:0:0:0:
192,192,50775,1,8,0:0:0:0:
448,192,50775,1,0,0:0:0:0:
320,192,50975,1,0,0:0:0:0:
64,192,51175,1,2,0:0:0:0:
192,192,51175,1,0,0:0:0:0:
64,192,51575,1,8,0:0:0:0:
320,192,51575,1,0,0:0:0:0:
192,192,51775,1,0,0:0:0:0:
64,192,51975,1,2,0:0:0:0:
448,192,52175,1,2,0:0:0:0:
64,192,52375,1,8,0:0:0:0:
320,192,52375,1,0,0:0:0:0:
192,192,52575,1,2,0:0:0:0:
320,192,52775,1,2,0:0:0:0:
448,192,52775,1,0,0:0:0:0:
64,192,52975,1,2,0:0:0:0:
320,192,53175,1,2,0:0:0:0:
192,192,53375,1,2,0:0:0:0:
448,192,53575,1,2,0:0:0:0:
64,192,53775,1,2,0:0:0:0:
320,192,53975,1,2,0:0:0:0:
64,192,54175,128,2,54575:0:0:0:0:
192,192,54175,1,8,0:0:0:0:
320,192,54575,1,8,0:0:0:0:
448,192,54575,1,2,0:0:0:0:
64,192,54775,1,8,0:0:0:0:
192,192,54775,1,2,0:0:0:0:
320,192,54975,1,8,0:0:0:0:
448,192,54975,1,2,0:0:0:0:
64,192,55175,1,2,0:0:0:0:
192,192,55375,1,8,0:0:0:0:
320,192,55375,1,0,0:0:0:0:
448,192,55575,1,8,0:0:0:0:
320,192,55675,1,8,0:0:0:0:
64,192,55775,1,8,0:0:0:0:
192,192,55875,1,8,0:0:0:0:
320,192,55975,1,2,0:0:0:0:
448,192,55975,128,4,56375:0:0:0:0:
64,192,56375,1,8,0:0:0:0:
192,192,56375,128,2,56775:0:0:0:0:
64,192,56775,128,2,57175:0:0:0:0:
448,192,56775,1,0,0:0:0:0:
320,192,57175,1,2,0:0:0:0:
448,192,57175,128,8,57375:0:0:0:0:
192,192,57375,128,0,57575:0:0:0:0:
320,192,57575,1,2,0:0:0:0:
64,192,57775,128,0,58175:0:0:0:0:
320,192,57975,1,2,0:0:0:0:
448,192,57975,1,8,0:0:0:0:
448,192,58175,128,0,58375:0:0:0:0:
192,192,58375,128,2,58575:0:0:0:0:
320,192,58575,128,0,58775:0:0:0:0:
64,192,58775,128,2,58975:0:0:0:0:
192,192,58775,1,8,0:0:0:0:
448,192,58975,128,0,59175:0:0:0:0:
64,192,59175,128,2,59575:0:0:0:0:
192,192,59175,1,0,0:0:0:0:
320,192,59575,128,2,59975:0:0:0:0:
448,192,59575,1,8,0:0:0:0:
64,192,59975,1,2,0:0:0:0:
448,192,59975,128,0,60375:0:0:0:0:
64,192,60375,128,2,60575:0:0:0:0:
192,192,60375,1,8,0:0:0:0:
320,192,60575,128,0,60775:0:0:0:0:
192,192,60775,1,2,0:0:0:0:
64,192,60975,128,0,61375:0:0:0:0:
320,192,61175,1,2,0:0:0:0:
448,192,61175,1,8,0:0:0:0:
448,192,61375,128,0,61975:0:0:0:0:
192,192,61575,1,2,0:0:0:0:
64,192,61975,1,2,0:0:0:0:
192,192,61975,1,8,0:0:0:0:
320,192,62175,1,0,0:0:0:0:
64,192,62375,128,2,62775:0:0:0:0:
192,192,62375,1,0,0:0:0:0:
320,192,62775,128,2,63175:0:0:0:0:
448,192,62775,1,8,0:0:0:0:
64,192,63175,1,2,0:0:0:0:
192,192,63175,128,0,63575:0:0:0:0:
320,192,63575,1,2,0:0:0:0:
448,192,63575,128,8,63775:0:0:0:0:
64,192,63775,128,0,64375:0:0:0:0:
320,192,63975,1,2,0:0:0:0:
192,192,64375,1,2,0:0:0:0:
448,192,64375,1,8,0:0:0:0:
320,192,64575,128,0,64975:0:0:0:0:
192,192,64775,1,2,0:0:0:0:
64,192,64975,128,0,65175:0:0:0:0:
192,192,65175,128,2,65375:0:0:0:0:
448,192,65175,1,8,0:0:0:0:
320,192,65375,128,0,65575:0:0:0:0:
64,192,65575,1,2,0:0:0:0:
448,192,65575,128,0,65975:0:0:0:0:
64,192,65975,1,2,0:0:0:0:
192,192,65975,1,8,0:0:0:0:
320,192,66175,128,0,66775:0:0:0:0:
192,192,66375,1,2,0:0:0:0:
64,192,66775,1,2,0:0:0:0:
448,192,66775,1,8,0:0:0:0:
320,192,67175,1,2,0:0:0:0:
448,192,67175,1,0,0:0:0:0:
64,192,67375,1,8,0:0:0:0:
192,192,67375,1,0,0:0:0:0:
320,192,67575,1,8,0:0:0:0:
448,192,67575,1,2,0:0:0:0:
64,192,67775,1,0,0:0:0:0:
192,192,67975,1,2,0:0:0:0:
448,192,67975,1,8,0:0:0:0:
320,192,68175,1,0,0:0:0:0:
64,192,68375,1,8,0:0:0:0:
192,192,68375,1,2,0:0:0:0:
320,192,68575,1,8,0:0:0:0:
192,192,68675,1,8,0:0:0:0:
64,192,68775,1,2,0:0:0:0:
448,192,68775,128,4,69175:0:0:0:0:
192,192,69175,128,8,69575:0:0:0:0:
320,192,69175,1,2,0:0:0:0:
64,192,69575,1,2,0:0:0:0:
320,192,69575,128,0,69975:0:0:0:0:
64,192,69975,128,2,70175:0:0:0:0:
192,192,69975,1,8,0:0:0:0:
448,192,70175,128,0,70375:0:0:0:0:
192,192,70375,1,2,0:0:0:0:
320,192,70575,128,0,70975:0:0:0:0:
64,192,70775,1,2,0:0:0:0:
192,192,70775,1,8,0:0:0:0:
448,192,70975,1,0,0:0:0:0:
64,192,71175,128,2,71575:0:0:0:0:
192,192,71175,1,0,0:0:0:0:
320,192,71575,1,2,0:0:0:0:
448,192,71575,128,8,71975:0:0:0:0:
64,192,71975,1,4,0:0:0:0:
192,192,71975,128,8,72375:0:0:0:0:
320,192,72175,1,2,0:0:0:0:
448,192,72375,1,2,0:0:0:0:
64,192,72575,1,8,0:0:0:0:
192,192,72575,1,4,0:0:0:0:
320,192,72775,128,0,73175:0:0:0:0:
192,192,72975,1,2,0:0:0:0:
64,192,73175,1,8,0:0:0:0:
448,192,73175,1,0,0:0:0:0:
192,192,73375,1,2,0:0:0:0:
320,192,73575,1,8,0:0:0:0:
448,192,73575,1,4,0:0:0:0:
64,192,73775,128,2,74175:0:0:0:0:
320,192,73975,1,2,0:0:0:0:
192,192,74175,1,8,0:0:0:0:
448,192,74175,128,4,74575:0:0:0:0:
320,192,74575,1,2,0:0:0:0:
64,192,74775,1,8,0:0:0:0:
192,192,74875,1,0,0:0:0:0:
448,192,74975,1,8,0:0:0:0:
320,192,75075,1,8,0:0:0:0:
64,192,75175,128,2,75575:0:0:0:0:
192,192,75175,1,4,0:0:0:0:
320,192,75575,1,8,0:0:0:0:
448,192,75575,1,2,0:0:0:0:
192,192,75775,128,0,76175:0:0:0:0:
320,192,75975,1,2,0:0:0:0:
448,192,76175,128,0,76575:0:0:0:0:
64,192,76375,1,2,0:0:0:0:
192,192,76375,1,8,0:0:0:0:
320,192,76575,128,2,76975:0:0:0:0:
64,192,76975,1,8,0:0:0:0:
448,192,76975,1,2,0:0:0:0:
192,192,77175,128,10,77375:0:0:0:0:
320,192,77175,1,4,0:0:0:0:
64,192,77375,1,8,0:0:0:0:
448,192,77375,128,0,77575:0:0:0:0:
320,192,77575,128,8,77775:0:0:0:0:
64,192,77775,128,2,77975:0:0:0:0:
192,192,77775,1,0,0:0:0:0:
320,192,77975,128,8,78175:0:0:0:0:
448,192,77975,1,0,0:0:0:0:
192,192,78175,128,2,78375:0:0:0:0:
64,192,78375,128,8,78775:0:0:0:0:
448,192,78375,1,4,0:0:0:0:
320,192,78775,1,8,0:0:0:0:
448,192,78775,1,0,0:0:0:0:
64,192,78975,1,0,0:0:0:0:
192,192,79175,1,8,0:0:0:0:
320,192,79175,1,0,0:0:0:0:
448,192,79375,1,2,0:0:0:0:
64,192,79575,1,8,0:0:0:0:
192,192,79575,1,0,0:0:0:0:
320,192,79775,1,2,0:0:0:0:
64,192,79975,1,8,0:0:0:0:
448,192,79975,1,0,0:0:0:0:
192,192,80175,1,2,0:0:0:0:
320,192,80375,1,8,0:0:0:0:
448,192,80375,1,0,0:0:0:0:
64,192,80575,1,0,0:0:0:0:
192,192,80775,1,8,0:0:0:0:
320,192,80775,1,0,0:0:0:0:
448,192,80975,1,2,0:0:0:0:
64,192,81175,1,8,0:0:0:0:
192,192,81275,1,8,0:0:0:0:
448,192,81375,1,8,0:0:0:0:
320,192,81475,1,8,0:0:0:0:
64,192,81575,128,2,81975:0:0:0:0:
192,192,81575,1,4,0:0:0:0:
320,192,81975,128,8,82375:0:0:0:0:
448,192,81975,1,2,0:0:0:0:
64,192,82375,1,2,0:0:0:0:
192,192,82375,128,0,82775:0:0:0:0:
320,192,82775,1,2,0:0:0:0:
448,192,82775,128,8,83175:0:0:0:0:
64,192,83175,128,2,83575:0:0:0:0:
192,192,83175,1,0,0:0:0:0:
320,192,83575,128,2,83775:0:0:0:0:
448,192,83575,1,8,0:0:0:0:
192,192,83775,128,0,84175:0:0:0:0:
448,192,83975,1,2,0:0:0:0:
64,192,84175,128,0,84375:0:0:0:0:
320,192,84375,1,2,0:0:0:0:
448,192,84375,1,8,0:0:0:0:
192,192,84575,1,0,0:0:0:0:
64,192,84775,1,2,0:0:0:0:
448,192,84775,128,0,85175:0:0:0:0:
192,192,85175,128,2,85575:0:0:0:0:
320,192,85175,1,8,0:0:0:0:
64,192,85575,1,2,0:0:0:0:
320,192,85575,128,0,85975:0:0:0:0:
64,192,85975,128,2,86375:0:0:0:0:
448,192,85975,1,8,0:0:0:0:
192,192,86375,1,2,0:0:0:0:
448,192,86375,128,0,86775:0:0:0:0:
64,192,86775,1,2,0:0:0:0:
192,192,86775,128,8,86975:0:0:0:0:
320,192,86975,128,0,87575:0:0:0:0:
64,192,87175,1,2,0:0:0:0:
64,192,87575,1,2,0:0:0:0:
448,192,87575,1,8,0:0:0:0:
192,192,87775,1,0,0:0:0:0:
320,192,87975,1,8,0:0:0:0:
448,192,87975,128,4,88175:0:0:0:0:
192,192,88175,128,2,88375:0:0:0:0:
320,192,88375,128,2,88575:0:0:0:0:
64,192,88575,128,8,88775:0:0:0:0:
192,192,88575,1,4,0:0:0:0:
320,192,88975,1,8,0:0:0:0:
448,192,88975,128,4,89175:0:0:0:0:
64,192,89375,1,8,0:0:0:0:
192,192,89375,128,4,89575:0:0:0:0:
64,192,89975,128,8,90175:0:0:0:0:
192,192,89975,1,4,0:0:0:0:
320,192,90375,128,8,90575:0:0:0:0:
448,192,90375,1,0,0:0:0:0:
64,192,90575,1,2,0:0:0:0:
448,192,90775,1,8,0:0:0:0:
320,192,90875,1,8,0:0:0:0:
64,192,90975,1,8,0:0:0:0:
192,192,91075,1,8,0:0:0:0:
320,192,91175,1,4,0:0:0:0:
448,192,91175,128,8,91575:0:0:0:0:
64,192,91575,1,8,0:0:0:0:
192,192,91575,1,0,0:0:0:0:
448,192,91775,1,0,0:0:0:0:
192,192,91975,1,8,0:0:0:0:
320,192,91975,1,0,0:0:0:0:
64,192,92175,1,2,0:0:0:0:
320,192,92375,1,8,0:0:0:0:
448,192,92375,1,0,0:0:0:0:
192,192,92575,1,2,0:0:0:0:
64,192,92775,1,8,0:0:0:0:
448,192,92775,1,0,0:0:0:0:
320,192,92975,1,2,0:0:0:0:
64,192,93175,1,8,0:0:0:0:
192,192,93175,1,0,0:0:0:0:
448,192,93375,1,0,0:0:0:0:
192,192,93575,1,8,0:0:0:0:
320,192,93575,1,2,0:0:0:0:
64,192,93775,1,10,0:0:0:0:
448,192,93975,1,10,0:0:0:0:
320,192,94075,1,0,0:0:0:0:
64,192,94175,1,10,0:0:0:0:
192,192,94275,1,8,0:0:0:0:
320,192,94375,1,2,0:0:0:0:
448,192,94375,128,4,94575:0:0:0:0:
64,192,94575,128,0,94775:0:0:0:0:
320,192,94775,128,8,94975:0:0:0:0:
448,192,94775,1,2,0:0:0:0:
64,192,94975,128,0,95175:0:0:0:0:
448,192,95175,128,2,95375:0:0:0:0:
192,192,95375,128,0,95575:0:0:0:0:
320,192,95575,1,2,0:0:0:0:
448,192,95575,1,8,0:0:0:0:
64,192,95775,1,0,0:0:0:0:
448,192,95975,1,2,0:0:0:0:
192,192,96175,128,0,96375:0:0:0:0:
320,192,96375,1,2,0:0:0:0:
448,192,96375,128,8,96575:0:0:0:0:
64,192,96575,128,0,96775:0:0:0:0:
320,192,96775,128,2,96975:0:0:0:0:
448,192,96975,128,0,97175:0:0:0:0:
192,192,97175,128,10,97375:0:0:0:0:
64,192,97375,128,0,97975:0:0:0:0:
320,192,97575,1,2,0:0:0:0:
320,192,97975,1,2,0:0:0:0:
448,192,97975,1,8,0:0:0:0:
192,192,98375,1,2,0:0:0:0:
320,192,98575,128,0,98775:0:0:0:0:
64,192,98775,128,2,98975:0:0:0:0:
192,192,98775,1,8,0:0:0:0:
448,192,98975,128,0,99175:0:0:0:0:
192,192,99175,1,2,0:0:0:0:
320,192,99375,128,0,99575:0:0:0:0:
64,192,99575,128,2,99775:0:0:0:0:
448,192,99575,1,8,0:0:0:0:
192,192,99775,128,0,99975:0:0:0:0:
320,192,99975,1,2,0:0:0:0:
64,192,100175,128,0,100375:0:0:0:0:
320,192,100375,1,2,0:0:0:0:
448,192,100375,128,8,100775:0:0:0:0:
64,192,100775,1,2,0:0:0:0:
320,192,100975,128,0,101175:0:0:0:0:
64,192,101175,1,8,0:0:0:0:
192,192,101175,128,2,101375:0:0:0:0:
448,192,101375,128,0,101575:0:0:0:0:
320,192,101575,128,2,101775:0:0:0:0:
64,192,101775,128,0,101975:0:0:0:0:
192,192,101975,128,8,102175:0:0:0:0:
448,192,101975,1,2,0:0:0:0:
64,192,102175,1,2,0:0:0:0:
320,192,102175,128,0,102375:0:0:0:0:
64,192,102575,1,8,0:0:0:0:
192,192,102575,128,2,102775:0:0:0:0:
320,192,102775,128,8,102975:0:0:0:0:
448,192,102775,1,2,0:0:0:0:
64,192,102975,128,2,103175:0:0:0:0:
192,192,102975,1,8,0:0:0:0:
192,192,103375,1,10,0:0:0:0:
448,192,103375,128,4,103975:0:0:0:0:
320,192,103775,1,8,0:0:0:0:
64,192,103975,1,2,0:0:0:0:
192,192,103975,1,4,0:0:0:0:
320,192,104175,1,0,0:0:0:0:
192,192,104375,1,8,0:0:0:0:
448,192,104375,1,0,0:0:0:0:
64,192,104575,1,0,0:0:0:0:
192,192,104775,1,8,0:0:0:0:
320,192,104775,1,0,0:0:0:0:
448,192,104975,1,2,0:0:0:0:
64,192,105175,1,8,0:0:0:0:
320,192,105175,1,0,0:0:0:0:
192,192,105375,1,2,0:0:0:0:
320,192,105575,1,8,0:0:0:0:
448,192,105575,1,0,0:0:0:0:
64,192,105775,1,2,0:0:0:0:
192,192,105975,1,8,0:0:0:0:
320,192,105975,1,0,0:0:0:0:
448,192,106175,1,0,0:0:0:0:
64,192,106375,128,8,106575:0:0:0:0:
320,192,106375,1,0,0:0:0:0:
448,192,106575,128,2,106775:0:0:0:0:
192,192,106775,128,8,106975:0:0:0:0:
320,192,106975,128,2,107175:0:0:0:0:
64,192,107375,1,8,0:0:0:0:
192,192,107375,1,4,0:0:0:0:
64,192,107575,1,4,0:0:0:0:
192,192,107575,1,2,0:0:0:0:
320,192,107975,1,8,0:0:0:0:
448,192,107975,1,4,0:0:0:0:
320,192,108175,1,4,0:0:0:0:
448,192,108175,1,2,0:0:0:0:
64,192,108575,1,8,0:0:0:0:
320,192,108575,1,4,0:0:0:0:
64,192,108775,1,4,0:0:0:0:
320,192,108775,1,2,0:0:0:0:
192,192,109175,1,8,0:0:0:0:
448,192,109175,1,4,0:0:0:0:
192,192,109375,1,4,0:0:0:0:
448,192,109375,1,2,0:0:0:0:
64,192,109775,1,8,0:0:0:0:
448,192,109775,1,4,0:0:0:0:
320,192,109975,1,2,0:0:0:0:
64,192,110175,128,8,112775:0:0:0:0:
192,192,110175,1,4,0:0:0:0:
320,192,112775,1,8,0:0:0:0:
448,192,112775,128,0,112975:0:0:0:0:
192,192,112975,128,8,113175:0:0:0:0:
320,192,113175,128,2,113375:0:0:0:0:
64,192,113375,1,8,0:0:0:0:
448,192,113375,128,0,113775:0:0:0:0:
