osu file format v14

[General]
AudioFilename: audio.ogg
AudioLeadIn: 0
PreviewTime: 55275
Countdown: 0
SampleSet: Soft
StackLeniency: 0.7
Mode: 3
LetterboxInBreaks: 0
SpecialStyle: 0
WidescreenStoryboard: 1

[Editor]
DistanceSpacing: 1.3
BeatDivisor: 4
GridSize: 4
TimelineZoom: 1.7

[Metadata]
Title:Amazing sky
TitleUnicode:Amazing sky
Artist:Kicco
ArtistUnicode:Kicco
Creator:MCPXiaoBai
Version:Hard
Source:タユタマ2 -you're the only one-
Tags:tayutama Lump of sugar galgame visual novel op opening short version japanese eroge vn video game pop jpop j-pop
BeatmapID:2793398
BeatmapSetID:1349143

[Difficulty]
HPDrainRate:8
CircleSize:4
OverallDifficulty:8
ApproachRate:9
SliderMultiplier:1.7
SliderTickRate:2

[Events]
//Background and Video events
0,0,"ev_a02_1.png",0,0
//Break Periods
//Storyboard Layer 0 (Background)
//Storyboard Layer 1 (Fail)
//Storyboard Layer 2 (Pass)
//Storyboard Layer 3 (Foreground)
//Storyboard Layer 4 (Overlay)
//Storyboard Sound Samples

[TimingPoints]
1575,400,4,2,1,75,1,0
9775,-166.666666666667,4,2,1,75,0,0
9875,-71.4285714285714,4,2,1,75,0,0
9975,-166.666666666667,4,2,1,75,0,0
10075,-71.4285714285714,4,2,1,75,0,0
10175,-166.666666666667,4,2,1,75,0,0
10275,-71.4285714285714,4,2,1,75,0,0
10375,-100,4,2,1,75,0,0
54575,-166.666666666667,4,2,1,75,0,0
54675,-71.4285714285714,4,2,1,75,0,0
54775,-166.666666666667,4,2,1,75,0,0
54875,-71.4285714285714,4,2,1,75,0,0
54975,-166.666666666667,4,2,1,75,0,0
55075,-71.4285714285714,4,2,1,75,0,0
55175,-100,4,2,1,75,0,0
55975,400,4,2,1,75,1,1
68175,-100,4,2,1,75,0,0
68775,-100,4,2,1,75,0,1
81175,-100,4,2,1,75,0,0
81575,-100,4,2,1,75,0,1
94375,-100,4,2,1,75,0,0
102575,-166.666666666667,4,2,1,75,0,0
102675,-71.4285714285714,4,2,1,75,0,0
102775,-166.666666666667,4,2,1,75,0,0
102875,-71.4285714285714,4,2,1,75,0,0
102975,-166.666666666667,4,2,1,75,0,0
103075,-71.4285714285714,4,2,1,75,0,0
103175,-100,4,2,1,75,0,0
107375,-166.666666666667,4,2,1,75,0,0
107475,-71.4285714285715,4,2,1,75,0,0
107575,-166.666666666667,4,2,1,75,0,0
107675,-71.4285714285715,4,2,1,75,0,0
107775,-100,4,2,1,75,0,0
107975,-166.666666666667,4,2,1,75,0,0
108075,-71.4285714285715,4,2,1,75,0,0
108175,-166.666666666667,4,2,1,75,0,0
108275,-71.4285714285715,4,2,1,75,0,0
108375,-100,4,2,1,75,0,0
108575,-166.666666666667,4,2,1,75,0,0
108675,-71.4285714285715,4,2,1,75,0,0
108775,-166.666666666667,4,2,1,75,0,0
108875,-71.4285714285715,4,2,1,75,0,0
108975,-100,4,2,1,75,0,0
109175,-166.666666666667,4,2,1,75,0,0
109275,-71.4285714285715,4,2,1,75,0,0
109375,-166.666666666667,4,2,1,75,0,0
109475,-71.4285714285715,4,2,1,75,0,0
109575,-100,4,2,1,75,0,0
109775,-166.666666666667,4,2,1,75,0,0
109875,-71.4285714285715,4,2,1,75,0,0
109975,-166.666666666667,4,2,1,75,0,0
110075,-71.4285714285715,4,2,1,75,0,0
110175,-100,4,2,1,75,0,0

[HitObjects]
64,192,1575,128,2,1775:0:0:0:0:
320,192,1575,1,4,0:0:0:0:
448,192,1575,1,0,0:0:0:0:
192,192,1775,128,0,1975:0:0:0:0:
320,192,1975,128,8,2175:0:0:0:0:
448,192,1975,1,2,0:0:0:0:
64,192,2175,128,0,2375:0:0:0:0:
192,192,2375,128,2,2575:0:0:0:0:
448,192,2375,1,0,0:0:0:0:
320,192,2575,128,0,3375:0:0:0:0:
64,192,2775,1,2,0:0:0:0:
192,192,2775,1,8,0:0:0:0:
448,192,2975,1,0,0:0:0:0:
64,192,3175,1,2,0:0:0:0:
192,192,3175,1,0,0:0:0:0:
448,192,3375,1,0,0:0:0:0:
192,192,3475,1,0,0:0:0:0:
64,192,3575,128,2,3775:0:0:0:0:
448,192,3575,1,8,0:0:0:0:
320,192,3775,128,0,3975:0:0:0:0:
64,192,3975,128,2,4175:0:0:0:0:
192,192,3975,1,0,0:0:0:0:
448,192,4175,128,0,4375:0:0:0:0:
64,192,4375,1,2,0:0:0:0:
320,192,4375,1,8,0:0:0:0:
192,192,4475,1,0,0:0:0:0:
320,192,4575,1,0,0:0:0:0:
192,192,4675,1,0,0:0:0:0:
64,192,4775,128,2,5575:0:0:0:0:
448,192,4775,1,0,0:0:0:0:
320,192,4975,1,0,0:0:0:0:
192,192,5175,1,2,0:0:0:0:
448,192,5175,1,8,0:0:0:0:
320,192,5375,1,0,0:0:0:0:
192,192,5575,1,2,0:0:0:0:
448,192,5575,1,0,0:0:0:0:
192,192,5775,128,0,5975:0:0:0:0:
64,192,5975,1,2,0:0:0:0:
448,192,5975,128,8,6175:0:0:0:0:
64,192,6175,128,0,6575:0:0:0:0:
192,192,6375,1,2,0:0:0:0:
320,192,6375,1,0,0:0:0:0:
448,192,6575,128,0,6775:0:0:0:0:
64,192,6775,1,2,0:0:0:0:
192,192,6775,128,8,6975:0:0:0:0:
320,192,6975,128,0,7375:0:0:0:0:
192,192,7175,1,2,0:0:0:0:
448,192,7175,1,0,0:0:0:0:
64,192,7375,128,0,7475:0:0:0:0:
64,192,7575,128,2,7975:0:0:0:0:
448,192,7575,1,8,0:0:0:0:
192,192,7775,1,0,0:0:0:0:
320,192,7875,1,0,0:0:0:0:
192,192,7975,1,2,0:0:0:0:
448,192,7975,1,0,0:0:0:0:
320,192,8175,1,0,0:0:0:0:
192,192,8275,1,0,0:0:0:0:
64,192,8375,1,10,0:0:0:0:
192,192,8575,1,0,0:0:0:0:
320,192,8675,1,0,0:0:0:0:
448,192,8775,1,2,0:0:0:0:
192,192,8875,1,0,0:0:0:0:
448,192,8975,1,0,0:0:0:0:
64,192,9075,1,0,0:0:0:0:
320,192,9175,1,10,0:0:0:0:
448,192,9241,1,0,0:0:0:0:
64,192,9308,1,0,0:0:0:0:
192,192,9375,128,2,9775:0:0:0:0:
320,192,9775,1,8,0:0:0:0:
448,192,9775,128,2,9975:0:0:0:0:
64,192,9975,128,2,10175:0:0:0:0:
192,192,9975,1,8,0:0:0:0:
320,192,10175,128,8,10375:0:0:0:0:
448,192,10175,1,2,0:0:0:0:
64,192,10575,128,8,11175:0:0:0:0:
320,192,10575,1,2,0:0:0:0:
448,192,10575,1,4,0:0:0:0:
192,192,10775,1,8,0:0:0:0:
320,192,10875,1,8,0:0:0:0:
448,192,10975,128,8,11375:0:0:0:0:
192,192,11075,1,8,0:0:0:0:
320,192,11175,128,12,11375:0:0:0:0:
192,192,11375,1,0,0:0:0:0:
64,192,11575,1,8,0:0:0:0:
448,192,11575,1,0,0:0:0:0:
192,192,11775,1,0,0:0:0:0:
64,192,11975,1,8,0:0:0:0:
320,192,11975,1,0,0:0:0:0:
64,192,12175,1,2,0:0:0:0:
448,192,12175,1,0,0:0:0:0:
192,192,12375,1,8,0:0:0:0:
448,192,12375,1,0,0:0:0:0:
64,192,12575,1,2,0:0:0:0:
320,192,12575,1,0,0:0:0:0:
192,192,12675,1,0,0:0:0:0:
320,192,12775,1,8,0:0:0:0:
448,192,12775,1,0,0:0:0:0:
192,192,12975,1,2,0:0:0:0:
448,192,12975,1,0,0:0:0:0:
64,192,13175,1,8,0:0:0:0:
192,192,13175,1,0,0:0:0:0:
448,192,13275,1,0,0:0:0:0:
320,192,13375,1,0,0:0:0:0:
64,192,13575,1,8,0:0:0:0:
448,192,13575,1,0,0:0:0:0:
64,192,13775,1,2,0:0:0:0:
320,192,13775,1,0,0:0:0:0:
192,192,13975,1,2,0:0:0:0:
320,192,14075,1,2,0:0:0:0:
192,192,14175,1,8,0:0:0:0:
320,192,14275,1,8,0:0:0:0:
64,192,14375,1,2,0:0:0:0:
192,192,14375,1,4,0:0:0:0:
448,192,14375,1,0,0:0:0:0:
320,192,14575,1,0,0:0:0:0:
64,192,14775,1,2,0:0:0:0:
320,192,14775,1,0,0:0:0:0:
192,192,14975,1,0,0:0:0:0:
320,192,15075,1,0,0:0:0:0:
64,192,15175,1,2,0:0:0:0:
448,192,15175,1,0,0:0:0:0:
192,192,15275,1,0,0:0:0:0:
320,192,15375,1,0,0:0:0:0:
64,192,15475,1,0,0:0:0:0:
192,192,15575,1,2,0:0:0:0:
448,192,15575,1,0,0:0:0:0:
320,192,15775,1,0,0:0:0:0:
192,192,15875,1,0,0:0:0:0:
64,192,15975,1,2,0:0:0:0:
448,192,15975,1,0,0:0:0:0:
320,192,16175,1,0,0:0:0:0:
64,192,16375,1,2,0:0:0:0:
320,192,16375,1,0,0:0:0:0:
192,192,16575,1,0,0:0:0:0:
320,192,16675,1,0,0:0:0:0:
64,192,16775,1,2,0:0:0:0:
448,192,16775,1,0,0:0:0:0:
192,192,16875,1,0,0:0:0:0:
320,192,16975,1,0,0:0:0:0:
448,192,17075,1,0,0:0:0:0:
64,192,17175,1,2,0:0:0:0:
192,192,17175,1,0,0:0:0:0:
448,192,17375,1,0,0:0:0:0:
320,192,17475,1,0,0:0:0:0:
64,192,17575,1,2,0:0:0:0:
192,192,17575,1,0,0:0:0:0:
448,192,17775,1,0,0:0:0:0:
64,192,17975,1,2,0:0:0:0:
448,192,17975,1,0,0:0:0:0:
320,192,18175,1,0,0:0:0:0:
192,192,18275,1,0,0:0:0:0:
64,192,18375,1,2,0:0:0:0:
448,192,18375,1,0,0:0:0:0:
320,192,18475,1,0,0:0:0:0:
192,192,18575,1,0,0:0:0:0:
64,192,18775,1,2,0:0:0:0:
320,192,18775,1,0,0:0:0:0:
192,192,18975,1,0,0:0:0:0:
320,192,19075,1,0,0:0:0:0:
64,192,19175,1,2,0:0:0:0:
448,192,19175,1,0,0:0:0:0:
192,192,19275,1,0,0:0:0:0:
320,192,19375,128,0,19575:0:0:0:0:
64,192,19575,1,2,0:0:0:0:
192,192,19575,1,0,0:0:0:0:
448,192,19775,1,0,0:0:0:0:
320,192,19975,1,2,0:0:0:0:
448,192,19975,1,0,0:0:0:0:
64,192,20175,1,0,0:0:0:0:
192,192,20275,1,0,0:0:0:0:
320,192,20375,1,2,0:0:0:0:
448,192,20375,1,0,0:0:0:0:
320,192,20575,1,0,0:0:0:0:
192,192,20675,1,0,0:0:0:0:
64,192,20775,1,2,0:0:0:0:
448,192,20775,128,0,20975:0:0:0:0:
320,192,20975,1,0,0:0:0:0:
64,192,21175,1,2,0:0:0:0:
320,192,21175,1,0,0:0:0:0:
64,192,21375,1,0,0:0:0:0:
192,192,21575,1,2,0:0:0:0:
448,192,21575,1,0,0:0:0:0:
448,192,21775,1,0,0:0:0:0:
320,192,21875,1,0,0:0:0:0:
64,192,21975,1,2,0:0:0:0:
192,192,21975,1,0,0:0:0:0:
448,192,22175,1,0,0:0:0:0:
320,192,22275,1,0,0:0:0:0:
64,192,22375,1,2,0:0:0:0:
192,192,22375,1,0,0:0:0:0:
320,192,22575,1,0,0:0:0:0:
192,192,22775,1,2,0:0:0:0:
448,192,22775,1,0,0:0:0:0:
192,192,22975,1,0,0:0:0:0:
320,192,23075,1,0,0:0:0:0:
64,192,23175,1,2,0:0:0:0:
448,192,23175,1,0,0:0:0:0:
192,192,23275,1,0,0:0:0:0:
320,192,23375,1,0,0:0:0:0:
448,192,23475,1,0,0:0:0:0:
64,192,23575,1,2,0:0:0:0:
192,192,23575,1,0,0:0:0:0:
320,192,23775,1,0,0:0:0:0:
192,192,23875,1,0,0:0:0:0:
64,192,23975,1,2,0:0:0:0:
448,192,23975,1,0,0:0:0:0:
320,192,24175,1,0,0:0:0:0:
192,192,24375,1,2,0:0:0:0:
320,192,24375,1,0,0:0:0:0:
64,192,24575,1,0,0:0:0:0:
192,192,24675,1,0,0:0:0:0:
320,192,24775,1,2,0:0:0:0:
448,192,24775,1,0,0:0:0:0:
64,192,24875,1,0,0:0:0:0:
192,192,24975,1,0,0:0:0:0:
320,192,25175,1,2,0:0:0:0:
448,192,25175,1,0,0:0:0:0:
448,192,25375,128,0,25575:0:0:0:0:
64,192,25575,1,2,0:0:0:0:
320,192,25575,1,0,0:0:0:0:
192,192,25775,1,0,0:0:0:0:
320,192,25975,1,2,0:0:0:0:
448,192,25975,1,0,0:0:0:0:
64,192,26175,1,0,0:0:0:0:
192,192,26275,1,0,0:0:0:0:
320,192,26375,1,2,0:0:0:0:
448,192,26375,1,0,0:0:0:0:
192,192,26575,1,8,0:0:0:0:
320,192,26575,1,0,0:0:0:0:
64,192,26775,1,2,0:0:0:0:
192,192,26775,1,0,0:0:0:0:
320,192,26975,1,8,0:0:0:0:
192,192,27075,1,8,0:0:0:0:
64,192,27175,1,2,0:0:0:0:
320,192,27175,1,4,0:0:0:0:
448,192,27175,1,0,0:0:0:0:
192,192,27375,1,0,0:0:0:0:
64,192,27575,1,8,0:0:0:0:
192,192,27575,1,0,0:0:0:0:
448,192,27575,1,0,0:0:0:0:
320,192,27775,1,0,0:0:0:0:
64,192,27975,1,2,0:0:0:0:
192,192,27975,1,0,0:0:0:0:
64,192,28175,1,2,0:0:0:0:
192,192,28175,1,0,0:0:0:0:
64,192,28375,1,8,0:0:0:0:
320,192,28375,1,0,0:0:0:0:
448,192,28375,1,0,0:0:0:0:
192,192,28575,1,2,0:0:0:0:
320,192,28575,1,0,0:0:0:0:
448,192,28775,1,0,0:0:0:0:
64,192,28975,1,2,0:0:0:0:
192,192,28975,1,0,0:0:0:0:
64,192,29175,1,8,0:0:0:0:
320,192,29175,1,0,0:0:0:0:
448,192,29175,1,0,0:0:0:0:
192,192,29375,1,0,0:0:0:0:
64,192,29575,1,2,0:0:0:0:
448,192,29575,1,0,0:0:0:0:
64,192,29775,1,2,0:0:0:0:
320,192,29775,1,0,0:0:0:0:
192,192,29975,1,8,0:0:0:0:
320,192,29975,1,0,0:0:0:0:
448,192,29975,1,0,0:0:0:0:
64,192,30175,1,0,0:0:0:0:
192,192,30275,1,8,0:0:0:0:
320,192,30375,1,2,0:0:0:0:
448,192,30375,1,0,0:0:0:0:
192,192,30575,1,0,0:0:0:0:
64,192,30775,1,8,0:0:0:0:
192,192,30775,1,0,0:0:0:0:
448,192,30775,1,0,0:0:0:0:
64,192,30975,1,0,0:0:0:0:
320,192,31175,1,2,0:0:0:0:
448,192,31175,1,0,0:0:0:0:
320,192,31375,1,2,0:0:0:0:
448,192,31375,1,0,0:0:0:0:
64,192,31575,1,8,0:0:0:0:
192,192,31575,1,0,0:0:0:0:
448,192,31575,1,0,0:0:0:0:
192,192,31775,1,2,0:0:0:0:
320,192,31775,1,0,0:0:0:0:
448,192,31975,1,0,0:0:0:0:
64,192,32175,1,2,0:0:0:0:
192,192,32175,1,0,0:0:0:0:
64,192,32375,1,8,0:0:0:0:
320,192,32375,1,0,0:0:0:0:
448,192,32375,1,0,0:0:0:0:
192,192,32575,1,0,0:0:0:0:
64,192,32775,1,2,0:0:0:0:
448,192,32775,1,0,0:0:0:0:
64,192,32975,1,2,0:0:0:0:
448,192,32975,1,0,0:0:0:0:
64,192,33175,1,8,0:0:0:0:
192,192,33175,1,0,0:0:0:0:
320,192,33175,1,0,0:0:0:0:
448,192,33375,1,0,0:0:0:0:
320,192,33475,1,0,0:0:0:0:
64,192,33575,1,2,0:0:0:0:
192,192,33575,1,0,0:0:0:0:
448,192,33775,1,0,0:0:0:0:
64,192,33975,1,8,0:0:0:0:
320,192,33975,1,0,0:0:0:0:
448,192,33975,1,0,0:0:0:0:
192,192,34175,1,0,0:0:0:0:
64,192,34375,1,2,0:0:0:0:
320,192,34375,1,0,0:0:0:0:
64,192,34575,1,2,0:0:0:0:
320,192,34575,1,0,0:0:0:0:
192,192,34775,1,8,0:0:0:0:
320,192,34775,1,0,0:0:0:0:
448,192,34775,1,0,0:0:0:0:
64,192,34975,1,2,0:0:0:0:
448,192,34975,1,0,0:0:0:0:
192,192,35175,1,0,0:0:0:0:
192,192,35375,1,2,0:0:0:0:
320,192,35375,1,0,0:0:0:0:
64,192,35575,1,8,0:0:0:0:
320,192,35575,1,0,0:0:0:0:
448,192,35575,1,0,0:0:0:0:
320,192,35775,1,0,0:0:0:0:
64,192,35975,1,2,0:0:0:0:
192,192,35975,1,0,0:0:0:0:
64,192,36175,1,2,0:0:0:0:
192,192,36175,1,0,0:0:0:0:
64,192,36375,1,8,0:0:0:0:
320,192,36375,1,0,0:0:0:0:
448,192,36375,1,0,0:0:0:0:
192,192,36575,1,0,0:0:0:0:
320,192,36675,1,0,0:0:0:0:
64,192,36775,1,8,0:0:0:0:
192,192,36775,1,0,0:0:0:0:
448,192,36775,1,0,0:0:0:0:
320,192,36975,1,2,0:0:0:0:
448,192,36975,1,0,0:0:0:0:
320,192,37175,1,2,0:0:0:0:
448,192,37175,1,0,0:0:0:0:
64,192,37375,1,8,0:0:0:0:
192,192,37375,1,0,0:0:0:0:
448,192,37375,1,0,0:0:0:0:
192,192,37575,1,2,0:0:0:0:
320,192,37575,1,0,0:0:0:0:
64,192,37775,1,8,0:0:0:0:
320,192,37775,1,0,0:0:0:0:
448,192,37775,1,0,0:0:0:0:
192,192,37975,1,2,0:0:0:0:
320,192,37975,1,0,0:0:0:0:
64,192,38175,128,8,38575:0:0:0:0:
192,192,38175,1,0,0:0:0:0:
448,192,38175,1,0,0:0:0:0:
192,192,38575,1,8,0:0:0:0:
448,192,38575,128,0,38775:0:0:0:0:
64,192,38775,1,8,0:0:0:0:
320,192,38775,128,0,38975:0:0:0:0:
192,192,38975,128,2,39175:0:0:0:0:
448,192,38975,1,0,0:0:0:0:
64,192,39175,1,8,0:0:0:0:
192,192,39275,1,8,0:0:0:0:
320,192,39375,1,2,0:0:0:0:
448,192,39475,1,2,0:0:0:0:
64,192,39575,1,2,0:0:0:0:
192,192,39675,1,2,0:0:0:0:
320,192,39775,1,8,0:0:0:0:
448,192,39875,1,8,0:0:0:0:
64,192,39975,1,2,0:0:0:0:
192,192,39975,1,4,0:0:0:0:
320,192,39975,1,0,0:0:0:0:
192,192,40175,1,0,0:0:0:0:
64,192,40375,1,8,0:0:0:0:
320,192,40375,1,0,0:0:0:0:
448,192,40375,1,0,0:0:0:0:
320,192,40575,1,0,0:0:0:0:
64,192,40775,1,8,0:0:0:0:
192,192,40775,1,0,0:0:0:0:
448,192,40775,1,0,0:0:0:0:
192,192,40975,1,2,0:0:0:0:
320,192,40975,1,0,0:0:0:0:
64,192,41175,1,8,0:0:0:0:
320,192,41175,1,0,0:0:0:0:
448,192,41175,1,0,0:0:0:0:
64,192,41375,1,2,0:0:0:0:
192,192,41375,1,0,0:0:0:0:
192,192,41575,1,8,0:0:0:0:
320,192,41575,1,0,0:0:0:0:
448,192,41575,1,0,0:0:0:0:
320,192,41775,1,0,0:0:0:0:
64,192,41975,1,8,0:0:0:0:
192,192,41975,1,0,0:0:0:0:
448,192,41975,1,0,0:0:0:0:
192,192,42175,1,0,0:0:0:0:
64,192,42375,1,8,0:0:0:0:
320,192,42375,1,0,0:0:0:0:
448,192,42375,1,0,0:0:0:0:
192,192,42575,1,2,0:0:0:0:
448,192,42575,1,0,0:0:0:0:
64,192,42775,1,8,0:0:0:0:
320,192,42775,1,0,0:0:0:0:
448,192,42775,1,0,0:0:0:0:
192,192,42975,1,2,0:0:0:0:
320,192,42975,1,0,0:0:0:0:
64,192,43175,1,2,0:0:0:0:
192,192,43175,1,4,0:0:0:0:
448,192,43175,1,0,0:0:0:0:
320,192,43375,1,0,0:0:0:0:
64,192,43575,1,8,0:0:0:0:
192,192,43575,1,0,0:0:0:0:
448,192,43575,1,0,0:0:0:0:
320,192,43775,1,0,0:0:0:0:
64,192,43975,1,2,0:0:0:0:
192,192,43975,1,0,0:0:0:0:
64,192,44175,1,2,0:0:0:0:
192,192,44175,1,0,0:0:0:0:
64,192,44375,1,8,0:0:0:0:
320,192,44375,1,0,0:0:0:0:
448,192,44375,1,0,0:0:0:0:
192,192,44575,1,0,0:0:0:0:
320,192,44775,1,2,0:0:0:0:
448,192,44775,1,0,0:0:0:0:
192,192,44975,1,0,0:0:0:0:
64,192,45175,1,8,0:0:0:0:
320,192,45175,1,0,0:0:0:0:
448,192,45175,1,0,0:0:0:0:
192,192,45375,1,0,0:0:0:0:
320,192,45575,1,2,0:0:0:0:
448,192,45575,1,0,0:0:0:0:
320,192,45775,1,2,0:0:0:0:
448,192,45775,1,0,0:0:0:0:
64,192,45975,1,8,0:0:0:0:
192,192,45975,1,0,0:0:0:0:
448,192,45975,1,0,0:0:0:0:
192,192,46175,1,2,0:0:0:0:
320,192,46175,1,0,0:0:0:0:
64,192,46375,1,8,0:0:0:0:
320,192,46375,1,4,0:0:0:0:
448,192,46375,1,0,0:0:0:0:
320,192,46575,1,0,0:0:0:0:
64,192,46775,1,8,0:0:0:0:
192,192,46775,1,0,0:0:0:0:
448,192,46775,1,0,0:0:0:0:
192,192,46975,1,0,0:0:0:0:
64,192,47175,1,8,0:0:0:0:
320,192,47175,1,0,0:0:0:0:
448,192,47175,1,0,0:0:0:0:
192,192,47375,1,2,0:0:0:0:
320,192,47375,1,0,0:0:0:0:
64,192,47575,1,8,0:0:0:0:
192,192,47575,1,0,0:0:0:0:
448,192,47575,1,0,0:0:0:0:
320,192,47775,1,2,0:0:0:0:
448,192,47775,1,0,0:0:0:0:
64,192,47975,1,8,0:0:0:0:
192,192,47975,1,0,0:0:0:0:
320,192,47975,1,0,0:0:0:0:
192,192,48175,1,2,0:0:0:0:
64,192,48375,1,8,0:0:0:0:
320,192,48375,1,0,0:0:0:0:
448,192,48375,1,0,0:0:0:0:
320,192,48575,1,0,0:0:0:0:
64,192,48775,1,8,0:0:0:0:
192,192,48775,1,0,0:0:0:0:
448,192,48775,1,0,0:0:0:0:
64,192,48975,1,2,0:0:0:0:
320,192,48975,1,0,0:0:0:0:
64,192,49175,1,8,0:0:0:0:
192,192,49175,1,0,0:0:0:0:
448,192,49175,1,0,0:0:0:0:
192,192,49375,1,2,0:0:0:0:
320,192,49375,1,0,0:0:0:0:
64,192,49575,1,2,0:0:0:0:
320,192,49575,1,4,0:0:0:0:
448,192,49575,1,0,0:0:0:0:
192,192,49775,1,0,0:0:0:0:
64,192,49975,1,8,0:0:0:0:
320,192,49975,1,0,0:0:0:0:
448,192,49975,1,0,0:0:0:0:
192,192,50175,1,0,0:0:0:0:
320,192,50375,1,2,0:0:0:0:
448,192,50375,1,0,0:0:0:0:
320,192,50575,1,2,0:0:0:0:
448,192,50575,1,0,0:0:0:0:
64,192,50775,1,8,0:0:0:0:
192,192,50775,1,0,0:0:0:0:
448,192,50775,1,0,0:0:0:0:
320,192,50975,1,0,0:0:0:0:
64,192,51175,1,2,0:0:0:0:
192,192,51175,1,0,0:0:0:0:
320,192,51375,1,0,0:0:0:0:
64,192,51575,1,8,0:0:0:0:
192,192,51575,1,0,0:0:0:0:
448,192,51575,1,0,0:0:0:0:
320,192,51775,1,0,0:0:0:0:
64,192,51975,1,2,0:0:0:0:
192,192,51975,1,0,0:0:0:0:
64,192,52175,1,2,0:0:0:0:
192,192,52175,1,0,0:0:0:0:
64,192,52375,1,8,0:0:0:0:
320,192,52375,1,0,0:0:0:0:
448,192,52375,1,0,0:0:0:0:
192,192,52575,1,2,0:0:0:0:
320,192,52575,1,0,0:0:0:0:
64,192,52775,1,2,0:0:0:0:
320,192,52775,1,0,0:0:0:0:
64,192,52975,1,2,0:0:0:0:
320,192,52975,1,0,0:0:0:0:
192,192,53175,1,2,0:0:0:0:
448,192,53175,1,0,0:0:0:0:
192,192,53375,1,2,0:0:0:0:
448,192,53375,1,0,0:0:0:0:
64,192,53575,1,2,0:0:0:0:
192,192,53575,1,0,0:0:0:0:
64,192,53775,1,2,0:0:0:0:
192,192,53775,1,0,0:0:0:0:
320,192,53975,1,2,0:0:0:0:
448,192,53975,1,0,0:0:0:0:
64,192,54175,1,2,0:0:0:0:
320,192,54175,1,8,0:0:0:0:
448,192,54175,128,0,54575:0:0:0:0:
64,192,54575,1,8,0:0:0:0:
192,192,54575,1,2,0:0:0:0:
192,192,54775,1,8,0:0:0:0:
320,192,54775,1,2,0:0:0:0:
320,192,54975,1,8,0:0:0:0:
448,192,54975,1,2,0:0:0:0:
64,192,55175,1,2,0:0:0:0:
192,192,55175,1,0,0:0:0:0:
64,192,55375,1,8,0:0:0:0:
320,192,55375,1,0,0:0:0:0:
448,192,55375,1,0,0:0:0:0:
64,192,55575,1,8,0:0:0:0:
192,192,55675,1,8,0:0:0:0:
320,192,55775,1,8,0:0:0:0:
448,192,55875,1,8,0:0:0:0:
64,192,55975,128,2,56375:0:0:0:0:
192,192,55975,1,4,0:0:0:0:
320,192,55975,1,0,0:0:0:0:
448,192,56175,1,0,0:0:0:0:
192,192,56375,128,8,56775:0:0:0:0:
320,192,56375,1,2,0:0:0:0:
64,192,56575,1,0,0:0:0:0:
320,192,56775,1,2,0:0:0:0:
448,192,56775,128,0,57175:0:0:0:0:
64,192,56975,1,0,0:0:0:0:
192,192,57175,1,2,0:0:0:0:
320,192,57175,1,8,0:0:0:0:
64,192,57375,128,0,57575:0:0:0:0:
192,192,57575,1,2,0:0:0:0:
448,192,57575,1,0,0:0:0:0:
320,192,57775,128,0,57975:0:0:0:0:
64,192,57975,1,2,0:0:0:0:
448,192,57975,1,8,0:0:0:0:
192,192,58175,128,0,58375:0:0:0:0:
64,192,58375,1,2,0:0:0:0:
448,192,58375,128,0,58575:0:0:0:0:
320,192,58575,128,0,58775:0:0:0:0:
64,192,58775,1,2,0:0:0:0:
192,192,58775,128,8,58975:0:0:0:0:
320,192,58975,128,0,59175:0:0:0:0:
64,192,59175,128,2,59575:0:0:0:0:
192,192,59175,1,0,0:0:0:0:
448,192,59375,1,0,0:0:0:0:
192,192,59575,128,2,59975:0:0:0:0:
320,192,59575,1,8,0:0:0:0:
64,192,59775,1,0,0:0:0:0:
320,192,59975,128,2,60375:0:0:0:0:
448,192,59975,1,0,0:0:0:0:
64,192,60175,1,0,0:0:0:0:
192,192,60375,1,2,0:0:0:0:
448,192,60375,1,8,0:0:0:0:
448,192,60575,128,0,60775:0:0:0:0:
64,192,60775,1,2,0:0:0:0:
192,192,60775,1,0,0:0:0:0:
320,192,60975,128,0,61175:0:0:0:0:
192,192,61175,1,2,0:0:0:0:
448,192,61175,1,8,0:0:0:0:
64,192,61375,128,0,61975:0:0:0:0:
192,192,61575,1,2,0:0:0:0:
320,192,61575,1,0,0:0:0:0:
448,192,61775,1,0,0:0:0:0:
192,192,61975,1,2,0:0:0:0:
320,192,61975,1,8,0:0:0:0:
448,192,62175,1,0,0:0:0:0:
64,192,62375,1,2,0:0:0:0:
192,192,62375,1,0,0:0:0:0:
320,192,62375,128,0,62775:0:0:0:0:
64,192,62575,1,0,0:0:0:0:
192,192,62775,128,2,63175:0:0:0:0:
448,192,62775,1,8,0:0:0:0:
448,192,62975,1,0,0:0:0:0:
64,192,63175,128,2,63575:0:0:0:0:
320,192,63175,1,0,0:0:0:0:
320,192,63375,1,0,0:0:0:0:
192,192,63575,1,2,0:0:0:0:
448,192,63575,1,8,0:0:0:0:
448,192,63775,128,0,64375:0:0:0:0:
64,192,63975,1,2,0:0:0:0:
192,192,63975,1,0,0:0:0:0:
320,192,64175,1,0,0:0:0:0:
64,192,64375,1,2,0:0:0:0:
192,192,64375,1,8,0:0:0:0:
64,192,64575,128,0,64775:0:0:0:0:
320,192,64775,1,2,0:0:0:0:
448,192,64775,1,0,0:0:0:0:
448,192,64975,128,0,65175:0:0:0:0:
64,192,65175,1,2,0:0:0:0:
320,192,65175,128,8,65375:0:0:0:0:
192,192,65375,128,0,65575:0:0:0:0:
64,192,65575,128,2,65975:0:0:0:0:
320,192,65575,1,0,0:0:0:0:
448,192,65575,1,0,0:0:0:0:
448,192,65775,1,0,0:0:0:0:
192,192,65975,1,2,0:0:0:0:
320,192,65975,1,8,0:0:0:0:
448,192,66175,128,0,67175:0:0:0:0:
64,192,66375,1,2,0:0:0:0:
192,192,66375,1,0,0:0:0:0:
320,192,66575,1,0,0:0:0:0:
64,192,66775,1,2,0:0:0:0:
320,192,66775,1,8,0:0:0:0:
192,192,66975,1,0,0:0:0:0:
64,192,67175,1,2,0:0:0:0:
320,192,67175,1,0,0:0:0:0:
64,192,67375,1,8,0:0:0:0:
192,192,67375,1,0,0:0:0:0:
320,192,67575,1,8,0:0:0:0:
448,192,67575,1,2,0:0:0:0:
448,192,67775,1,0,0:0:0:0:
64,192,67975,1,2,0:0:0:0:
320,192,67975,1,8,0:0:0:0:
64,192,68175,1,0,0:0:0:0:
192,192,68375,1,8,0:0:0:0:
320,192,68375,1,2,0:0:0:0:
64,192,68575,1,8,0:0:0:0:
448,192,68575,1,0,0:0:0:0:
192,192,68675,1,8,0:0:0:0:
64,192,68775,128,2,69175:0:0:0:0:
320,192,68775,1,4,0:0:0:0:
448,192,68775,1,0,0:0:0:0:
448,192,68975,1,0,0:0:0:0:
192,192,69175,128,8,69575:0:0:0:0:
320,192,69175,1,2,0:0:0:0:
64,192,69375,1,0,0:0:0:0:
320,192,69575,1,2,0:0:0:0:
448,192,69575,128,0,69975:0:0:0:0:
64,192,69775,1,0,0:0:0:0:
192,192,69975,1,2,0:0:0:0:
320,192,69975,1,8,0:0:0:0:
64,192,70175,128,0,70375:0:0:0:0:
320,192,70375,1,2,0:0:0:0:
448,192,70375,1,0,0:0:0:0:
448,192,70575,128,0,70775:0:0:0:0:
64,192,70775,1,2,0:0:0:0:
192,192,70775,1,8,0:0:0:0:
320,192,70975,128,0,71175:0:0:0:0:
192,192,71175,128,2,71575:0:0:0:0:
448,192,71175,1,0,0:0:0:0:
320,192,71375,1,0,0:0:0:0:
64,192,71575,128,2,71775:0:0:0:0:
448,192,71575,1,8,0:0:0:0:
320,192,71775,1,0,0:0:0:0:
192,192,71875,1,0,0:0:0:0:
64,192,71975,1,4,0:0:0:0:
320,192,71975,1,8,0:0:0:0:
448,192,71975,1,0,0:0:0:0:
192,192,72175,1,2,0:0:0:0:
320,192,72175,1,0,0:0:0:0:
320,192,72375,1,2,0:0:0:0:
448,192,72375,1,0,0:0:0:0:
64,192,72575,1,8,0:0:0:0:
192,192,72575,1,4,0:0:0:0:
448,192,72575,1,0,0:0:0:0:
320,192,72775,1,0,0:0:0:0:
64,192,72975,1,2,0:0:0:0:
448,192,72975,1,0,0:0:0:0:
64,192,73175,1,8,0:0:0:0:
192,192,73175,1,0,0:0:0:0:
320,192,73175,1,0,0:0:0:0:
320,192,73375,1,2,0:0:0:0:
448,192,73375,1,0,0:0:0:0:
64,192,73575,1,8,0:0:0:0:
192,192,73575,1,4,0:0:0:0:
448,192,73575,1,0,0:0:0:0:
192,192,73775,1,2,0:0:0:0:
320,192,73775,1,0,0:0:0:0:
192,192,73975,1,2,0:0:0:0:
320,192,73975,1,0,0:0:0:0:
64,192,74175,1,8,0:0:0:0:
320,192,74175,1,4,0:0:0:0:
448,192,74175,1,0,0:0:0:0:
192,192,74375,1,0,0:0:0:0:
64,192,74575,1,2,0:0:0:0:
448,192,74575,1,0,0:0:0:0:
64,192,74775,1,8,0:0:0:0:
320,192,74775,1,0,0:0:0:0:
448,192,74775,1,0,0:0:0:0:
64,192,74975,1,8,0:0:0:0:
192,192,74975,1,0,0:0:0:0:
320,192,75075,1,8,0:0:0:0:
64,192,75175,1,2,0:0:0:0:
192,192,75175,1,4,0:0:0:0:
448,192,75175,1,0,0:0:0:0:
192,192,75375,1,0,0:0:0:0:
64,192,75575,1,8,0:0:0:0:
320,192,75575,1,2,0:0:0:0:
448,192,75575,1,0,0:0:0:0:
320,192,75775,1,0,0:0:0:0:
192,192,75975,1,2,0:0:0:0:
448,192,75975,1,0,0:0:0:0:
448,192,76175,1,0,0:0:0:0:
64,192,76375,1,2,0:0:0:0:
320,192,76375,1,8,0:0:0:0:
64,192,76575,1,2,0:0:0:0:
192,192,76575,1,0,0:0:0:0:
448,192,76575,1,0,0:0:0:0:
320,192,76775,1,0,0:0:0:0:
192,192,76975,1,8,0:0:0:0:
448,192,76975,1,2,0:0:0:0:
64,192,77175,1,2,0:0:0:0:
320,192,77175,1,8,0:0:0:0:
448,192,77175,1,4,0:0:0:0:
192,192,77375,1,8,0:0:0:0:
320,192,77475,1,8,0:0:0:0:
448,192,77575,1,8,0:0:0:0:
64,192,77775,1,2,0:0:0:0:
192,192,77775,1,0,0:0:0:0:
320,192,77975,1,8,0:0:0:0:
448,192,77975,1,0,0:0:0:0:
192,192,78175,1,2,0:0:0:0:
64,192,78375,1,8,0:0:0:0:
320,192,78375,1,4,0:0:0:0:
448,192,78375,1,0,0:0:0:0:
64,192,78775,1,8,0:0:0:0:
448,192,78775,1,0,0:0:0:0:
192,192,78975,1,0,0:0:0:0:
320,192,78975,1,0,0:0:0:0:
64,192,79175,1,8,0:0:0:0:
448,192,79175,1,0,0:0:0:0:
192,192,79375,1,2,0:0:0:0:
320,192,79375,1,0,0:0:0:0:
64,192,79575,1,8,0:0:0:0:
448,192,79575,1,0,0:0:0:0:
192,192,79775,1,2,0:0:0:0:
320,192,79775,1,0,0:0:0:0:
64,192,79975,1,8,0:0:0:0:
320,192,79975,1,0,0:0:0:0:
192,192,80175,1,2,0:0:0:0:
448,192,80175,1,0,0:0:0:0:
64,192,80375,1,8,0:0:0:0:
320,192,80375,1,0,0:0:0:0:
192,192,80575,1,0,0:0:0:0:
448,192,80575,1,0,0:0:0:0:
320,192,80775,1,8,0:0:0:0:
448,192,80775,1,0,0:0:0:0:
64,192,80975,1,2,0:0:0:0:
192,192,80975,1,0,0:0:0:0:
320,192,81175,1,8,0:0:0:0:
448,192,81175,1,0,0:0:0:0:
192,192,81275,1,8,0:0:0:0:
320,192,81375,1,8,0:0:0:0:
192,192,81475,1,8,0:0:0:0:
64,192,81575,1,2,0:0:0:0:
320,192,81575,1,4,0:0:0:0:
448,192,81575,1,0,0:0:0:0:
320,192,81775,1,0,0:0:0:0:
64,192,81975,1,8,0:0:0:0:
192,192,81975,1,2,0:0:0:0:
448,192,81975,1,0,0:0:0:0:
192,192,82175,1,0,0:0:0:0:
320,192,82375,1,2,0:0:0:0:
448,192,82375,1,0,0:0:0:0:
448,192,82575,1,0,0:0:0:0:
64,192,82775,1,2,0:0:0:0:
192,192,82775,1,8,0:0:0:0:
320,192,82775,1,0,0:0:0:0:
64,192,82975,1,0,0:0:0:0:
320,192,83175,1,2,0:0:0:0:
448,192,83175,1,0,0:0:0:0:
320,192,83375,1,0,0:0:0:0:
64,192,83575,1,2,0:0:0:0:
192,192,83575,1,8,0:0:0:0:
448,192,83575,1,0,0:0:0:0:
192,192,83775,1,0,0:0:0:0:
320,192,83775,1,0,0:0:0:0:
64,192,83975,1,2,0:0:0:0:
320,192,83975,1,0,0:0:0:0:
192,192,84175,1,0,0:0:0:0:
448,192,84175,1,0,0:0:0:0:
64,192,84375,1,2,0:0:0:0:
192,192,84375,1,8,0:0:0:0:
320,192,84375,1,0,0:0:0:0:
64,192,84575,1,0,0:0:0:0:
192,192,84775,1,2,0:0:0:0:
320,192,84775,1,0,0:0:0:0:
448,192,84775,1,0,0:0:0:0:
448,192,84975,1,0,0:0:0:0:
64,192,85175,1,2,0:0:0:0:
192,192,85175,1,8,0:0:0:0:
320,192,85175,1,0,0:0:0:0:
320,192,85375,1,0,0:0:0:0:
192,192,85575,1,2,0:0:0:0:
448,192,85575,1,0,0:0:0:0:
192,192,85775,1,0,0:0:0:0:
64,192,85975,1,2,0:0:0:0:
320,192,85975,1,8,0:0:0:0:
448,192,85975,1,0,0:0:0:0:
64,192,86175,1,0,0:0:0:0:
320,192,86375,1,2,0:0:0:0:
448,192,86375,1,0,0:0:0:0:
448,192,86575,1,0,0:0:0:0:
64,192,86775,1,2,0:0:0:0:
192,192,86775,1,8,0:0:0:0:
320,192,86775,1,0,0:0:0:0:
192,192,86975,1,0,0:0:0:0:
448,192,86975,1,0,0:0:0:0:
64,192,87175,1,2,0:0:0:0:
320,192,87175,1,0,0:0:0:0:
192,192,87375,1,0,0:0:0:0:
320,192,87375,1,0,0:0:0:0:
64,192,87575,1,2,0:0:0:0:
192,192,87575,1,8,0:0:0:0:
448,192,87575,1,0,0:0:0:0:
64,192,87775,1,0,0:0:0:0:
192,192,87975,1,8,0:0:0:0:
320,192,87975,1,4,0:0:0:0:
448,192,87975,1,0,0:0:0:0:
64,192,88175,1,2,0:0:0:0:
320,192,88175,1,0,0:0:0:0:
64,192,88375,1,2,0:0:0:0:
320,192,88375,1,0,0:0:0:0:
64,192,88575,1,8,0:0:0:0:
192,192,88575,1,4,0:0:0:0:
448,192,88575,1,0,0:0:0:0:
320,192,88775,1,2,0:0:0:0:
448,192,88775,1,0,0:0:0:0:
64,192,88975,1,8,0:0:0:0:
320,192,88975,1,4,0:0:0:0:
448,192,88975,1,0,0:0:0:0:
64,192,89175,1,2,0:0:0:0:
192,192,89175,1,0,0:0:0:0:
192,192,89375,1,8,0:0:0:0:
320,192,89375,128,4,89775:0:0:0:0:
448,192,89375,128,0,89775:0:0:0:0:
64,192,89975,128,8,90375:0:0:0:0:
192,192,89975,1,4,0:0:0:0:
448,192,89975,1,0,0:0:0:0:
192,192,90375,128,8,90775:0:0:0:0:
320,192,90375,1,0,0:0:0:0:
448,192,90575,1,2,0:0:0:0:
64,192,90775,1,8,0:0:0:0:
320,192,90775,1,0,0:0:0:0:
448,192,90875,1,8,0:0:0:0:
192,192,90975,1,8,0:0:0:0:
320,192,91075,1,8,0:0:0:0:
64,192,91175,1,4,0:0:0:0:
192,192,91175,1,8,0:0:0:0:
448,192,91175,1,0,0:0:0:0:
320,192,91375,1,0,0:0:0:0:
64,192,91575,1,8,0:0:0:0:
320,192,91575,1,0,0:0:0:0:
448,192,91575,1,0,0:0:0:0:
192,192,91775,1,0,0:0:0:0:
64,192,91975,1,8,0:0:0:0:
192,192,91975,1,0,0:0:0:0:
320,192,91975,1,0,0:0:0:0:
320,192,92175,1,2,0:0:0:0:
448,192,92175,1,0,0:0:0:0:
64,192,92375,1,8,0:0:0:0:
192,192,92375,1,0,0:0:0:0:
448,192,92375,1,0,0:0:0:0:
192,192,92575,1,2,0:0:0:0:
320,192,92575,1,0,0:0:0:0:
64,192,92775,1,8,0:0:0:0:
320,192,92775,1,0,0:0:0:0:
448,192,92775,1,0,0:0:0:0:
64,192,92975,1,2,0:0:0:0:
192,192,92975,1,0,0:0:0:0:
320,192,93175,1,8,0:0:0:0:
448,192,93175,1,0,0:0:0:0:
192,192,93375,1,0,0:0:0:0:
64,192,93575,1,8,0:0:0:0:
320,192,93575,1,2,0:0:0:0:
192,192,93775,1,8,0:0:0:0:
448,192,93775,1,2,0:0:0:0:
64,192,93975,1,8,0:0:0:0:
192,192,93975,1,2,0:0:0:0:
320,192,94175,1,8,0:0:0:0:
448,192,94175,1,2,0:0:0:0:
64,192,94375,1,2,0:0:0:0:
192,192,94375,1,4,0:0:0:0:
448,192,94375,128,0,94575:0:0:0:0:
320,192,94575,128,0,94775:0:0:0:0:
64,192,94775,1,8,0:0:0:0:
192,192,94775,128,2,94975:0:0:0:0:
448,192,94975,128,0,95175:0:0:0:0:
64,192,95175,1,2,0:0:0:0:
320,192,95175,128,0,95375:0:0:0:0:
192,192,95375,128,0,96175:0:0:0:0:
320,192,95575,1,2,0:0:0:0:
448,192,95575,1,8,0:0:0:0:
64,192,95775,1,0,0:0:0:0:
320,192,95975,1,2,0:0:0:0:
448,192,95975,1,0,0:0:0:0:
64,192,96175,1,0,0:0:0:0:
320,192,96275,1,0,0:0:0:0:
64,192,96375,1,2,0:0:0:0:
448,192,96375,128,8,96575:0:0:0:0:
192,192,96575,128,0,96775:0:0:0:0:
320,192,96775,1,2,0:0:0:0:
448,192,96775,128,0,96975:0:0:0:0:
64,192,96975,128,0,97175:0:0:0:0:
192,192,97175,1,2,0:0:0:0:
448,192,97175,1,8,0:0:0:0:
320,192,97275,1,0,0:0:0:0:
192,192,97375,1,0,0:0:0:0:
320,192,97475,1,0,0:0:0:0:
64,192,97575,1,2,0:0:0:0:
448,192,97575,128,0,98375:0:0:0:0:
192,192,97775,1,0,0:0:0:0:
64,192,97975,1,2,0:0:0:0:
320,192,97975,1,8,0:0:0:0:
192,192,98175,1,0,0:0:0:0:
64,192,98375,1,2,0:0:0:0:
320,192,98375,1,0,0:0:0:0:
320,192,98575,128,0,98775:0:0:0:0:
64,192,98775,128,2,98975:0:0:0:0:
448,192,98775,1,8,0:0:0:0:
448,192,98975,128,0,99375:0:0:0:0:
192,192,99175,1,2,0:0:0:0:
320,192,99175,1,0,0:0:0:0:
64,192,99375,128,0,99575:0:0:0:0:
320,192,99575,128,2,99775:0:0:0:0:
448,192,99575,1,8,0:0:0:0:
192,192,99775,128,0,100175:0:0:0:0:
64,192,99975,1,2,0:0:0:0:
320,192,99975,1,0,0:0:0:0:
448,192,100175,128,0,100275:0:0:0:0:
64,192,100375,1,2,0:0:0:0:
448,192,100375,128,8,100775:0:0:0:0:
320,192,100575,1,0,0:0:0:0:
192,192,100675,1,0,0:0:0:0:
64,192,100775,1,2,0:0:0:0:
320,192,100775,1,0,0:0:0:0:
192,192,100975,1,0,0:0:0:0:
320,192,101075,1,0,0:0:0:0:
64,192,101175,1,8,0:0:0:0:
448,192,101175,1,2,0:0:0:0:
320,192,101375,1,0,0:0:0:0:
192,192,101475,1,0,0:0:0:0:
64,192,101575,1,2,0:0:0:0:
448,192,101575,1,0,0:0:0:0:
320,192,101675,1,0,0:0:0:0:
64,192,101775,1,0,0:0:0:0:
448,192,101875,1,0,0:0:0:0:
192,192,101975,1,10,0:0:0:0:
64,192,102041,1,0,0:0:0:0:
448,192,102108,1,0,0:0:0:0:
320,192,102175,128,2,102575:0:0:0:0:
64,192,102575,128,8,102775:0:0:0:0:
192,192,102575,1,2,0:0:0:0:
320,192,102775,1,8,0:0:0:0:
448,192,102775,128,2,102975:0:0:0:0:
64,192,102975,1,2,0:0:0:0:
192,192,102975,128,8,103175:0:0:0:0:
64,192,103375,1,2,0:0:0:0:
192,192,103375,1,8,0:0:0:0:
448,192,103375,128,4,103975:0:0:0:0:
320,192,103575,1,8,0:0:0:0:
192,192,103675,1,8,0:0:0:0:
64,192,103775,128,8,104175:0:0:0:0:
320,192,103875,1,8,0:0:0:0:
192,192,103975,128,6,104175:0:0:0:0:
320,192,104175,1,0,0:0:0:0:
64,192,104375,1,8,0:0:0:0:
448,192,104375,1,0,0:0:0:0:
192,192,104575,1,0,0:0:0:0:
64,192,104775,1,8,0:0:0:0:
320,192,104775,1,0,0:0:0:0:
448,192,104775,1,0,0:0:0:0:
64,192,104975,1,2,0:0:0:0:
192,192,104975,1,0,0:0:0:0:
192,192,105175,1,8,0:0:0:0:
320,192,105175,1,0,0:0:0:0:
448,192,105175,1,0,0:0:0:0:
64,192,105375,1,2,0:0:0:0:
448,192,105375,1,0,0:0:0:0:
64,192,105575,1,8,0:0:0:0:
192,192,105575,1,0,0:0:0:0:
320,192,105575,1,0,0:0:0:0:
192,192,105775,1,2,0:0:0:0:
448,192,105775,1,0,0:0:0:0:
64,192,105975,1,8,0:0:0:0:
320,192,105975,1,0,0:0:0:0:
448,192,105975,1,0,0:0:0:0:
192,192,106175,1,0,0:0:0:0:
64,192,106375,1,8,0:0:0:0:
448,192,106375,1,0,0:0:0:0:
320,192,106475,1,0,0:0:0:0:
192,192,106575,1,2,0:0:0:0:
64,192,106775,1,8,0:0:0:0:
448,192,106775,1,0,0:0:0:0:
192,192,106875,1,8,0:0:0:0:
320,192,106975,1,2,0:0:0:0:
448,192,107075,1,2,0:0:0:0:
64,192,107175,1,0,0:0:0:0:
192,192,107375,1,8,0:0:0:0:
320,192,107375,1,4,0:0:0:0:
448,192,107375,1,0,0:0:0:0:
192,192,107575,1,4,0:0:0:0:
320,192,107575,1,2,0:0:0:0:
448,192,107575,1,0,0:0:0:0:
64,192,107975,1,8,0:0:0:0:
320,192,107975,1,4,0:0:0:0:
448,192,107975,1,0,0:0:0:0:
64,192,108175,1,4,0:0:0:0:
320,192,108175,1,2,0:0:0:0:
448,192,108175,1,0,0:0:0:0:
64,192,108575,1,8,0:0:0:0:
192,192,108575,1,4,0:0:0:0:
320,192,108575,1,0,0:0:0:0:
64,192,108775,1,4,0:0:0:0:
192,192,108775,1,2,0:0:0:0:
320,192,108775,1,0,0:0:0:0:
192,192,109175,1,8,0:0:0:0:
320,192,109175,1,4,0:0:0:0:
448,192,109175,1,0,0:0:0:0:
192,192,109375,1,4,0:0:0:0:
320,192,109375,1,2,0:0:0:0:
448,192,109375,1,0,0:0:0:0:
64,192,109775,1,8,0:0:0:0:
192,192,109775,1,4,0:0:0:0:
448,192,109775,1,0,0:0:0:0:
64,192,109975,1,2,0:0:0:0:
320,192,109975,1,0,0:0:0:0:
448,192,109975,1,0,0:0:0:0:
64,192,110175,1,8,0:0:0:0:
192,192,110175,1,4,0:0:0:0:
448,192,110175,128,0,112775:0:0:0:0:
192,192,110775,1,0,0:0:0:0:
192,192,111175,1,0,0:0:0:0:
192,192,111575,1,0,0:0:0:0:
192,192,111975,1,0,0:0:0:0:
192,192,112375,1,0,0:0:0:0:
64,192,112775,1,8,0:0:0:0:
320,192,112775,1,0,0:0:0:0:
192,192,112875,1,0,0:0:0:0:
320,192,112975,1,8,0:0:0:0:
448,192,113075,1,0,0:0:0:0:
64,192,113175,1,2,0:0:0:0:
192,192,113275,1,0,0:0:0:0:
320,192,113375,1,8,0:0:0:0:
448,192,113375,128,0,113575:0:0:0:0:
64,192,113575,128,0,113775:0:0:0:0:
