osu file format v14

[General]
AudioFilename: audio.ogg
AudioLeadIn: 0
PreviewTime: 55275
Countdown: 0
SampleSet: Soft
StackLeniency: 0.7
Mode: 3
LetterboxInBreaks: 0
SpecialStyle: 0
WidescreenStoryboard: 1

[Editor]
DistanceSpacing: 1.3
BeatDivisor: 4
GridSize: 4
TimelineZoom: 0.8

[Metadata]
Title:Amazing sky
TitleUnicode:Amazing sky
Artist:Kicco
ArtistUnicode:Kicco
Creator:MCPXiaoBai
Version:Easy
Source:タユタマ2 -you're the only one-
Tags:tayutama Lump of sugar galgame visual novel op opening short version japanese eroge vn video game pop jpop j-pop
BeatmapID:2793397
BeatmapSetID:1349143

[Difficulty]
HPDrainRate:7
CircleSize:4
OverallDifficulty:7
ApproachRate:9
SliderMultiplier:1.7
SliderTickRate:2

[Events]
//Background and Video events
0,0,"ev_a02_1.png",0,0
//Break Periods
//Storyboard Layer 0 (Background)
//Storyboard Layer 1 (Fail)
//Storyboard Layer 2 (Pass)
//Storyboard Layer 3 (Foreground)
//Storyboard Layer 4 (Overlay)
//Storyboard Sound Samples

[TimingPoints]
1575,400,4,2,1,75,1,0
55975,400,4,2,1,75,1,1
68175,-100,4,2,1,75,0,0
68775,-100,4,2,1,75,0,1
81175,-100,4,2,1,75,0,0
81575,-100,4,2,1,75,0,1
94375,-100,4,2,1,75,0,0

[HitObjects]
64,192,1575,5,2,0:0:0:0:
448,192,1575,1,4,0:0:0:0:
192,192,1975,1,10,0:0:0:0:
320,192,2375,1,2,0:0:0:0:
448,192,2775,1,10,0:0:0:0:
192,192,3175,1,2,0:0:0:0:
64,192,3575,1,10,0:0:0:0:
320,192,3975,1,2,0:0:0:0:
192,192,4375,1,10,0:0:0:0:
448,192,4775,1,2,0:0:0:0:
320,192,5175,1,10,0:0:0:0:
192,192,5575,1,2,0:0:0:0:
64,192,5975,1,10,0:0:0:0:
320,192,6375,1,2,0:0:0:0:
448,192,6775,1,10,0:0:0:0:
192,192,7175,1,2,0:0:0:0:
320,192,7575,1,10,0:0:0:0:
64,192,7975,128,2,8375:0:0:0:0:
320,192,8375,128,10,8775:0:0:0:0:
192,192,8775,128,2,9175:0:0:0:0:
448,192,9175,1,10,0:0:0:0:
64,192,9375,128,2,9775:0:0:0:0:
320,192,9775,1,10,0:0:0:0:
192,192,9975,1,10,0:0:0:0:
448,192,10175,1,10,0:0:0:0:
64,192,10575,1,10,0:0:0:0:
192,192,10575,128,4,11175:0:0:0:0:
448,192,11175,1,12,0:0:0:0:
192,192,11575,1,8,0:0:0:0:
448,192,11575,1,0,0:0:0:0:
320,192,11975,1,8,0:0:0:0:
64,192,12375,1,8,0:0:0:0:
320,192,12375,1,0,0:0:0:0:
192,192,12775,1,8,0:0:0:0:
192,192,13175,1,8,0:0:0:0:
448,192,13175,1,0,0:0:0:0:
64,192,13575,1,8,0:0:0:0:
320,192,13775,1,2,0:0:0:0:
64,192,13975,1,2,0:0:0:0:
320,192,14175,1,8,0:0:0:0:
448,192,14375,1,6,0:0:0:0:
192,192,14775,1,2,0:0:0:0:
320,192,15175,1,2,0:0:0:0:
64,192,15575,1,2,0:0:0:0:
448,192,15975,1,2,0:0:0:0:
64,192,16375,1,2,0:0:0:0:
320,192,16775,1,2,0:0:0:0:
192,192,17175,1,2,0:0:0:0:
64,192,17575,1,2,0:0:0:0:
320,192,17975,1,2,0:0:0:0:
192,192,18375,1,2,0:0:0:0:
448,192,18775,1,2,0:0:0:0:
64,192,19175,1,2,0:0:0:0:
448,192,19575,1,2,0:0:0:0:
192,192,19975,128,2,20375:0:0:0:0:
320,192,20375,128,2,20775:0:0:0:0:
64,192,20775,128,2,21175:0:0:0:0:
448,192,21175,1,2,0:0:0:0:
320,192,21575,1,2,0:0:0:0:
192,192,21975,1,2,0:0:0:0:
64,192,22375,1,2,0:0:0:0:
448,192,22775,128,2,23175:0:0:0:0:
64,192,23175,128,2,23575:0:0:0:0:
320,192,23575,128,2,23975:0:0:0:0:
192,192,23975,128,2,24375:0:0:0:0:
448,192,24375,1,2,0:0:0:0:
64,192,24775,1,2,0:0:0:0:
320,192,25175,128,2,25575:0:0:0:0:
64,192,25575,128,2,25975:0:0:0:0:
448,192,25975,128,2,26375:0:0:0:0:
192,192,26375,1,2,0:0:0:0:
64,192,26575,1,8,0:0:0:0:
320,192,26775,1,2,0:0:0:0:
448,192,26975,1,8,0:0:0:0:
192,192,27175,1,6,0:0:0:0:
192,192,27575,1,8,0:0:0:0:
448,192,27975,1,2,0:0:0:0:
448,192,28375,1,8,0:0:0:0:
64,192,28775,1,0,0:0:0:0:
64,192,29175,1,8,0:0:0:0:
320,192,29575,1,2,0:0:0:0:
320,192,29975,1,8,0:0:0:0:
192,192,30375,1,2,0:0:0:0:
192,192,30775,1,8,0:0:0:0:
320,192,31175,1,2,0:0:0:0:
320,192,31575,1,8,0:0:0:0:
64,192,31975,1,0,0:0:0:0:
64,192,32375,1,8,0:0:0:0:
448,192,32775,1,2,0:0:0:0:
448,192,33175,1,8,0:0:0:0:
64,192,33575,1,2,0:0:0:0:
64,192,33975,1,8,0:0:0:0:
320,192,34375,1,2,0:0:0:0:
320,192,34775,1,8,0:0:0:0:
192,192,35175,1,0,0:0:0:0:
192,192,35575,1,8,0:0:0:0:
448,192,35975,1,2,0:0:0:0:
448,192,36375,1,8,0:0:0:0:
64,192,36775,1,8,0:0:0:0:
192,192,36775,1,0,0:0:0:0:
320,192,36975,1,2,0:0:0:0:
192,192,37175,1,2,0:0:0:0:
320,192,37375,1,8,0:0:0:0:
448,192,37375,1,0,0:0:0:0:
192,192,37775,1,8,0:0:0:0:
320,192,37775,1,0,0:0:0:0:
64,192,38175,1,8,0:0:0:0:
192,192,38175,1,0,0:0:0:0:
64,192,38575,1,8,0:0:0:0:
448,192,38775,1,8,0:0:0:0:
320,192,38975,1,2,0:0:0:0:
192,192,39175,1,8,0:0:0:0:
448,192,39375,128,2,39975:0:0:0:0:
64,192,39975,1,2,0:0:0:0:
320,192,39975,1,4,0:0:0:0:
64,192,40375,1,8,0:0:0:0:
320,192,40375,1,0,0:0:0:0:
448,192,40775,1,8,0:0:0:0:
192,192,41175,1,8,0:0:0:0:
448,192,41175,1,0,0:0:0:0:
64,192,41575,1,8,0:0:0:0:
64,192,41975,1,8,0:0:0:0:
320,192,41975,1,0,0:0:0:0:
448,192,42375,1,8,0:0:0:0:
192,192,42775,1,8,0:0:0:0:
448,192,42775,1,0,0:0:0:0:
64,192,43175,128,2,43575:0:0:0:0:
320,192,43175,1,4,0:0:0:0:
448,192,43575,1,8,0:0:0:0:
320,192,43975,1,2,0:0:0:0:
192,192,44375,1,8,0:0:0:0:
448,192,44775,128,2,45175:0:0:0:0:
64,192,45175,1,8,0:0:0:0:
192,192,45575,1,2,0:0:0:0:
320,192,45775,1,2,0:0:0:0:
448,192,45975,1,8,0:0:0:0:
64,192,46175,1,2,0:0:0:0:
320,192,46375,1,8,0:0:0:0:
448,192,46375,1,4,0:0:0:0:
320,192,46775,1,8,0:0:0:0:
448,192,46775,1,0,0:0:0:0:
64,192,47175,1,8,0:0:0:0:
64,192,47575,1,8,0:0:0:0:
192,192,47575,1,0,0:0:0:0:
448,192,47975,1,8,0:0:0:0:
320,192,48375,1,8,0:0:0:0:
448,192,48375,1,0,0:0:0:0:
64,192,48775,1,8,0:0:0:0:
64,192,49175,1,8,0:0:0:0:
192,192,49175,1,0,0:0:0:0:
320,192,49575,128,2,49975:0:0:0:0:
448,192,49575,1,4,0:0:0:0:
192,192,49975,1,8,0:0:0:0:
64,192,50375,1,2,0:0:0:0:
448,192,50775,1,8,0:0:0:0:
192,192,51175,1,2,0:0:0:0:
320,192,51575,1,8,0:0:0:0:
448,192,51975,1,2,0:0:0:0:
64,192,52175,1,2,0:0:0:0:
192,192,52375,1,8,0:0:0:0:
320,192,52575,1,2,0:0:0:0:
448,192,52775,128,2,53575:0:0:0:0:
192,192,53575,1,2,0:0:0:0:
320,192,53775,1,2,0:0:0:0:
192,192,53975,1,2,0:0:0:0:
64,192,54175,128,2,55175:0:0:0:0:
448,192,54175,1,8,0:0:0:0:
448,192,55175,1,2,0:0:0:0:
192,192,55375,1,8,0:0:0:0:
64,192,55575,1,8,0:0:0:0:
320,192,55775,1,8,0:0:0:0:
64,192,55975,128,2,56375:0:0:0:0:
448,192,55975,1,4,0:0:0:0:
192,192,56375,128,10,56775:0:0:0:0:
448,192,56775,128,2,57175:0:0:0:0:
64,192,57175,1,10,0:0:0:0:
192,192,57375,1,0,0:0:0:0:
320,192,57575,1,2,0:0:0:0:
64,192,57775,1,0,0:0:0:0:
192,192,57975,1,2,0:0:0:0:
448,192,57975,1,8,0:0:0:0:
320,192,58375,1,2,0:0:0:0:
192,192,58575,1,0,0:0:0:0:
320,192,58775,1,10,0:0:0:0:
192,192,58975,1,0,0:0:0:0:
448,192,59175,128,2,59575:0:0:0:0:
320,192,59575,128,10,59975:0:0:0:0:
64,192,59975,128,2,60375:0:0:0:0:
448,192,60375,1,10,0:0:0:0:
320,192,60575,1,0,0:0:0:0:
64,192,60775,1,2,0:0:0:0:
192,192,60975,1,0,0:0:0:0:
320,192,61175,1,2,0:0:0:0:
448,192,61175,1,8,0:0:0:0:
64,192,61575,1,2,0:0:0:0:
448,192,61775,1,0,0:0:0:0:
64,192,61975,1,10,0:0:0:0:
448,192,62175,1,0,0:0:0:0:
192,192,62375,128,2,62775:0:0:0:0:
320,192,62775,128,10,63175:0:0:0:0:
448,192,63175,128,2,63575:0:0:0:0:
64,192,63575,1,10,0:0:0:0:
320,192,63775,1,0,0:0:0:0:
192,192,63975,1,2,0:0:0:0:
64,192,64175,1,0,0:0:0:0:
320,192,64375,1,2,0:0:0:0:
448,192,64375,1,8,0:0:0:0:
192,192,64775,1,2,0:0:0:0:
448,192,64975,1,0,0:0:0:0:
192,192,65175,1,10,0:0:0:0:
448,192,65375,1,0,0:0:0:0:
320,192,65575,128,2,65975:0:0:0:0:
64,192,65975,128,10,66375:0:0:0:0:
448,192,66375,128,2,66775:0:0:0:0:
192,192,66775,128,10,67175:0:0:0:0:
320,192,67175,128,2,67575:0:0:0:0:
64,192,67575,128,10,67975:0:0:0:0:
448,192,67975,1,10,0:0:0:0:
320,192,68175,1,0,0:0:0:0:
192,192,68375,1,10,0:0:0:0:
320,192,68575,1,8,0:0:0:0:
64,192,68775,1,2,0:0:0:0:
192,192,68775,128,4,69175:0:0:0:0:
448,192,69175,128,10,69575:0:0:0:0:
64,192,69575,128,2,69975:0:0:0:0:
448,192,69975,1,10,0:0:0:0:
192,192,70175,1,0,0:0:0:0:
320,192,70375,1,2,0:0:0:0:
192,192,70575,1,0,0:0:0:0:
64,192,70775,1,2,0:0:0:0:
448,192,70775,1,8,0:0:0:0:
320,192,71175,128,2,71575:0:0:0:0:
192,192,71575,128,10,71975:0:0:0:0:
64,192,71975,1,4,0:0:0:0:
448,192,71975,1,8,0:0:0:0:
64,192,72375,1,2,0:0:0:0:
320,192,72575,1,8,0:0:0:0:
448,192,72575,1,4,0:0:0:0:
192,192,72975,1,2,0:0:0:0:
448,192,73175,1,8,0:0:0:0:
320,192,73375,1,2,0:0:0:0:
64,192,73575,1,8,0:0:0:0:
192,192,73575,1,4,0:0:0:0:
448,192,73975,1,2,0:0:0:0:
64,192,74175,128,8,74575:0:0:0:0:
192,192,74175,1,4,0:0:0:0:
448,192,74575,1,2,0:0:0:0:
192,192,74775,1,8,0:0:0:0:
448,192,74975,1,8,0:0:0:0:
64,192,75175,1,2,0:0:0:0:
192,192,75175,128,4,75575:0:0:0:0:
320,192,75575,1,10,0:0:0:0:
448,192,75775,128,0,76175:0:0:0:0:
192,192,76175,1,0,0:0:0:0:
320,192,76375,1,10,0:0:0:0:
64,192,76575,128,2,76975:0:0:0:0:
320,192,76975,1,10,0:0:0:0:
192,192,77175,1,14,0:0:0:0:
320,192,77375,128,8,77775:0:0:0:0:
448,192,77775,128,2,78175:0:0:0:0:
192,192,78175,1,2,0:0:0:0:
64,192,78375,1,8,0:0:0:0:
320,192,78375,1,4,0:0:0:0:
64,192,78775,1,8,0:0:0:0:
320,192,78775,1,0,0:0:0:0:
192,192,79175,1,8,0:0:0:0:
192,192,79575,1,8,0:0:0:0:
448,192,79575,1,0,0:0:0:0:
320,192,79975,1,8,0:0:0:0:
64,192,80375,1,8,0:0:0:0:
320,192,80375,1,0,0:0:0:0:
192,192,80775,1,8,0:0:0:0:
192,192,81175,1,8,0:0:0:0:
448,192,81175,1,0,0:0:0:0:
64,192,81575,128,2,81975:0:0:0:0:
320,192,81575,1,4,0:0:0:0:
192,192,81975,128,10,82375:0:0:0:0:
448,192,82375,128,2,82775:0:0:0:0:
320,192,82775,128,10,83175:0:0:0:0:
64,192,83175,128,2,83575:0:0:0:0:
320,192,83575,1,10,0:0:0:0:
192,192,83775,1,0,0:0:0:0:
320,192,83975,1,2,0:0:0:0:
448,192,84175,1,0,0:0:0:0:
64,192,84375,1,2,0:0:0:0:
192,192,84375,1,8,0:0:0:0:
448,192,84775,128,2,85175:0:0:0:0:
192,192,85175,128,10,85575:0:0:0:0:
320,192,85575,128,2,85975:0:0:0:0:
64,192,85975,128,10,86375:0:0:0:0:
448,192,86375,128,2,86775:0:0:0:0:
192,192,86775,1,10,0:0:0:0:
320,192,86975,1,0,0:0:0:0:
192,192,87175,1,2,0:0:0:0:
64,192,87375,1,0,0:0:0:0:
320,192,87575,1,2,0:0:0:0:
448,192,87575,1,8,0:0:0:0:
64,192,87975,1,12,0:0:0:0:
192,192,88175,1,2,0:0:0:0:
320,192,88375,1,2,0:0:0:0:
64,192,88575,1,8,0:0:0:0:
448,192,88575,1,4,0:0:0:0:
64,192,88975,1,8,0:0:0:0:
192,192,88975,1,4,0:0:0:0:
320,192,89375,1,8,0:0:0:0:
448,192,89375,1,4,0:0:0:0:
192,192,89975,128,8,90375:0:0:0:0:
320,192,89975,1,4,0:0:0:0:
448,192,90375,128,8,90775:0:0:0:0:
64,192,90775,128,8,91175:0:0:0:0:
448,192,91175,1,12,0:0:0:0:
64,192,91575,1,8,0:0:0:0:
448,192,91575,1,0,0:0:0:0:
320,192,91975,1,8,0:0:0:0:
192,192,92375,1,8,0:0:0:0:
320,192,92375,1,0,0:0:0:0:
64,192,92775,1,8,0:0:0:0:
64,192,93175,1,8,0:0:0:0:
448,192,93175,1,0,0:0:0:0:
192,192,93575,1,10,0:0:0:0:
320,192,93775,1,10,0:0:0:0:
192,192,93975,1,10,0:0:0:0:
320,192,94175,1,10,0:0:0:0:
64,192,94375,1,2,0:0:0:0:
448,192,94375,1,4,0:0:0:0:
320,192,94775,1,10,0:0:0:0:
192,192,95175,1,2,0:0:0:0:
64,192,95575,1,10,0:0:0:0:
320,192,95975,1,2,0:0:0:0:
448,192,96375,1,10,0:0:0:0:
192,192,96775,1,2,0:0:0:0:
320,192,97175,1,10,0:0:0:0:
64,192,97575,1,2,0:0:0:0:
192,192,97975,1,10,0:0:0:0:
320,192,98375,1,2,0:0:0:0:
448,192,98775,1,10,0:0:0:0:
192,192,99175,1,2,0:0:0:0:
64,192,99575,1,10,0:0:0:0:
320,192,99975,1,2,0:0:0:0:
192,192,100375,1,10,0:0:0:0:
448,192,100775,128,2,101175:0:0:0:0:
192,192,101175,128,10,101575:0:0:0:0:
320,192,101575,128,2,101975:0:0:0:0:
64,192,101975,1,10,0:0:0:0:
448,192,102175,128,2,102575:0:0:0:0:
64,192,102575,1,10,0:0:0:0:
192,192,102775,1,10,0:0:0:0:
320,192,102975,1,10,0:0:0:0:
192,192,103375,128,10,103975:0:0:0:0:
448,192,103375,1,4,0:0:0:0:
320,192,103975,1,6,0:0:0:0:
192,192,104375,1,8,0:0:0:0:
320,192,104375,1,0,0:0:0:0:
64,192,104775,1,8,0:0:0:0:
64,192,105175,1,8,0:0:0:0:
448,192,105175,1,0,0:0:0:0:
192,192,105575,1,8,0:0:0:0:
192,192,105975,1,8,0:0:0:0:
320,192,105975,1,0,0:0:0:0:
448,192,106375,1,8,0:0:0:0:
320,192,106575,1,2,0:0:0:0:
192,192,106775,1,8,0:0:0:0:
64,192,106975,1,2,0:0:0:0:
320,192,107375,1,8,0:0:0:0:
448,192,107375,1,4,0:0:0:0:
192,192,107575,1,6,0:0:0:0:
64,192,107975,1,8,0:0:0:0:
192,192,107975,1,4,0:0:0:0:
320,192,108175,1,6,0:0:0:0:
64,192,108575,1,8,0:0:0:0:
448,192,108575,1,4,0:0:0:0:
192,192,108775,1,6,0:0:0:0:
64,192,109175,1,8,0:0:0:0:
448,192,109175,1,4,0:0:0:0:
320,192,109375,1,6,0:0:0:0:
64,192,109775,1,8,0:0:0:0:
192,192,109775,1,4,0:0:0:0:
448,192,109975,1,2,0:0:0:0:
64,192,110175,128,8,112775:0:0:0:0:
192,192,110175,1,4,0:0:0:0:
192,192,112775,1,8,0:0:0:0:
320,192,112975,1,8,0:0:0:0:
192,192,113175,1,2,0:0:0:0:
64,192,113375,1,8,0:0:0:0:
448,192,113375,128,0,113775:0:0:0:0:
