osu file format v14

[General]
AudioFilename: Amazing.mp3
AudioLeadIn: 0
PreviewTime: 55398
Countdown: 0
SampleSet: Normal
StackLeniency: 0.7
Mode: 1
LetterboxInBreaks: 0
WidescreenStoryboard: 0

[Editor]
DistanceSpacing: 1
BeatDivisor: 4
GridSize: 4
TimelineZoom: 2

[Metadata]
Title:Amazing sky
TitleUnicode:Amazing sky
Artist:Kicco
ArtistUnicode:Kicco
Creator:Charlotte
Version:Oni
Source:タユタマ2 -you're the only one-
Tags:Lump of Sugar tayutama op opening galgame eroge visual novel tayutai Volta Nardoxyribonucleic
BeatmapID:1162191
BeatmapSetID:548834

[Difficulty]
HPDrainRate:6
CircleSize:5
OverallDifficulty:5
ApproachRate:5
SliderMultiplier:1.4
SliderTickRate:1

[Events]
//Background and Video events
0,0,"BG.jpg",0,70
//Break Periods
//Storyboard Layer 0 (Background)
//Storyboard Layer 1 (Fail)
//Storyboard Layer 2 (Pass)
//Storyboard Layer 3 (Foreground)
//Storyboard Sound Samples

[TimingPoints]
1598,400,4,1,0,75,1,0
14398,-100,4,1,0,65,0,0
27198,-100,4,1,0,75,0,0
55998,-100,4,1,0,85,0,1
81598,-100,4,1,0,80,0,0
94398,-100,4,1,0,75,0,0

[HitObjects]
256,192,1598,5,4,0:0:0:0:
256,192,1798,1,0,0:0:0:0:
256,192,1898,1,0,0:0:0:0:
256,192,1998,1,8,0:0:0:0:
256,192,2198,1,8,0:0:0:0:
256,192,2298,1,8,0:0:0:0:
256,192,2398,1,0,0:0:0:0:
256,192,2598,1,0,0:0:0:0:
256,192,2798,1,8,0:0:0:0:
256,192,3198,1,0,0:0:0:0:
256,192,3398,1,8,0:0:0:0:
256,192,3498,1,8,0:0:0:0:
256,192,3598,1,0,0:0:0:0:
256,192,3798,1,8,0:0:0:0:
256,192,3998,1,0,0:0:0:0:
256,192,4198,1,0,0:0:0:0:
256,192,4298,1,0,0:0:0:0:
256,192,4398,1,8,0:0:0:0:
256,192,4598,1,8,0:0:0:0:
256,192,4798,1,0,0:0:0:0:
256,192,5198,1,8,0:0:0:0:
256,192,5398,1,0,0:0:0:0:
256,192,5498,1,0,0:0:0:0:
256,192,5598,1,8,0:0:0:0:
256,192,5798,1,0,0:0:0:0:
256,192,5998,1,8,0:0:0:0:
256,192,6098,1,0,0:0:0:0:
256,192,6198,1,8,0:0:0:0:
256,192,6398,1,0,0:0:0:0:
256,192,6598,1,0,0:0:0:0:
256,192,6698,1,0,0:0:0:0:
256,192,6798,1,8,0:0:0:0:
256,192,6998,1,8,0:0:0:0:
256,192,7098,1,8,0:0:0:0:
256,192,7198,1,0,0:0:0:0:
256,192,7398,1,0,0:0:0:0:
256,192,7598,1,8,0:0:0:0:
256,192,7998,1,0,0:0:0:0:
256,192,8198,1,8,0:0:0:0:
256,192,8298,1,0,0:0:0:0:
256,192,8398,1,0,0:0:0:0:
256,192,8498,1,8,0:0:0:0:
256,192,8598,1,0,0:0:0:0:
256,192,8798,1,0,0:0:0:0:
256,192,8898,1,8,0:0:0:0:
256,192,8998,1,0,0:0:0:0:
256,192,9098,1,0,0:0:0:0:
256,192,9198,1,8,0:0:0:0:
256,192,9398,1,4,0:0:0:0:
256,192,9798,1,4,0:0:0:0:
256,192,9998,1,4,0:0:0:0:
256,192,10198,1,4,0:0:0:0:
256,192,10598,1,12,0:0:0:0:
256,192,10798,1,0,0:0:0:0:
256,192,10898,1,0,0:0:0:0:
256,192,10998,1,8,0:0:0:0:
256,192,11098,1,8,0:0:0:0:
256,192,11198,1,0,0:0:0:0:
256,192,11398,1,0,0:0:0:0:
256,192,11598,1,8,0:0:0:0:
256,192,11798,1,0,0:0:0:0:
256,192,11998,1,8,0:0:0:0:
256,192,12198,1,8,0:0:0:0:
256,192,12298,1,8,0:0:0:0:
256,192,12398,1,0,0:0:0:0:
256,192,12598,1,0,0:0:0:0:
256,192,12798,1,8,0:0:0:0:
256,192,12998,1,0,0:0:0:0:
256,192,13198,1,8,0:0:0:0:
256,192,13398,1,0,0:0:0:0:
256,192,13498,1,8,0:0:0:0:
256,192,13598,1,0,0:0:0:0:
256,192,13798,1,8,0:0:0:0:
256,192,13898,1,0,0:0:0:0:
256,192,13998,1,8,0:0:0:0:
256,192,14098,1,8,0:0:0:0:
256,192,14198,1,0,0:0:0:0:
256,192,14398,1,4,0:0:0:0:
256,192,14798,1,8,0:0:0:0:
256,192,14998,1,8,0:0:0:0:
256,192,15198,1,0,0:0:0:0:
256,192,15398,1,0,0:0:0:0:
256,192,15598,1,8,0:0:0:0:
256,192,15798,1,8,0:0:0:0:
256,192,15998,1,0,0:0:0:0:
256,192,16198,1,8,0:0:0:0:
256,192,16298,1,8,0:0:0:0:
256,192,16398,1,8,0:0:0:0:
256,192,16598,1,8,0:0:0:0:
256,192,16798,1,0,0:0:0:0:
256,192,17198,1,0,0:0:0:0:
256,192,17398,1,8,0:0:0:0:
256,192,17598,1,0,0:0:0:0:
256,192,17798,1,0,0:0:0:0:
256,192,17898,1,8,0:0:0:0:
256,192,17998,1,0,0:0:0:0:
256,192,18198,1,0,0:0:0:0:
256,192,18398,1,8,0:0:0:0:
256,192,18598,1,0,0:0:0:0:
256,192,18798,1,8,0:0:0:0:
256,192,18998,1,8,0:0:0:0:
256,192,19098,1,8,0:0:0:0:
256,192,19198,1,0,0:0:0:0:
256,192,19398,1,8,0:0:0:0:
256,192,19598,1,0,0:0:0:0:
256,192,19798,1,8,0:0:0:0:
256,192,19998,1,8,0:0:0:0:
256,192,20398,1,0,0:0:0:0:
256,192,20598,1,0,0:0:0:0:
256,192,20798,1,8,0:0:0:0:
256,192,21198,1,8,0:0:0:0:
256,192,21398,1,0,0:0:0:0:
256,192,21798,1,0,0:0:0:0:
256,192,21998,1,8,0:0:0:0:
256,192,22198,1,0,0:0:0:0:
256,192,22298,1,0,0:0:0:0:
256,192,22398,1,8,0:0:0:0:
256,192,22598,1,0,0:0:0:0:
256,192,22798,1,8,0:0:0:0:
256,192,22998,1,8,0:0:0:0:
256,192,23098,1,8,0:0:0:0:
256,192,23198,1,0,0:0:0:0:
256,192,23398,1,8,0:0:0:0:
256,192,23598,1,0,0:0:0:0:
256,192,23998,1,8,0:0:0:0:
256,192,24198,1,0,0:0:0:0:
256,192,24398,1,8,0:0:0:0:
256,192,24598,1,8,0:0:0:0:
256,192,24798,1,0,0:0:0:0:
256,192,24998,1,0,0:0:0:0:
256,192,25198,1,8,0:0:0:0:
256,192,25598,1,0,0:0:0:0:
256,192,25798,1,0,0:0:0:0:
256,192,25898,1,0,0:0:0:0:
256,192,25998,1,8,0:0:0:0:
256,192,26198,1,8,0:0:0:0:
256,192,26398,1,0,0:0:0:0:
256,192,26598,1,8,0:0:0:0:
256,192,26698,1,8,0:0:0:0:
256,192,26798,1,0,0:0:0:0:
256,192,26898,1,0,0:0:0:0:
256,192,26998,1,8,0:0:0:0:
256,192,27198,1,4,0:0:0:0:
256,192,27598,1,8,0:0:0:0:
256,192,27798,1,8,0:0:0:0:
256,192,27998,1,0,0:0:0:0:
256,192,28198,1,0,0:0:0:0:
256,192,28298,1,0,0:0:0:0:
256,192,28398,1,8,0:0:0:0:
256,192,28598,1,8,0:0:0:0:
256,192,28798,1,0,0:0:0:0:
256,192,28998,1,8,0:0:0:0:
256,192,29098,1,0,0:0:0:0:
256,192,29198,1,8,0:0:0:0:
256,192,29398,1,8,0:0:0:0:
256,192,29598,1,0,0:0:0:0:
256,192,29998,1,0,0:0:0:0:
256,192,30198,1,8,0:0:0:0:
256,192,30398,1,0,0:0:0:0:
256,192,30598,1,0,0:0:0:0:
256,192,30698,1,8,0:0:0:0:
256,192,30798,1,8,0:0:0:0:
256,192,30998,1,0,0:0:0:0:
256,192,31198,1,8,0:0:0:0:
256,192,31398,1,0,0:0:0:0:
256,192,31498,1,8,0:0:0:0:
256,192,31598,1,0,0:0:0:0:
256,192,31798,1,8,0:0:0:0:
256,192,31998,1,0,0:0:0:0:
256,192,32098,1,0,0:0:0:0:
256,192,32198,1,8,0:0:0:0:
256,192,32398,1,0,0:0:0:0:
256,192,32598,1,8,0:0:0:0:
256,192,32798,1,0,0:0:0:0:
256,192,33198,1,8,0:0:0:0:
256,192,33398,1,0,0:0:0:0:
256,192,33598,1,8,0:0:0:0:
256,192,33998,1,0,0:0:0:0:
256,192,34198,1,8,0:0:0:0:
256,192,34298,1,8,0:0:0:0:
256,192,34398,1,0,0:0:0:0:
256,192,34598,1,0,0:0:0:0:
256,192,34798,1,8,0:0:0:0:
256,192,34998,1,8,0:0:0:0:
256,192,35198,1,0,0:0:0:0:
256,192,35398,1,0,0:0:0:0:
256,192,35498,1,0,0:0:0:0:
256,192,35598,1,8,0:0:0:0:
256,192,35798,1,0,0:0:0:0:
256,192,35998,1,8,0:0:0:0:
256,192,36098,1,8,0:0:0:0:
256,192,36198,1,0,0:0:0:0:
256,192,36398,1,8,0:0:0:0:
256,192,36598,1,8,0:0:0:0:
256,192,36798,1,4,0:0:0:0:
256,192,37198,1,4,0:0:0:0:
256,192,37398,1,4,0:0:0:0:
256,192,37798,1,4,0:0:0:0:
256,192,38198,1,12,0:0:0:0:
256,192,38598,1,0,0:0:0:0:
256,192,38798,1,0,0:0:0:0:
256,192,38898,1,0,0:0:0:0:
256,192,38998,1,8,0:0:0:0:
256,192,39198,1,8,0:0:0:0:
256,192,39298,1,0,0:0:0:0:
256,192,39398,1,0,0:0:0:0:
256,192,39498,1,0,0:0:0:0:
256,192,39598,1,8,0:0:0:0:
256,192,39698,1,8,0:0:0:0:
256,192,39798,1,0,0:0:0:0:
256,192,39998,1,4,0:0:0:0:
256,192,40198,1,0,0:0:0:0:
256,192,40398,1,8,0:0:0:0:
256,192,40598,1,8,0:0:0:0:
256,192,40698,1,8,0:0:0:0:
256,192,40798,1,0,0:0:0:0:
256,192,40998,1,0,0:0:0:0:
256,192,41198,1,8,0:0:0:0:
256,192,41598,1,8,0:0:0:0:
256,192,41798,1,0,0:0:0:0:
256,192,41998,1,8,0:0:0:0:
256,192,42198,1,8,0:0:0:0:
256,192,42398,1,0,0:0:0:0:
256,192,42598,1,8,0:0:0:0:
256,192,42698,1,0,0:0:0:0:
256,192,42798,1,0,0:0:0:0:
256,192,42998,1,8,0:0:0:0:
256,192,43198,1,0,0:0:0:0:
256,192,43598,1,0,0:0:0:0:
256,192,43798,1,8,0:0:0:0:
256,192,43998,1,0,0:0:0:0:
256,192,44198,1,0,0:0:0:0:
256,192,44298,1,0,0:0:0:0:
256,192,44398,1,8,0:0:0:0:
256,192,44598,1,8,0:0:0:0:
256,192,44798,1,0,0:0:0:0:
256,192,45198,1,0,0:0:0:0:
256,192,45398,1,8,0:0:0:0:
256,192,45598,1,0,0:0:0:0:
256,192,45798,1,8,0:0:0:0:
256,192,45898,1,0,0:0:0:0:
256,192,45998,1,0,0:0:0:0:
256,192,46098,1,0,0:0:0:0:
256,192,46198,1,8,0:0:0:0:
256,192,46398,1,4,0:0:0:0:
256,192,46598,1,0,0:0:0:0:
256,192,46798,1,8,0:0:0:0:
256,192,46998,1,8,0:0:0:0:
256,192,47098,1,0,0:0:0:0:
256,192,47198,1,8,0:0:0:0:
256,192,47398,1,0,0:0:0:0:
256,192,47498,1,0,0:0:0:0:
256,192,47598,1,8,0:0:0:0:
256,192,47798,1,8,0:0:0:0:
256,192,47998,1,0,0:0:0:0:
256,192,48398,1,0,0:0:0:0:
256,192,48598,1,8,0:0:0:0:
256,192,48798,1,0,0:0:0:0:
256,192,48998,1,8,0:0:0:0:
256,192,49098,1,0,0:0:0:0:
256,192,49198,1,0,0:0:0:0:
256,192,49398,1,8,0:0:0:0:
256,192,49598,1,0,0:0:0:0:
256,192,49998,1,0,0:0:0:0:
256,192,50198,1,8,0:0:0:0:
256,192,50398,1,0,0:0:0:0:
256,192,50598,1,0,0:0:0:0:
256,192,50698,1,0,0:0:0:0:
256,192,50798,1,8,0:0:0:0:
256,192,50998,1,8,0:0:0:0:
256,192,51198,1,0,0:0:0:0:
256,192,51598,1,8,0:0:0:0:
256,192,51798,1,8,0:0:0:0:
256,192,51998,1,0,0:0:0:0:
256,192,52198,1,0,0:0:0:0:
256,192,52298,1,0,0:0:0:0:
256,192,52398,1,8,0:0:0:0:
256,192,52598,1,8,0:0:0:0:
256,192,52798,1,0,0:0:0:0:
256,192,52998,1,0,0:0:0:0:
256,192,53198,1,0,0:0:0:0:
256,192,53398,1,0,0:0:0:0:
256,192,53598,1,0,0:0:0:0:
256,192,53798,1,0,0:0:0:0:
256,192,53998,1,0,0:0:0:0:
256,192,54198,1,8,0:0:0:0:
256,192,54398,1,0,0:0:0:0:
256,192,54498,1,0,0:0:0:0:
256,192,54598,1,8,0:0:0:0:
256,192,54798,1,8,0:0:0:0:
256,192,54898,1,0,0:0:0:0:
256,192,54998,1,0,0:0:0:0:
256,192,55098,1,0,0:0:0:0:
256,192,55198,1,8,0:0:0:0:
256,192,55398,1,0,0:0:0:0:
256,192,55598,1,8,0:0:0:0:
256,192,55698,1,8,0:0:0:0:
256,192,55798,1,8,0:0:0:0:
256,192,55998,1,4,0:0:0:0:
256,192,56298,1,0,0:0:0:0:
256,192,56398,1,8,0:0:0:0:
256,192,56598,1,0,0:0:0:0:
256,192,56798,1,8,0:0:0:0:
256,192,56998,1,0,0:0:0:0:
256,192,57098,1,0,0:0:0:0:
256,192,57198,1,8,0:0:0:0:
256,192,57398,1,8,0:0:0:0:
256,192,57498,1,8,0:0:0:0:
256,192,57598,1,0,0:0:0:0:
256,192,57798,1,0,0:0:0:0:
256,192,57998,1,8,0:0:0:0:
256,192,58198,1,0,0:0:0:0:
256,192,58298,1,0,0:0:0:0:
256,192,58398,1,8,0:0:0:0:
256,192,58498,1,8,0:0:0:0:
256,192,58598,1,0,0:0:0:0:
256,192,58798,1,8,0:0:0:0:
256,192,58998,1,8,0:0:0:0:
256,192,59198,1,0,0:0:0:0:
256,192,59598,1,8,0:0:0:0:
256,192,59798,1,0,0:0:0:0:
256,192,59898,1,0,0:0:0:0:
256,192,59998,1,8,0:0:0:0:
256,192,60198,1,0,0:0:0:0:
256,192,60398,1,8,0:0:0:0:
256,192,60598,1,8,0:0:0:0:
256,192,60698,1,0,0:0:0:0:
256,192,60798,1,8,0:0:0:0:
256,192,60998,1,0,0:0:0:0:
256,192,61098,1,8,0:0:0:0:
256,192,61198,1,0,0:0:0:0:
256,192,61298,1,0,0:0:0:0:
256,192,61398,1,8,0:0:0:0:
256,192,61598,1,0,0:0:0:0:
256,192,61798,1,0,0:0:0:0:
256,192,61998,1,8,0:0:0:0:
256,192,62398,1,0,0:0:0:0:
256,192,62698,1,0,0:0:0:0:
256,192,62798,1,8,0:0:0:0:
256,192,62998,1,8,0:0:0:0:
256,192,63198,1,0,0:0:0:0:
256,192,63398,1,0,0:0:0:0:
256,192,63498,1,0,0:0:0:0:
256,192,63598,1,8,0:0:0:0:
256,192,63798,1,8,0:0:0:0:
256,192,63998,1,0,0:0:0:0:
256,192,64398,1,8,0:0:0:0:
256,192,64598,1,8,0:0:0:0:
256,192,64798,1,0,0:0:0:0:
256,192,64998,1,0,0:0:0:0:
256,192,65098,1,0,0:0:0:0:
256,192,65198,1,8,0:0:0:0:
256,192,65398,1,8,0:0:0:0:
256,192,65598,1,0,0:0:0:0:
256,192,65798,1,0,0:0:0:0:
256,192,65998,1,8,0:0:0:0:
256,192,66198,1,0,0:0:0:0:
256,192,66298,1,8,0:0:0:0:
256,192,66398,1,0,0:0:0:0:
256,192,66598,1,0,0:0:0:0:
256,192,66798,1,0,0:0:0:0:
256,192,66898,1,8,0:0:0:0:
256,192,66998,1,0,0:0:0:0:
256,192,67198,1,8,0:0:0:0:
256,192,67298,1,0,0:0:0:0:
256,192,67398,1,8,0:0:0:0:
256,192,67498,1,8,0:0:0:0:
256,192,67598,1,0,0:0:0:0:
256,192,67798,1,0,0:0:0:0:
256,192,67898,1,0,0:0:0:0:
256,192,67998,1,8,0:0:0:0:
256,192,68198,1,0,0:0:0:0:
256,192,68398,1,8,0:0:0:0:
256,192,68598,1,8,0:0:0:0:
256,192,68798,1,4,0:0:0:0:
256,192,69098,1,0,0:0:0:0:
256,192,69198,1,8,0:0:0:0:
256,192,69398,1,0,0:0:0:0:
256,192,69598,1,8,0:0:0:0:
256,192,69798,1,0,0:0:0:0:
256,192,69898,1,8,0:0:0:0:
256,192,69998,1,8,0:0:0:0:
256,192,70198,1,8,0:0:0:0:
256,192,70298,1,0,0:0:0:0:
256,192,70398,1,0,0:0:0:0:
256,192,70598,1,0,0:0:0:0:
256,192,70798,1,8,0:0:0:0:
256,192,70998,1,8,0:0:0:0:
256,192,71098,1,0,0:0:0:0:
256,192,71198,1,8,0:0:0:0:
256,192,71298,1,8,0:0:0:0:
256,192,71398,1,0,0:0:0:0:
256,192,71598,1,8,0:0:0:0:
256,192,71798,1,8,0:0:0:0:
256,192,71998,1,4,0:0:0:0:
256,192,72398,1,8,0:0:0:0:
256,192,72598,1,0,0:0:0:0:
256,192,72698,1,0,0:0:0:0:
256,192,72798,1,8,0:0:0:0:
256,192,72998,1,0,0:0:0:0:
256,192,73198,1,8,0:0:0:0:
256,192,73398,1,8,0:0:0:0:
256,192,73498,1,0,0:0:0:0:
256,192,73598,1,8,0:0:0:0:
256,192,73798,1,0,0:0:0:0:
256,192,73898,1,8,0:0:0:0:
256,192,73998,1,8,0:0:0:0:
256,192,74098,1,0,0:0:0:0:
256,192,74198,1,8,0:0:0:0:
256,192,74398,1,0,0:0:0:0:
256,192,74598,1,0,0:0:0:0:
256,192,74698,1,0,0:0:0:0:
256,192,74798,1,8,0:0:0:0:
256,192,74998,1,8,0:0:0:0:
256,192,75198,1,0,0:0:0:0:
256,192,75598,1,8,0:0:0:0:
256,192,75798,1,8,0:0:0:0:
256,192,75998,1,0,0:0:0:0:
256,192,76198,1,0,0:0:0:0:
256,192,76298,1,0,0:0:0:0:
256,192,76398,1,8,0:0:0:0:
256,192,76598,1,8,0:0:0:0:
256,192,76698,1,8,0:0:0:0:
256,192,76798,1,0,0:0:0:0:
256,192,76998,1,8,0:0:0:0:
256,192,77198,1,0,0:0:0:0:
256,192,77298,1,0,0:0:0:0:
256,192,77398,1,8,0:0:0:0:
256,192,77498,1,8,0:0:0:0:
256,192,77598,1,0,0:0:0:0:
256,192,77798,1,8,0:0:0:0:
256,192,77998,1,0,0:0:0:0:
256,192,78098,1,0,0:0:0:0:
256,192,78198,1,8,0:0:0:0:
256,192,78398,1,0,0:0:0:0:
256,192,78798,1,8,0:0:0:0:
256,192,78998,1,0,0:0:0:0:
256,192,79198,1,8,0:0:0:0:
256,192,79398,1,0,0:0:0:0:
256,192,79498,1,0,0:0:0:0:
256,192,79598,1,8,0:0:0:0:
256,192,79798,1,8,0:0:0:0:
256,192,79998,1,0,0:0:0:0:
256,192,80398,1,8,0:0:0:0:
256,192,80598,1,0,0:0:0:0:
256,192,80798,1,8,0:0:0:0:
256,192,80998,1,0,0:0:0:0:
256,192,81098,1,8,0:0:0:0:
256,192,81198,1,8,0:0:0:0:
256,192,81398,1,0,0:0:0:0:
256,192,81498,1,0,0:0:0:0:
256,192,81598,1,8,0:0:0:0:
256,192,81998,1,0,0:0:0:0:
256,192,82198,1,0,0:0:0:0:
256,192,82298,1,0,0:0:0:0:
256,192,82398,1,8,0:0:0:0:
256,192,82598,1,0,0:0:0:0:
256,192,82798,1,8,0:0:0:0:
256,192,82998,1,8,0:0:0:0:
256,192,83198,1,0,0:0:0:0:
256,192,83398,1,0,0:0:0:0:
256,192,83498,1,8,0:0:0:0:
256,192,83598,1,0,0:0:0:0:
256,192,83798,1,8,0:0:0:0:
256,192,83998,1,0,0:0:0:0:
256,192,84198,1,8,0:0:0:0:
256,192,84298,1,8,0:0:0:0:
256,192,84398,1,8,0:0:0:0:
256,192,84598,1,0,0:0:0:0:
256,192,84798,1,12,0:0:0:0:
256,192,85198,1,0,0:0:0:0:
256,192,85398,1,0,0:0:0:0:
256,192,85498,1,0,0:0:0:0:
256,192,85598,1,8,0:0:0:0:
256,192,85798,1,0,0:0:0:0:
256,192,85998,1,8,0:0:0:0:
256,192,86198,1,8,0:0:0:0:
256,192,86398,1,0,0:0:0:0:
256,192,86598,1,8,0:0:0:0:
256,192,86698,1,0,0:0:0:0:
256,192,86798,1,0,0:0:0:0:
256,192,86998,1,8,0:0:0:0:
256,192,87198,1,0,0:0:0:0:
256,192,87398,1,0,0:0:0:0:
256,192,87498,1,0,0:0:0:0:
256,192,87598,1,8,0:0:0:0:
256,192,87798,1,8,0:0:0:0:
256,192,87998,1,0,0:0:0:0:
256,192,88198,1,0,0:0:0:0:
256,192,88398,1,8,0:0:0:0:
256,192,88598,1,4,0:0:0:0:
256,192,88998,1,4,0:0:0:0:
256,192,89398,1,4,0:0:0:0:
256,192,89998,1,12,0:0:0:0:
256,192,90198,1,8,0:0:0:0:
256,192,90298,1,8,0:0:0:0:
256,192,90398,1,0,0:0:0:0:
256,192,90598,1,8,0:0:0:0:
256,192,90798,1,0,0:0:0:0:
256,192,90898,1,0,0:0:0:0:
256,192,90998,1,8,0:0:0:0:
256,192,91098,1,8,0:0:0:0:
256,192,91198,1,0,0:0:0:0:
256,192,91398,1,0,0:0:0:0:
256,192,91598,1,8,0:0:0:0:
256,192,91798,1,0,0:0:0:0:
256,192,91898,1,0,0:0:0:0:
256,192,91998,1,8,0:0:0:0:
256,192,92198,1,0,0:0:0:0:
256,192,92398,1,8,0:0:0:0:
256,192,92598,1,8,0:0:0:0:
256,192,92698,1,8,0:0:0:0:
256,192,92798,1,0,0:0:0:0:
256,192,92998,1,0,0:0:0:0:
256,192,93198,1,8,0:0:0:0:
256,192,93398,1,0,0:0:0:0:
256,192,93498,1,0,0:0:0:0:
256,192,93598,1,8,0:0:0:0:
256,192,93798,1,0,0:0:0:0:
256,192,93998,1,8,0:0:0:0:
256,192,94098,1,8,0:0:0:0:
256,192,94198,1,8,0:0:0:0:
256,192,94298,1,8,0:0:0:0:
256,192,94398,1,0,0:0:0:0:
256,192,94798,1,8,0:0:0:0:
256,192,94998,1,8,0:0:0:0:
256,192,95098,1,8,0:0:0:0:
256,192,95198,1,0,0:0:0:0:
256,192,95398,1,0,0:0:0:0:
256,192,95598,1,8,0:0:0:0:
256,192,95998,1,0,0:0:0:0:
256,192,96198,1,8,0:0:0:0:
256,192,96298,1,8,0:0:0:0:
256,192,96398,1,0,0:0:0:0:
256,192,96598,1,8,0:0:0:0:
256,192,96798,1,0,0:0:0:0:
256,192,96998,1,8,0:0:0:0:
256,192,97098,1,8,0:0:0:0:
256,192,97198,1,0,0:0:0:0:
256,192,97298,1,0,0:0:0:0:
256,192,97398,1,8,0:0:0:0:
256,192,97598,1,0,0:0:0:0:
256,192,97998,1,8,0:0:0:0:
256,192,98198,1,0,0:0:0:0:
256,192,98298,1,0,0:0:0:0:
256,192,98398,1,8,0:0:0:0:
256,192,98598,1,0,0:0:0:0:
256,192,98698,1,8,0:0:0:0:
256,192,98798,1,0,0:0:0:0:
256,192,98998,1,8,0:0:0:0:
256,192,99198,1,0,0:0:0:0:
256,192,99398,1,0,0:0:0:0:
256,192,99598,1,8,0:0:0:0:
256,192,99798,1,0,0:0:0:0:
256,192,99898,1,8,0:0:0:0:
256,192,99998,1,0,0:0:0:0:
256,192,100198,1,0,0:0:0:0:
256,192,100398,1,8,0:0:0:0:
256,192,100798,1,0,0:0:0:0:
256,192,100998,1,8,0:0:0:0:
256,192,101098,1,0,0:0:0:0:
256,192,101198,1,0,0:0:0:0:
256,192,101298,1,8,0:0:0:0:
256,192,101398,1,0,0:0:0:0:
256,192,101598,1,8,0:0:0:0:
256,192,101698,1,0,0:0:0:0:
256,192,101798,1,8,0:0:0:0:
256,192,101898,1,8,0:0:0:0:
256,192,101998,1,0,0:0:0:0:
256,192,102198,1,12,0:0:0:0:
256,192,102598,1,4,0:0:0:0:
256,192,102798,1,4,0:0:0:0:
256,192,102998,1,4,0:0:0:0:
256,192,103398,1,12,0:0:0:0:
256,192,103598,1,0,0:0:0:0:
256,192,103698,1,0,0:0:0:0:
256,192,103798,1,0,0:0:0:0:
256,192,103898,1,0,0:0:0:0:
256,192,103998,1,8,0:0:0:0:
256,192,104198,1,0,0:0:0:0:
256,192,104398,1,8,0:0:0:0:
256,192,104598,1,0,0:0:0:0:
256,192,104698,1,0,0:0:0:0:
256,192,104798,1,8,0:0:0:0:
256,192,104998,1,0,0:0:0:0:
256,192,105198,1,0,0:0:0:0:
256,192,105298,1,8,0:0:0:0:
256,192,105398,1,0,0:0:0:0:
256,192,105598,1,8,0:0:0:0:
256,192,105798,1,0,0:0:0:0:
256,192,105898,1,0,0:0:0:0:
256,192,105998,1,8,0:0:0:0:
256,192,106198,1,0,0:0:0:0:
256,192,106398,1,8,0:0:0:0:
256,192,106598,1,0,0:0:0:0:
256,192,106798,1,8,0:0:0:0:
256,192,106898,1,0,0:0:0:0:
256,192,106998,1,0,0:0:0:0:
256,192,107098,1,0,0:0:0:0:
256,192,107398,1,4,0:0:0:0:
256,192,107598,1,4,0:0:0:0:
256,192,107998,1,4,0:0:0:0:
256,192,108198,1,4,0:0:0:0:
256,192,108598,1,4,0:0:0:0:
256,192,108798,1,4,0:0:0:0:
256,192,109198,1,4,0:0:0:0:
256,192,109398,1,4,0:0:0:0:
256,192,109798,1,4,0:0:0:0:
256,192,109998,1,12,0:0:0:0:
256,192,110198,12,0,112598,0:0:0:0:
252,196,112798,5,8,0:0:0:0:
252,196,112898,1,8,0:0:0:0:
252,196,112998,1,8,0:0:0:0:
252,196,113098,1,0,0:0:0:0:
252,196,113198,1,0,0:0:0:0:
252,196,113398,1,4,0:0:0:0:
