osu file format v14

[General]
AudioFilename: audio.mp3
AudioLeadIn: 0
PreviewTime: 182779
Countdown: 1
SampleSet: Soft
StackLeniency: 0.7
Mode: 0
LetterboxInBreaks: 0
WidescreenStoryboard: 0

[Editor]
DistanceSpacing: 2
BeatDivisor: 4
GridSize: 4
TimelineZoom: 1

[Metadata]
Title:Amazing Sky
TitleUnicode:Amazing Sky
Artist:Kicco
ArtistUnicode:Kicco
Creator:suli
Version:hupoz
Source:
Tags:
BeatmapID:2250552
BeatmapSetID:1075557

[Difficulty]
HPDrainRate:6
CircleSize:4
OverallDifficulty:8
ApproachRate:9
SliderMultiplier:1.7
SliderTickRate:1

[Events]
//Background and Video events
0,0,"5c9184314b637bc2088e44d11fec6b75_9a396dc5gw1falojpn9u2j211y0lc15o.jpg",0,0
//Break Periods
2,93179,102029
2,182778,195379
//Storyboard Layer 0 (Background)
//Storyboard Layer 1 (Fail)
//Storyboard Layer 2 (Pass)
//Storyboard Layer 3 (Foreground)
//Storyboard Layer 4 (Overlay)
//Storyboard Sound Samples

[TimingPoints]
379,400,4,2,1,80,1,0
54179,-100,4,2,1,80,0,1
89979,-100,4,2,1,80,0,0
143779,-100,4,2,1,80,0,1
181179,-133.333333333333,4,2,1,80,0,0
198579,-100,4,2,1,80,0,0
204579,-100,4,2,1,80,0,1
240379,-100,4,2,1,80,0,0
259379,-500,4,2,1,80,0,0
261979,-133.333333333333,4,2,1,80,0,0

[HitObjects]
138,74,379,5,0,0:0:0:0:
104,204,579,1,0,0:0:0:0:
232,168,779,1,0,0:0:0:0:
54,120,979,1,0,0:0:0:0:
207,255,1179,6,0,P|282:253|301:232,1,85
257,90,1579,2,0,P|193:96|164:132,1,85
380,92,1979,5,0,0:0:0:0:
235,176,2179,1,0,0:0:0:0:
235,176,2279,1,0,0:0:0:0:
235,176,2379,2,0,L|203:271,1,85
225,338,2779,5,0,0:0:0:0:
348,323,2979,1,0,0:0:0:0:
401,212,3179,5,0,0:0:0:0:
241,330,3379,1,0,0:0:0:0:
218,166,3579,5,0,0:0:0:0:
326,304,3779,1,0,0:0:0:0:
335,124,3979,1,0,0:0:0:0:
166,254,4179,1,0,0:0:0:0:
166,254,4379,6,0,P|125:215|120:167,1,85
165,117,4779,2,0,L|355:124,1,170
421,100,5379,1,0,0:0:0:0:
374,252,5579,1,0,0:0:0:0:
421,183,5779,1,0,0:0:0:0:
296,282,5979,1,0,0:0:0:0:
296,282,6179,2,0,B|276:242|296:213|296:213|237:200|221:119,1,170
91,65,6779,5,0,0:0:0:0:
91,65,6879,1,0,0:0:0:0:
91,65,6979,2,0,L|79:112,3,42.5
169,176,7379,5,0,0:0:0:0:
169,176,7479,1,0,0:0:0:0:
169,176,7579,2,0,L|157:129,3,42.5
187,51,7979,5,0,0:0:0:0:
187,51,8079,1,0,0:0:0:0:
187,51,8179,2,0,P|301:59|339:112,1,170
236,231,8779,1,0,0:0:0:0:
324,115,8979,1,0,0:0:0:0:
324,115,9379,6,0,P|346:176|232:229,1,212.5
190,136,9979,5,2,0:0:0:0:
64,284,10179,1,0,0:0:0:0:
97,113,10379,5,2,0:0:0:0:
163,289,10579,1,0,0:0:0:0:
278,153,10779,5,2,0:0:0:0:
111,310,10979,1,0,0:0:0:0:
212,61,11179,5,2,0:0:0:0:
224,228,11379,1,0,0:0:0:0:
321,68,11579,5,2,0:0:0:0:
314,245,11779,1,0,0:0:0:0:
237,136,11979,5,2,0:0:0:0:
449,245,12179,1,0,0:0:0:0:
419,165,12379,1,2,0:0:0:0:
336,167,12579,1,0,0:0:0:0:
314,245,12779,1,0,0:0:0:0:
315,245,12879,1,0,0:0:0:0:
314,245,12979,1,0,0:0:0:0:
383,294,13179,6,0,P|336:333|303:333,1,85
145,295,13579,1,0,0:0:0:0:
145,295,13779,1,0,0:0:0:0:
145,295,13979,2,0,L|123:198,2,85
234,247,14579,2,0,P|324:221|369:146,1,170
312,94,15179,2,0,L|221:70,2,85
283,183,15779,5,0,0:0:0:0:
283,183,15879,1,0,0:0:0:0:
283,183,15979,1,0,0:0:0:0:
89,115,16179,1,0,0:0:0:0:
89,115,16379,2,0,L|66:211,1,85
175,196,16779,2,0,L|207:281,1,85
302,244,17179,2,0,L|381:298,2,85
204,275,17779,2,0,P|225:166|280:141,1,170
365,127,18379,2,0,P|344:81|302:61,2,85
304,239,18979,5,0,0:0:0:0:
365,127,19179,1,0,0:0:0:0:
254,141,19379,1,0,0:0:0:0:
254,141,19479,1,0,0:0:0:0:
254,141,19579,2,0,B|216:158|189:138|189:138|119:115|73:186,1,170
92,326,20179,1,0,0:0:0:0:
154,219,20379,5,0,0:0:0:0:
92,326,20579,1,0,0:0:0:0:
152,244,20779,1,0,0:0:0:0:
218,330,20979,1,0,0:0:0:0:
218,330,21179,2,0,P|255:282|255:242,1,85
229,145,21579,2,0,L|49:126,2,170
409,82,22579,1,0,0:0:0:0:
409,82,22779,6,0,P|393:143|353:181,1,85
303,273,23179,2,0,P|295:215|308:165,1,85
220,44,23579,1,0,0:0:0:0:
296,189,23779,1,0,0:0:0:0:
220,44,23979,6,0,P|164:84|159:120,1,85
123,192,24379,2,0,P|198:189|217:162,1,85
263,122,24779,5,8,0:0:0:0:
425,158,24979,1,0,0:0:0:0:
322,27,25179,1,8,0:0:0:0:
335,194,25379,1,0,0:0:0:0:
418,59,25579,1,8,0:0:0:0:
418,59,25679,1,8,0:0:0:0:
418,59,25779,5,8,0:0:0:0:
468,273,25979,2,0,P|421:276|380:254,1,85
145,222,26379,2,0,P|201:249|233:241,1,85
248,62,26779,5,0,0:0:0:0:
209,164,26979,1,0,0:0:0:0:
338,148,27179,1,0,0:0:0:0:
401,85,27379,2,0,P|419:146|361:236,1,170
338,148,27979,2,0,P|293:154|242:134,1,85
35,44,28379,5,0,0:0:0:0:
46,147,28579,1,0,0:0:0:0:
161,68,28779,5,0,0:0:0:0:
161,68,28879,1,0,0:0:0:0:
161,68,28979,2,0,L|137:158,1,85
237,298,29379,2,0,L|220:213,1,85
225,95,29779,5,0,0:0:0:0:
319,73,29979,1,0,0:0:0:0:
220,214,30179,1,0,0:0:0:0:
366,171,30379,1,0,0:0:0:0:
366,171,30579,2,0,P|404:144|434:25,1,170
403,100,31179,2,0,P|357:84|316:93,1,85
233,155,31579,5,0,0:0:0:0:
321,93,31779,1,0,0:0:0:0:
233,155,31979,2,0,L|205:246,1,85
112,172,32379,2,0,L|77:73,1,85
256,181,32779,2,0,L|228:272,1,85
301,314,33179,6,0,B|361:274|428:360|492:291,1,170
431,230,33779,2,0,B|402:198|399:137|399:137|392:172|345:195,1,170
195,88,34379,2,0,P|123:127|115:209,2,170
410,172,35579,6,0,P|366:248|408:351,1,170,4|0,0:0|0:0,0:0:0:0:
404,229,36179,2,4,B|347:255|347:255|282:254|239:201,2,170
166,128,37379,5,0,0:0:0:0:
146,249,37579,1,0,0:0:0:0:
250,214,37779,1,0,0:0:0:0:
82,181,37979,5,0,0:0:0:0:
260,122,38179,1,0,0:0:0:0:
260,122,38279,1,0,0:0:0:0:
260,122,38379,1,0,0:0:0:0:
145,334,38579,1,0,0:0:0:0:
314,267,38779,6,0,P|329:193|318:172,1,85,2|0,0:0|0:0,0:0:0:0:
214,48,39179,5,2,0:0:0:0:
255,214,39379,1,0,0:0:0:0:
99,109,39579,5,2,0:0:0:0:
303,127,39779,1,0,0:0:0:0:
89,213,39979,5,2,0:0:0:0:
243,53,40179,1,0,0:0:0:0:
176,272,40379,5,2,0:0:0:0:
137,46,40579,1,0,0:0:0:0:
277,241,40779,5,2,0:0:0:0:
65,127,40979,1,0,0:0:0:0:
314,144,41179,5,2,0:0:0:0:
77,236,41379,1,0,0:0:0:0:
245,46,41579,1,2,0:0:0:0:
206,297,41779,1,0,0:0:0:0:
206,297,41979,6,0,P|328:289|380:244,1,170
271,222,42579,2,0,P|325:174|350:76,1,170
260,111,43179,5,0,0:0:0:0:
260,111,43379,2,0,P|197:142|161:135,1,85
111,115,43779,1,0,0:0:0:0:
111,115,43979,2,0,P|112:177|143:212,1,85
173,281,44379,6,0,L|70:303,2,85
146,77,45179,5,2,0:0:0:0:
175,282,45379,1,0,0:0:0:0:
268,59,45579,5,2,0:0:0:0:
195,278,45779,1,0,0:0:0:0:
353,115,45979,5,2,0:0:0:0:
223,270,46179,1,0,0:0:0:0:
423,199,46379,5,2,0:0:0:0:
248,264,46579,1,0,0:0:0:0:
170,53,46779,5,2,0:0:0:0:
253,241,46979,1,0,0:0:0:0:
92,149,47179,5,2,0:0:0:0:
258,214,47379,1,0,0:0:0:0:
70,275,47579,5,2,0:0:0:0:
268,190,47779,1,0,0:0:0:0:
214,122,47979,6,0,P|302:102|351:171,1,170
428,126,48579,2,0,P|404:230|354:243,1,170
230,321,49179,1,0,0:0:0:0:
230,321,49379,2,0,L|196:222,2,85
247,174,49979,6,0,P|186:159|158:183,1,85
323,122,50379,2,0,P|330:69|302:24,1,85
371,207,50779,2,0,P|423:217|459:195,1,85
287,254,51179,2,0,P|272:315|296:343,1,85
158,159,51579,5,0,0:0:0:0:
204,232,51779,1,0,0:0:0:0:
125,238,51979,1,0,0:0:0:0:
77,179,52179,5,0,0:0:0:0:
235,165,52379,1,0,0:0:0:0:
167,303,52579,1,0,0:0:0:0:
33,160,52779,5,0,0:0:0:0:
277,122,52979,1,0,0:0:0:0:
33,160,53379,5,0,0:0:0:0:
277,122,53579,1,0,0:0:0:0:
174,335,53779,1,0,0:0:0:0:
350,329,54179,1,0,0:0:0:0:
360,288,54279,1,0,0:0:0:0:
360,245,54379,1,0,0:0:0:0:
350,204,54479,1,0,0:0:0:0:
329,167,54579,1,0,0:0:0:0:
299,137,54679,1,0,0:0:0:0:
263,115,54779,6,0,L|148:141,1,85
100,265,55179,2,0,L|197:289,1,85
325,280,55579,5,0,0:0:0:0:
423,157,55779,1,0,0:0:0:0:
450,268,55979,1,0,0:0:0:0:
317,166,56179,1,0,0:0:0:0:
182,285,56379,2,0,P|184:229|205:200,1,85
450,268,56779,2,0,P|458:311|433:350,1,85
317,166,57179,5,0,0:0:0:0:
274,334,57379,1,0,0:0:0:0:
262,103,57579,2,0,P|313:83|353:104,1,85
419,176,57979,2,0,L|440:358,2,170
308,81,58979,5,0,0:0:0:0:
308,81,59179,2,0,P|257:75|225:105,1,85
143,94,59579,2,0,P|154:151|190:178,1,85
265,189,59979,1,0,0:0:0:0:
265,189,60179,2,0,B|246:280|164:235|170:340,1,170
254,330,60779,6,0,P|320:334|345:317,1,85
327,116,61179,1,0,0:0:0:0:
334,325,61379,1,0,0:0:0:0:
440,229,61579,1,0,0:0:0:0:
240,225,61779,1,0,0:0:0:0:
254,120,61979,5,0,0:0:0:0:
330,206,62179,1,0,0:0:0:0:
171,172,62379,1,0,0:0:0:0:
376,140,62579,2,0,P|413:197|355:282,1,170
118,343,63179,6,0,P|150:298|137:258,1,85
76,30,63579,2,0,P|63:91|81:115,1,85
113,186,63979,1,0,0:0:0:0:
113,186,64179,1,0,0:0:0:0:
113,186,64379,2,0,L|300:180,1,170
440,157,64979,5,0,0:0:0:0:
310,282,65179,1,0,0:0:0:0:
282,180,65379,1,0,0:0:0:0:
456,254,65579,1,0,0:0:0:0:
356,98,65779,5,0,0:0:0:0:
395,335,65979,1,0,0:0:0:0:
239,131,66179,5,0,0:0:0:0:
222,325,66379,1,0,0:0:0:0:
210,211,66579,5,0,0:0:0:0:
285,59,66779,1,0,0:0:0:0:
342,142,66979,2,0,L|441:138,2,85
168,97,67579,2,0,P|129:141|125:170,1,85
204,173,67979,5,0,0:0:0:0:
183,271,68179,1,0,0:0:0:0:
308,173,68379,1,0,0:0:0:0:
329,271,68579,1,0,0:0:0:0:
271,86,68779,5,0,0:0:0:0:
204,173,68979,1,0,0:0:0:0:
329,271,69179,1,0,0:0:0:0:
262,358,69379,1,0,0:0:0:0:
417,260,69579,2,0,P|403:218|350:195,1,85
295,157,69979,2,0,P|319:123|360:113,2,85
118,79,70579,5,0,0:0:0:0:
74,193,70779,1,8,0:0:0:0:
192,172,70979,1,0,0:0:0:0:
209,81,71179,5,8,0:0:0:0:
164,271,71379,1,0,0:0:0:0:
336,216,71579,1,8,0:0:0:0:
331,77,71779,5,0,0:0:0:0:
241,206,71979,1,8,0:0:0:0:
418,227,72179,1,0,0:0:0:0:
179,145,72379,5,8,0:0:0:0:
250,305,72579,1,0,0:0:0:0:
355,171,72779,1,8,0:0:0:0:
355,171,72979,2,0,B|275:122|275:122|239:42,1,170
120,105,73579,5,0,0:0:0:0:
102,116,73679,1,0,0:0:0:0:
91,134,73779,1,0,0:0:0:0:
88,155,73879,1,0,0:0:0:0:
92,177,73979,6,0,L|209:155,1,85
142,307,74379,2,0,L|205:243,1,85
284,343,74779,2,0,L|289:247,1,85
367,242,75179,2,0,P|375:181|406:249,1,170
289,259,75779,5,0,0:0:0:0:
269,221,75879,1,0,0:0:0:0:
269,179,75979,1,0,0:0:0:0:
289,142,76079,1,0,0:0:0:0:
324,119,76179,1,0,0:0:0:0:
357,115,76379,2,0,L|441:111,2,85
210,226,76979,5,0,0:0:0:0:
324,119,77179,1,2,0:0:0:0:
291,330,77379,1,0,0:0:0:0:
172,124,77579,5,2,0:0:0:0:
200,322,77779,1,0,0:0:0:0:
302,206,77979,1,2,0:0:0:0:
139,234,78179,1,0,0:0:0:0:
312,75,78379,5,2,0:0:0:0:
200,322,78579,1,0,0:0:0:0:
139,73,78779,5,2,0:0:0:0:
224,242,78979,1,0,0:0:0:0:
313,78,79179,1,2,0:0:0:0:
379,231,79379,1,0,0:0:0:0:
425,111,79579,5,2,0:0:0:0:
222,146,79779,1,0,0:0:0:0:
341,305,79979,1,2,0:0:0:0:
63,96,80379,5,2,0:0:0:0:
97,306,80579,1,0,0:0:0:0:
194,70,80779,5,2,0:0:0:0:
190,304,80979,1,0,0:0:0:0:
316,77,81179,5,2,0:0:0:0:
288,312,81379,1,0,0:0:0:0:
450,73,81579,5,2,0:0:0:0:
392,328,81779,1,0,0:0:0:0:
134,260,81979,5,2,0:0:0:0:
375,309,82179,1,0,0:0:0:0:
135,137,82379,5,2,0:0:0:0:
262,317,82579,1,0,0:0:0:0:
191,66,82779,5,2,0:0:0:0:
154,312,82979,1,0,0:0:0:0:
386,212,83179,1,2,0:0:0:0:
392,328,83579,5,2,0:0:0:0:
450,73,83779,1,0,0:0:0:0:
288,312,83979,5,2,0:0:0:0:
316,77,84179,1,0,0:0:0:0:
190,304,84379,5,2,0:0:0:0:
194,70,84579,1,0,0:0:0:0:
97,306,84779,5,2,0:0:0:0:
63,96,84979,1,0,0:0:0:0:
290,112,85179,5,2,0:0:0:0:
63,96,85379,1,0,0:0:0:0:
237,244,85579,1,2,0:0:0:0:
172,32,85779,1,0,0:0:0:0:
93,238,85979,1,2,0:0:0:0:
382,97,86379,6,0,P|311:120|295:177,1,127.5
370,183,86779,6,0,P|254:149|188:181,1,170
288,229,87379,2,0,P|220:269|130:229,2,170
352,301,88779,2,0,P|374:212|315:132,2,170
256,192,89979,12,0,92979,0:0:0:0:
129,294,102779,6,0,P|160:346|195:352,1,85
367,295,103179,1,0,0:0:0:0:
367,295,103379,1,0,0:0:0:0:
367,295,103579,2,0,L|389:198,2,85
278,247,104179,2,0,P|188:221|137:146,1,170
170,69,104779,2,0,L|266:46,2,85
221,151,105379,5,0,0:0:0:0:
221,151,105579,2,0,L|323:168,1,85
448,144,105979,2,0,L|471:240,1,85
353,232,106379,2,0,L|321:317,1,85
210,244,106779,2,0,L|131:298,2,85
308,275,107379,2,0,P|287:166|232:141,1,170
147,127,107979,2,0,P|164:77|206:57,1,85
208,239,108379,5,0,0:0:0:0:
147,127,108579,1,0,0:0:0:0:
208,239,108779,1,0,0:0:0:0:
258,141,108979,1,0,0:0:0:0:
258,141,109079,1,0,0:0:0:0:
258,141,109179,2,0,B|296:158|323:138|323:138|393:115|439:186,1,170
420,326,109779,1,0,0:0:0:0:
366,218,109979,5,0,0:0:0:0:
420,326,110179,1,0,0:0:0:0:
477,227,110379,1,0,0:0:0:0:
330,308,110579,1,0,0:0:0:0:
330,308,110779,2,0,P|273:256|269:233,1,85
283,145,111179,2,0,L|463:126,2,170
132,104,112179,5,0,0:0:0:0:
132,104,112379,2,0,P|118:148|135:204,1,85
209,273,112779,2,0,P|221:215|204:165,1,85
292,44,113179,1,0,0:0:0:0:
216,190,113379,1,0,0:0:0:0:
292,44,113579,6,0,P|348:84|353:120,1,85
382,199,113979,2,0,P|309:188|296:152,1,85
246,126,114379,5,0,0:0:0:0:
82,130,114579,1,0,0:0:0:0:
162,36,114779,1,0,0:0:0:0:
168,264,114979,1,0,0:0:0:0:
82,130,115179,5,0,0:0:0:0:
328,86,115379,1,0,0:0:0:0:
328,86,115479,1,0,0:0:0:0:
328,86,115579,2,0,P|333:147|314:174,1,85
384,223,115979,2,0,P|328:250|296:242,1,85
255,119,116379,5,0,0:0:0:0:
178,44,116579,1,0,0:0:0:0:
86,72,116779,1,0,0:0:0:0:
86,72,116979,2,0,P|68:133|126:223,1,170
173,140,117579,2,0,P|218:146|269:126,2,85
351,68,118379,5,0,0:0:0:0:
351,68,118479,1,0,0:0:0:0:
351,68,118579,2,0,L|375:158,1,85
275,298,118979,2,0,L|292:213,1,85
193,73,119379,5,0,0:0:0:0:
292,214,119579,1,0,0:0:0:0:
287,95,119779,1,0,0:0:0:0:
146,171,119979,1,0,0:0:0:0:
146,171,120179,2,0,P|164:224|73:319,1,170
175,88,120779,2,0,P|134:79|96:95,2,85
279,155,121379,5,0,0:0:0:0:
279,155,121579,2,0,L|307:246,1,85
400,172,121979,2,0,L|435:73,1,85
256,181,122379,2,0,L|284:272,1,85
387,345,122779,2,0,P|406:277|359:312,1,170
454,324,123379,2,0,P|419:253|318:233,1,170
209,157,123979,2,0,P|281:196|289:278,2,170
113,60,125179,6,0,B|94:151|94:151|107:251,1,170,4|0,0:0|0:0,0:0:0:0:
74,296,125779,2,4,P|172:248|250:272,2,170
346,128,126979,5,0,0:0:0:0:
366,249,127179,1,0,0:0:0:0:
276,202,127379,5,0,0:0:0:0:
428,176,127579,1,0,0:0:0:0:
428,176,127679,1,0,0:0:0:0:
428,176,127779,2,0,L|444:233,4,42.5
198,267,128379,6,0,P|183:193|194:172,1,85
270,42,128779,5,2,0:0:0:0:
257,214,128979,1,0,0:0:0:0:
395,138,129179,1,2,0:0:0:0:
225,124,129379,5,0,0:0:0:0:
178,290,129579,1,2,0:0:0:0:
337,246,129779,1,0,0:0:0:0:
229,163,129979,5,2,0:0:0:0:
406,195,130179,1,0,0:0:0:0:
282,337,130379,1,2,0:0:0:0:
339,139,130579,5,0,0:0:0:0:
175,287,130779,1,2,0:0:0:0:
129,75,130979,1,0,0:0:0:0:
306,297,131179,5,2,0:0:0:0:
258,40,131379,1,0,0:0:0:0:
306,297,131579,6,0,P|182:283|136:233,1,170
241,222,132179,2,0,P|187:174|162:76,1,170
252,111,132779,5,0,0:0:0:0:
252,111,132979,2,0,P|315:142|351:135,1,85
401,115,133379,1,0,0:0:0:0:
401,115,133579,2,0,P|388:188|353:202,1,85
339,281,133979,6,0,L|442:303,2,85
366,77,134779,5,2,0:0:0:0:
337,282,134979,1,0,0:0:0:0:
205,86,135179,5,2,0:0:0:0:
428,151,135379,1,0,0:0:0:0:
273,36,135579,5,2,0:0:0:0:
437,232,135779,1,0,0:0:0:0:
369,34,135979,5,2,0:0:0:0:
366,285,136179,1,0,0:0:0:0:
449,79,136379,5,2,0:0:0:0:
272,240,136579,1,0,0:0:0:0:
460,159,136779,5,2,0:0:0:0:
301,115,136979,1,0,0:0:0:0:
436,255,137179,5,2,0:0:0:0:
244,190,137379,1,0,0:0:0:0:
301,115,137579,6,0,P|213:95|164:164,1,170
84,126,138179,2,0,P|108:230|164:245,1,170
269,304,138779,1,0,0:0:0:0:
269,304,138979,2,0,L|303:205,2,85
250,158,139579,6,0,P|311:143|339:167,1,85
170,117,139979,2,0,P|163:64|191:19,1,85
174,215,140379,2,0,P|122:225|86:203,2,85
332,174,141179,5,0,0:0:0:0:
264,300,141379,1,0,0:0:0:0:
205,153,141579,5,0,0:0:0:0:
370,277,141779,1,0,0:0:0:0:
355,101,141979,5,0,0:0:0:0:
264,300,142179,1,0,0:0:0:0:
471,188,142379,5,0,0:0:0:0:
338,45,142579,1,0,0:0:0:0:
471,188,142979,5,0,0:0:0:0:
338,45,143179,1,0,0:0:0:0:
274,221,143379,1,0,0:0:0:0:
103,300,143779,1,0,0:0:0:0:
108,273,143879,1,0,0:0:0:0:
114,247,143979,1,0,0:0:0:0:
119,220,144079,1,0,0:0:0:0:
125,194,144179,1,0,0:0:0:0:
130,167,144279,1,0,0:0:0:0:
137,142,144379,6,0,L|222:182,1,85
315,251,144779,2,0,L|218:275,1,85
211,97,145179,5,0,0:0:0:0:
232,271,145379,1,0,0:0:0:0:
127,233,145579,1,0,0:0:0:0:
304,160,145779,1,0,0:0:0:0:
304,160,145979,2,0,P|302:104|281:75,1,85
269,260,146379,2,0,P|261:303|286:342,1,85
431,241,146779,5,0,0:0:0:0:
281,339,146979,1,0,0:0:0:0:
323,188,147179,2,0,P|272:168|232:189,1,85
146,154,147579,2,0,L|125:336,2,170
204,81,148579,5,0,0:0:0:0:
204,81,148779,2,0,P|258:71|297:85,1,85
245,149,149179,2,0,P|289:201|289:230,1,85
133,175,149579,1,0,0:0:0:0:
133,175,149779,2,0,B|103:171|79:152|79:152|106:217|70:275,1,170
141,332,150379,6,0,P|180:345|221:336,1,85
231,159,150779,1,0,0:0:0:0:
279,269,150979,1,0,0:0:0:0:
67,236,151179,1,0,0:0:0:0:
128,123,151379,5,0,0:0:0:0:
179,253,151579,1,0,0:0:0:0:
228,77,151779,1,0,0:0:0:0:
279,269,151979,1,0,0:0:0:0:
328,198,152179,2,0,P|396:207|475:133,1,170
335,39,152779,6,0,P|343:96|330:124,1,85
264,342,153179,2,0,P|240:295|245:257,1,85
332,119,153579,5,0,0:0:0:0:
241,265,153779,1,0,0:0:0:0:
219,161,153979,2,0,B|165:149|165:149|109:165|109:165|32:155,1,170
300,89,154579,5,0,0:0:0:0:
202,282,154779,1,0,0:0:0:0:
389,177,154979,1,0,0:0:0:0:
177,143,155179,1,0,0:0:0:0:
322,306,155379,1,0,0:0:0:0:
118,74,155579,6,0,P|93:118|97:164,1,85
141,294,155979,2,0,L|242:276,1,85
224,122,156379,5,0,0:0:0:0:
225,277,156579,1,0,0:0:0:0:
344,97,156779,5,0,0:0:0:0:
343,252,156979,1,0,0:0:0:0:
433,92,157179,2,0,P|421:51|390:24,1,85
308,173,157579,5,0,0:0:0:0:
329,271,157779,1,0,0:0:0:0:
204,173,157979,1,0,0:0:0:0:
183,271,158179,1,0,0:0:0:0:
113,96,158379,5,0,0:0:0:0:
308,173,158579,1,0,0:0:0:0:
399,96,158779,1,0,0:0:0:0:
204,173,158979,1,0,0:0:0:0:
57,149,159179,2,0,L|38:49,1,85
204,173,159579,2,0,L|179:274,2,85
394,79,160179,5,0,0:0:0:0:
438,193,160379,1,8,0:0:0:0:
320,172,160579,1,0,0:0:0:0:
303,81,160779,5,8,0:0:0:0:
348,271,160979,1,0,0:0:0:0:
176,216,161179,1,8,0:0:0:0:
181,77,161379,5,0,0:0:0:0:
271,206,161579,1,8,0:0:0:0:
94,227,161779,1,0,0:0:0:0:
333,145,161979,5,8,0:0:0:0:
262,305,162179,1,0,0:0:0:0:
157,171,162379,1,8,0:0:0:0:
157,171,162579,2,0,B|190:120|235:116|235:116|243:70|301:62,1,170
392,105,163179,5,0,0:0:0:0:
410,116,163279,1,0,0:0:0:0:
421,134,163379,1,0,0:0:0:0:
424,155,163479,1,0,0:0:0:0:
420,177,163579,6,0,P|344:188|312:173,1,85
295,323,163979,2,0,P|269:263|271:225,1,85
132,293,164379,2,0,P|170:230|203:217,1,85
338,186,164779,2,0,P|380:190|420:177,2,85
240,139,165379,5,0,0:0:0:0:
250,120,165479,1,0,0:0:0:0:
250,99,165579,1,0,0:0:0:0:
240,80,165679,1,0,0:0:0:0:
222,69,165779,1,0,0:0:0:0:
153,123,165979,2,0,L|69:119,2,85
186,214,166579,1,0,0:0:0:0:
186,214,166779,6,0,P|277:237|439:166,1,255
449,214,167779,1,0,0:0:0:0:
449,214,167979,2,0,P|338:175|442:256,1,340
416,282,168979,6,0,B|360:260|360:260|301:267|301:267|217:233,1,170
161,260,169479,1,0,0:0:0:0:
161,260,169579,2,0,L|143:153,1,85
166,94,169979,2,0,P|248:106|367:69,1,170
327,8,170579,2,0,P|411:76|393:142,1,170
320,283,171579,5,0,0:0:0:0:
320,283,171779,1,0,0:0:0:0:
320,283,171979,1,0,0:0:0:0:
320,283,172179,1,0,0:0:0:0:
132,293,173179,6,0,P|131:189|186:131,1,170
206,244,173779,1,0,0:0:0:0:
206,244,173879,1,0,0:0:0:0:
206,244,173979,2,0,P|264:173|348:177,1,170
294,256,174579,1,0,0:0:0:0:
294,256,174679,1,0,0:0:0:0:
294,256,174779,2,0,P|278:175|204:101,1,170
151,57,175379,5,0,0:0:0:0:
151,57,175479,1,0,0:0:0:0:
151,57,175579,2,0,L|21:121,2,127.5
127,235,176379,2,0,P|181:276|134:197,1,255
127,235,177179,5,0,0:0:0:0:
150,235,177279,1,0,0:0:0:0:
174,235,177379,1,0,0:0:0:0:
198,236,177479,1,0,0:0:0:0:
222,236,177579,1,0,0:0:0:0:
246,237,177679,1,0,0:0:0:0:
270,237,177779,1,0,0:0:0:0:
294,238,177879,1,0,0:0:0:0:
319,239,177979,5,0,0:0:0:0:
341,224,178079,1,0,0:0:0:0:
353,199,178179,1,0,0:0:0:0:
351,172,178279,1,0,0:0:0:0:
336,150,178379,1,0,0:0:0:0:
312,138,178479,1,0,0:0:0:0:
280,138,178579,5,0,0:0:0:0:
253,151,178679,1,0,0:0:0:0:
224,149,178779,1,0,0:0:0:0:
200,131,178879,1,0,0:0:0:0:
189,104,178979,6,0,L|157:149,3,42.5
93,184,179379,6,0,L|68:149,4,42.5
174,231,179979,5,0,0:0:0:0:
201,340,180179,1,0,0:0:0:0:
288,146,180379,1,0,0:0:0:0:
306,329,180579,1,0,0:0:0:0:
457,113,180779,1,0,0:0:0:0:
448,291,180979,1,0,0:0:0:0:
448,291,181179,6,0,L|374:317,1,63.7500024318696
404,185,181579,6,0,L|330:159,1,63.7500024318696
380,308,181979,6,0,L|320:328,2,31.8750012159348
343,163,182379,2,0,L|306:150,2,31.8750012159348
95,57,195979,5,0,0:0:0:0:
95,57,196779,5,0,0:0:0:0:
95,57,197579,5,0,0:0:0:0:
95,57,198379,6,0,L|85:13,2,31.8750012159348
108,140,198779,2,0,B|176:132|176:132|212:150|212:150|291:139,1,170,4|0,0:0|0:0,0:0:0:0:
355,159,199379,2,0,P|294:175|358:208,1,170,4|0,0:0|0:0,0:0:0:0:
455,252,199979,5,0,0:0:0:0:
455,252,200179,1,0,0:0:0:0:
358,313,200379,2,4,B|306:332|259:300|259:300|200:318|200:318|179:288|92:288,1,255
46,227,201579,6,0,L|32:182,2,42.5
192,306,201979,1,0,0:0:0:0:
114,96,202179,1,0,0:0:0:0:
192,306,202379,5,0,0:0:0:0:
246,73,202579,1,0,0:0:0:0:
234,296,202779,5,0,0:0:0:0:
371,95,202979,1,0,0:0:0:0:
264,306,203179,5,0,0:0:0:0:
442,194,203379,2,0,B|380:194|380:194|343:217|343:217|276:213,1,170
139,51,203979,5,0,0:0:0:0:
172,264,204179,1,0,0:0:0:0:
172,264,204579,5,0,0:0:0:0:
206,142,204779,1,0,0:0:0:0:
139,51,204979,1,0,0:0:0:0:
90,164,205179,6,0,P|56:224|84:339,1,170
314,268,205979,5,0,0:0:0:0:
423,157,206179,1,0,0:0:0:0:
439,265,206379,1,0,0:0:0:0:
323,161,206579,1,0,0:0:0:0:
302,60,206779,2,0,P|237:107|240:205,1,170
231,339,207379,5,0,0:0:0:0:
81,241,207579,1,0,0:0:0:0:
231,339,207779,1,0,0:0:0:0:
197,250,207979,2,0,P|248:230|288:251,1,85
366,154,208379,2,0,L|387:336,2,170
308,81,209379,5,0,0:0:0:0:
308,81,209579,2,0,P|254:71|214:98,1,85
123,137,209979,2,0,L|137:222,1,85
217,324,210379,1,0,0:0:0:0:
277,165,210579,2,0,B|213:337,1,170
307,332,211179,6,0,P|373:336|398:319,1,85
405,137,211579,1,0,0:0:0:0:
387,327,211779,1,0,0:0:0:0:
456,240,211979,1,0,0:0:0:0:
283,223,212179,5,0,0:0:0:0:
415,75,212379,1,0,0:0:0:0:
456,240,212579,1,0,0:0:0:0:
283,105,212779,1,0,0:0:0:0:
283,223,212979,2,0,P|217:262|109:235,1,170
46,274,213579,1,0,0:0:0:0:
46,274,213779,6,0,P|53:205|75:174,1,85
156,41,214179,2,0,P|155:98|137:124,1,85
176,217,214579,1,0,0:0:0:0:
176,217,214779,2,0,B|227:191|291:255|363:211,1,170
437,52,215379,5,0,0:0:0:0:
342,220,215579,1,0,0:0:0:0:
319,89,215779,1,0,0:0:0:0:
433,262,215979,1,0,0:0:0:0:
454,149,216179,5,0,0:0:0:0:
336,317,216379,1,0,0:0:0:0:
319,89,216579,1,0,0:0:0:0:
336,317,216779,2,0,L|312:222,1,85
213,34,217179,2,0,L|199:139,1,85
192,280,217579,5,0,0:0:0:0:
182,112,217779,1,0,0:0:0:0:
46,128,217979,2,0,L|65:218,1,85
192,280,218379,5,0,0:0:0:0:
182,112,218579,1,0,0:0:0:0:
324,192,218779,1,0,0:0:0:0:
256,238,218979,5,0,0:0:0:0:
294,82,219179,1,0,0:0:0:0:
415,189,219379,1,0,0:0:0:0:
379,106,219579,5,0,0:0:0:0:
278,231,219779,1,0,0:0:0:0:
469,258,219979,2,0,P|430:277|379:268,1,85
278,231,220379,2,0,L|268:146,2,85
118,79,220979,5,0,0:0:0:0:
74,193,221179,1,8,0:0:0:0:
192,172,221379,1,0,0:0:0:0:
209,81,221579,5,8,0:0:0:0:
150,265,221779,1,0,0:0:0:0:
336,216,221979,1,8,0:0:0:0:
360,114,222179,5,0,0:0:0:0:
216,205,222379,1,8,0:0:0:0:
377,307,222579,1,0,0:0:0:0:
202,125,222779,5,8,0:0:0:0:
236,318,222979,1,0,0:0:0:0:
407,192,223179,1,8,0:0:0:0:
407,192,223379,2,0,B|358:166|349:111|349:111|328:170|277:166,1,170
120,105,223979,5,0,0:0:0:0:
102,116,224079,1,0,0:0:0:0:
91,134,224179,1,0,0:0:0:0:
88,155,224279,1,0,0:0:0:0:
92,177,224379,6,0,L|195:193,1,85
225,290,224779,2,0,L|294:219,1,85
279,44,225179,1,0,0:0:0:0:
285,232,225379,1,0,0:0:0:0:
391,161,225579,2,0,P|399:100|430:168,1,170
347,332,226179,5,0,0:0:0:0:
301,106,226379,2,0,L|249:109,2,42.5
363,165,226779,2,0,L|462:151,2,85
301,106,227379,5,0,0:0:0:0:
127,184,227579,1,2,0:0:0:0:
291,330,227779,1,0,0:0:0:0:
205,114,227979,5,2,0:0:0:0:
200,322,228179,1,0,0:0:0:0:
292,114,228379,5,2,0:0:0:0:
124,286,228579,1,0,0:0:0:0:
369,146,228779,5,2,0:0:0:0:
94,192,228979,1,0,0:0:0:0:
379,231,229179,5,2,0:0:0:0:
143,116,229379,1,0,0:0:0:0:
318,290,229579,5,2,0:0:0:0:
212,57,229779,1,0,0:0:0:0:
231,281,229979,5,2,0:0:0:0:
303,52,230179,1,0,0:0:0:0:
303,52,230379,1,2,0:0:0:0:
146,158,230779,5,2,0:0:0:0:
328,151,230979,1,0,0:0:0:0:
176,269,231179,1,2,0:0:0:0:
235,90,231379,1,0,0:0:0:0:
303,268,231579,1,2,0:0:0:0:
143,134,231779,5,0,0:0:0:0:
341,161,231979,1,2,0:0:0:0:
154,260,232179,1,0,0:0:0:0:
252,77,232379,1,2,0:0:0:0:
292,283,232579,1,0,0:0:0:0:
144,107,232779,5,2,0:0:0:0:
354,175,232979,1,0,0:0:0:0:
133,246,233179,1,2,0:0:0:0:
274,67,233379,1,0,0:0:0:0:
277,297,233579,1,2,0:0:0:0:
151,79,233979,5,2,0:0:0:0:
366,192,234179,1,0,0:0:0:0:
112,227,234379,1,2,0:0:0:0:
299,60,234579,1,0,0:0:0:0:
259,310,234779,1,2,0:0:0:0:
164,50,234979,5,0,0:0:0:0:
375,213,235179,1,2,0:0:0:0:
93,203,235379,1,0,0:0:0:0:
328,57,235579,1,2,0:0:0:0:
237,321,235779,1,0,0:0:0:0:
185,34,235979,5,2,0:0:0:0:
382,251,236179,1,0,0:0:0:0:
79,185,236379,1,2,0:0:0:0:
361,73,236579,1,0,0:0:0:0:
211,341,236779,1,2,0:0:0:0:
315,253,237179,6,0,P|199:219|133:251,1,170
8,245,237779,2,0,P|85:274|157:234,2,170
226,304,239179,2,0,P|248:215|189:135,2,170
256,192,240379,12,0,243379,0:0:0:0:
374,74,243579,5,0,0:0:0:0:
408,204,243779,1,0,0:0:0:0:
280,168,243979,1,0,0:0:0:0:
374,74,244179,1,0,0:0:0:0:
476,247,244379,2,0,P|444:287|392:291,1,85
274,186,244779,2,0,P|211:178|175:196,1,85
132,92,245179,5,0,0:0:0:0:
72,203,245379,1,0,0:0:0:0:
72,203,245479,1,0,0:0:0:0:
72,203,245579,2,0,L|104:298,1,85
315,248,245979,5,0,0:0:0:0:
186,304,246179,1,0,0:0:0:0:
183,213,246379,5,0,0:0:0:0:
271,330,246579,1,0,0:0:0:0:
233,141,246779,5,0,0:0:0:0:
186,304,246979,1,0,0:0:0:0:
118,155,247179,1,0,0:0:0:0:
275,245,247379,1,0,0:0:0:0:
275,245,247579,6,0,P|287:188|321:158,1,85
270,74,247979,2,0,B|189:63|189:63|80:81,1,170
148,229,248579,1,0,0:0:0:0:
101,77,248779,1,0,0:0:0:0:
101,160,248979,1,0,0:0:0:0:
226,259,249179,1,0,0:0:0:0:
226,259,249379,2,0,B|247:213|229:184|229:184|223:135|272:89,1,170
421,65,249979,5,0,0:0:0:0:
421,65,250079,1,0,0:0:0:0:
421,65,250179,2,0,L|433:112,3,42.5
343,176,250579,5,0,0:0:0:0:
343,176,250679,1,0,0:0:0:0:
343,176,250779,2,0,L|355:129,3,42.5
325,51,251179,5,0,0:0:0:0:
325,51,251279,1,0,0:0:0:0:
325,51,251379,2,0,P|211:59|173:112,1,170
266,212,251979,1,0,0:0:0:0:
179,96,252179,1,0,0:0:0:0:
179,96,252579,6,0,P|157:157|271:210,1,212.5
439,114,253179,6,0,P|466:185|406:259,1,170,4|0,0:0|0:0,0:0:0:0:
390,318,253779,6,0,P|417:247|357:173,1,170,4|0,0:0|0:0,0:0:0:0:
316,89,254379,6,0,P|367:153|341:231,1,170,4|0,0:0|0:0,0:0:0:0:
265,262,254979,6,0,L|78:265,1,170,4|0,0:0|0:0,0:0:0:0:
76,173,255579,1,0,0:0:0:0:
76,173,255779,1,0,0:0:0:0:
76,173,255979,1,0,0:0:0:0:
76,173,256079,1,0,0:0:0:0:
76,173,256179,1,0,0:0:0:0:
373,181,256579,5,4,0:0:0:0:
55,56,256779,1,4,0:0:0:0:
379,48,257179,5,4,0:0:0:0:
112,268,257379,1,4,0:0:0:0:
152,53,257779,5,4,0:0:0:0:
313,309,257979,1,4,0:0:0:0:
288,48,258379,5,4,0:0:0:0:
157,314,258579,1,4,0:0:0:0:
461,212,258979,5,2,0:0:0:0:
95,79,259179,1,2,0:0:0:0:
95,79,259379,2,0,P|104:155|77:284,1,204
165,305,261879,5,0,0:0:0:0:
165,305,261979,2,0,L|209:288,1,31.8750012159348
205,204,262179,1,0,0:0:0:0:
205,204,262279,1,0,0:0:0:0:
205,204,262379,2,0,L|249:221,2,31.8750012159348
