osu file format v14

[General]
AudioFilename: audio.mp3
AudioLeadIn: 0
PreviewTime: 57912
Countdown: 0
SampleSet: Soft
StackLeniency: 0.6
Mode: 0
LetterboxInBreaks: 0
WidescreenStoryboard: 1

[Editor]
Bookmarks: 240193,273179
DistanceSpacing: 1.2
BeatDivisor: 4
GridSize: 4
TimelineZoom: 4.299998

[Metadata]
Title:Akari no Arika
TitleUnicode:アカリノアリカ
Artist:Kicco
ArtistUnicode:Kicco
Creator:nobreakfast
Version:Insane
Source:縁りて此の葉は紅に
Tags:四季彩クロニクル galgame video novel opening full size japanese alt jump stream xIced Project Railgun door weapon
BeatmapID:2647737
BeatmapSetID:1274285

[Difficulty]
HPDrainRate:6
CircleSize:4.3
OverallDifficulty:7
ApproachRate:9
SliderMultiplier:1.3
SliderTickRate:1

[Events]
//Background and Video events
Video,0,"video.avi"
0,0,"bg.png",0,0
//Break Periods
2,18321,21618
//Storyboard Layer 0 (Background)
//Storyboard Layer 1 (Fail)
//Storyboard Layer 2 (Pass)
//Storyboard Layer 3 (Foreground)
//Storyboard Layer 4 (Overlay)
//Storyboard Sound Samples

[TimingPoints]
68,265.486725663717,4,2,11,80,1,0
598,-100,4,2,11,80,0,0
18121,-111.111111111111,4,2,11,70,0,0
22368,-105.263157894737,4,2,12,65,0,0
39360,-100,4,2,11,70,0,0
47855,-100,4,2,12,65,0,0
49714,-111.111111111111,4,2,12,65,0,0
54227,-99.9999999999999,4,2,11,85,0,0
57944,-99.9999999999999,4,2,12,60,0,0
58475,-83.3333333333333,4,2,11,90,0,1
66837,-90.9090909090909,4,2,11,90,0,1
75466,-83.3333333333333,4,2,11,90,0,1
83829,-90.9090909090909,4,2,11,90,0,1
92457,-100,4,2,12,80,0,0
106262,-111.111111111111,4,2,11,75,0,0
107590,-133.333333333333,4,2,11,75,0,0
109315,-111.111111111111,4,2,11,75,0,0
109714,-133.333333333333,4,2,11,75,0,0
111439,-111.111111111111,4,2,11,75,0,0
111837,-133.333333333333,4,2,11,75,0,0
113563,-111.111111111111,4,2,11,75,0,0
114758,-100,4,2,11,75,0,0
126439,-105.263157894737,4,2,12,65,0,0
143430,-100,4,2,11,70,0,0
151926,-111.111111111111,4,2,12,65,0,0
158298,-100,4,2,11,85,0,0
161483,-133.333333333333,4,2,11,85,0,0
162014,-133.333333333333,4,2,12,60,0,0
162545,-83.3333333333333,4,2,11,90,0,1
171041,-90.9090909090909,4,2,11,90,0,1
179537,-83.3333333333333,4,2,11,90,0,1
188032,-90.9090909090909,4,2,11,90,0,1
196528,-100,4,2,12,80,0,0
200643,-100,4,2,12,75,0,0
204758,-100,4,2,12,80,0,0
209271,-90.9090909090909,4,2,11,80,0,0
213519,-90.9090909090909,4,2,12,60,0,0
214581,-133.333333333333,4,2,11,50,0,0
218829,-100,4,2,11,60,0,0
220952,-100,4,2,11,70,0,0
222944,-100,4,2,11,90,0,0
223076,-83.3333333333333,4,2,11,90,0,1
248563,-90.9090909090909,4,2,12,80,0,0
262368,-100,4,2,11,80,0,0
263165,-200,4,2,11,80,0,0
264492,-100,4,2,11,80,0,0
273917,-100,4,2,11,75,0,0
282545,-100,4,2,11,70,0,0
289714,-100,4,2,11,5,0,0

[HitObjects]
358,323,598,6,0,B|432:329,2,65,8|0|8,0:0|0:0|0:0,0:0:0:0:
358,323,997,2,0,P|330:240|362:206,1,130,4|0,1:2|1:2,0:0:0:0:
436,184,1395,2,0,P|446:215|429:255,1,65,10|0,0:0|0:0,0:0:0:0:
358,323,1660,5,2,1:2:0:0:
358,323,1793,2,0,L|277:309,2,65,0|10|0,1:2|0:0|0:0,0:0:0:0:
201,261,2191,5,2,1:2:0:0:
201,261,2324,2,0,L|136:272,2,65,0|10|0,1:2|0:0|0:0,0:0:0:0:
54,304,2722,6,0,P|41:276|43:238,2,65,2|0|10,1:2|1:2|0:0,0:0:0:0:
79,176,3121,2,0,P|78:84|93:29,1,130,4|0,1:2|1:2,0:0:0:0:
165,22,3519,2,0,L|244:31,1,65,10|0,0:0|0:0,0:0:0:0:
319,100,3784,5,2,1:2:0:0:
319,100,3917,2,0,L|383:107,2,65,0|10|0,1:2|0:0|0:0,0:0:0:0:
237,154,4315,5,2,1:2:0:0:
237,154,4448,2,0,L|172:146,2,65,0|10|0,1:2|0:0|0:0,0:0:0:0:
312,224,4846,6,0,B|334:228|384:214,2,65,2|0|10,1:2|1:2|0:0,0:0:0:0:
312,224,5244,2,0,P|302:288|297:353,1,130,4|0,1:2|1:2,0:0:0:0:
438,308,5643,2,0,L|371:289,1,65,10|0,0:0|0:0,0:0:0:0:
297,352,5908,5,2,1:2:0:0:
201,327,6041,2,0,P|173:309|152:284,2,65,0|10|0,1:2|0:0|0:0,0:0:0:0:
247,235,6439,5,2,1:2:0:0:
247,235,6572,2,0,L|311:224,1,65,0|10,1:2|0:0,0:0:0:0:
143,196,6837,5,0,0:0:0:0:
143,196,6970,1,2,1:2:0:0:
143,196,7103,2,0,P|127:168|136:121,1,65,0|10,1:2|0:0,0:0:0:0:
240,157,7368,6,0,P|262:103|256:25,1,130,4|0,1:2|1:2,0:0:0:0:
157,26,7767,2,0,L|92:33,1,65,10|0,0:0|1:2,0:0:0:0:
76,154,8032,6,0,P|111:179|156:186,1,65,2|0,0:0|1:2,0:0:0:0:
240,157,8298,1,10,0:0:0:0:
315,218,8430,2,0,L|304:366,1,130,4|0,1:2|1:2,0:0:0:0:
231,284,8829,6,0,P|198:250|174:242,1,65,10|0,0:0|0:0,0:0:0:0:
106,290,9094,2,0,P|88:318|85:356,2,65,2|0|10,1:2|1:2|0:0,0:0:0:0:
182,243,9492,2,0,L|312:258,1,130,4|0,1:2|1:2,0:0:0:0:
357,168,9891,2,0,L|275:171,1,65,10|0,0:0|0:0,0:0:0:0:
408,231,10156,2,0,P|440:206|465:174,1,65,2|0,1:2|1:2,0:0:0:0:
431,100,10421,1,10,0:0:0:0:
357,168,10554,2,0,L|364:297,1,130,0|0,0:0|1:2,0:0:0:0:
257,363,10952,2,0,P|264:331|276:300,1,65,10|0,0:0|0:0,0:0:0:0:
394,255,11218,2,0,L|400:319,2,65,2|0|10,1:2|1:2|0:0,0:0:0:0:
306,201,11616,6,0,P|230:187|178:180,1,130,4|0,1:2|1:2,0:0:0:0:
92,271,12014,2,0,P|125:273|153:259,1,65,10|0,0:0|0:0,0:0:0:0:
121,124,12280,2,0,P|103:171|103:194,1,65,2|0,1:2|1:2,0:0:0:0:
152,259,12545,1,10,0:0:0:0:
152,259,12678,1,0,0:0:0:0:
241,255,12811,6,0,P|237:287|224:317,2,65,2|0|10,1:2|1:2|0:0,0:0:0:0:
199,176,13209,1,0,0:0:0:0:
286,211,13342,6,0,P|268:237|241:255,1,65,2|0,1:2|1:2,0:0:0:0:
152,259,13607,1,10,0:0:0:0:
242,345,13740,6,0,P|300:326|385:316,1,130,4|0,1:2|1:2,0:0:0:0:
434,181,14138,2,0,P|424:211|418:253,1,65,10|0,0:0|0:0,0:0:0:0:
458,319,14404,1,2,1:2:0:0:
458,319,14537,1,0,1:2:0:0:
378,367,14669,2,0,P|345:367|314:359,1,65,10|0,0:0|0:0,0:0:0:0:
289,255,14935,5,2,1:2:0:0:
289,255,15068,1,0,1:2:0:0:
213,309,15200,2,0,P|213:342|221:373,1,65,10|0,0:0|0:0,0:0:0:0:
314,359,15466,5,2,1:2:0:0:
365,289,15598,1,0,1:2:0:0:
348,205,15731,2,0,L|365:138,2,65,10|4|0,0:0|1:2|0:0,0:0:0:0:
254,251,16129,1,0,1:2:0:0:
174,209,16262,6,0,L|162:133,1,65,10|0,0:0|0:0,0:0:0:0:
233,70,16528,2,0,P|268:68|308:84,1,65,2|0,1:2|1:2,0:0:0:0:
275,154,16793,1,10,0:0:0:0:
275,154,16926,2,0,P|277:171|294:284,1,130,4|0,1:2|1:2,0:0:0:0:
198,265,17324,2,0,P|180:238|154:220,1,65,10|0,0:0|0:0,0:0:0:0:
183,126,17590,2,0,P|184:93|198:64,1,65,2|0,1:2|1:2,0:0:0:0:
337,140,17855,2,0,P|308:153|275:154,1,65,10|0,0:0|0:0,0:0:0:0:
183,126,18121,5,4,1:2:0:0:
246,190,22368,6,0,L|123:184,2,123.499996702194,4|8|0,1:2|0:0|1:2,0:0:0:0:
337,157,23032,1,0,1:2:0:0:
337,157,23165,2,0,P|347:186|347:217,1,61.7499983510972,8|0,0:0|0:0,0:0:0:0:
320,321,23430,6,0,P|268:298|192:308,1,123.499996702194,0|8,1:2|0:0,0:0:0:0:
100,303,23829,2,0,P|165:286|209:246,1,123.499996702194,0|0,1:2|1:2,0:0:0:0:
248,172,24227,2,0,L|176:167,1,61.7499983510972,8|0,0:0|0:0,0:0:0:0:
102,216,24492,6,0,P|71:162|88:102,1,123.499996702194,0|8,1:2|0:0,0:0:0:0:
167,50,24891,2,0,L|245:43,1,61.7499983510972,0|0,0:0|1:2,0:0:0:0:
311,92,25156,1,0,1:2:0:0:
311,92,25289,2,0,L|377:86,1,61.7499983510972,8|0,0:0|0:0,0:0:0:0:
470,45,25554,6,0,B|473:60|481:104|471:182,1,123.499996702194,0|8,1:2|0:0,0:0:0:0:
381,234,25952,2,0,B|378:219|362:172|373:97,1,123.499996702194,0|0,1:2|1:2,0:0:0:0:
288,56,26351,2,0,P|245:56|204:75,1,61.7499983510972,8|0,0:0|0:0,0:0:0:0:
200,145,26616,6,0,P|137:131|68:149,1,123.499996702194,0|8,1:2|0:0,0:0:0:0:
32,214,27014,2,0,L|14:291,1,61.7499983510972,0|0,0:0|1:2,0:0:0:0:
102,349,27280,1,0,1:2:0:0:
102,349,27413,2,0,P|106:323|115:284,1,61.7499983510972,8|0,0:0|0:0,0:0:0:0:
203,267,27678,6,0,P|255:258|338:271,1,123.499996702194,0|8,1:2|0:0,0:0:0:0:
442,192,28076,2,0,P|379:174|314:185,1,123.499996702194,0|0,1:2|1:2,0:0:0:0:
419,322,28475,2,0,P|416:297|400:257,1,61.7499983510972,8|0,0:0|0:0,0:0:0:0:
322,181,28740,6,0,P|306:122|323:45,1,123.499996702194,0|8,1:2|0:0,0:0:0:0:
403,19,29138,2,0,P|411:70|401:87,1,61.7499983510972,0|0,0:0|1:2,0:0:0:0:
315,61,29404,2,0,P|291:52|181:62,1,123.499996702194,0|0,1:2|0:0,0:0:0:0:
74,42,29802,6,0,P|99:82|104:161,1,123.499996702194,0|8,1:2|0:0,0:0:0:0:
87,208,30134,1,0,0:0:0:0:
87,208,30233,1,0,0:0:0:0:
87,208,30333,1,0,0:0:0:0:
105,289,30466,1,0,1:2:0:0:
167,204,30598,5,8,0:0:0:0:
184,275,30731,1,2,3:0:0:0:
200,349,30864,6,0,P|138:350|78:362,2,123.499996702194,4|8|0,1:2|0:0|1:2,0:0:0:0:
313,357,31528,1,0,1:2:0:0:
313,357,31660,2,0,P|325:318|323:288,1,61.7499983510972,8|0,0:0|0:0,0:0:0:0:
357,216,31926,2,0,B|458:215|458:215|429:184,1,123.499996702194,0|8,1:2|0:0,0:0:0:0:
390,119,32324,2,0,B|289:120|289:120|318:151,1,123.499996702194,0|0,1:2|1:2,0:0:0:0:
357,216,32722,2,0,L|292:217,1,61.7499983510972,8|0,0:0|0:0,0:0:0:0:
198,282,32988,6,0,P|208:212|195:156,1,123.499996702194,0|8,1:2|0:0,0:0:0:0:
108,203,33386,2,0,L|35:208,1,61.7499983510972,0|0,0:0|1:2,0:0:0:0:
83,303,33652,1,0,1:2:0:0:
83,303,33784,2,0,L|144:298,1,61.7499983510972,8|0,0:0|0:0,0:0:0:0:
220,231,34050,2,0,P|280:219|339:235,1,123.499996702194,0|8,1:2|0:0,0:0:0:0:
338,325,34448,2,0,P|398:336|457:320,1,123.499996702194,0|0,1:2|1:2,0:0:0:0:
475,215,34846,2,0,P|472:189|464:152,1,61.7499983510972,8|0,0:0|0:0,0:0:0:0:
420,44,35112,1,0,1:2:0:0:
420,44,35377,5,8,0:0:0:0:
497,93,35510,2,0,P|451:122|359:121,1,123.499996702194,0|0,0:0|1:2,0:0:0:0:
384,228,35908,2,0,P|355:215|322:208,1,61.7499983510972,8|0,0:0|0:0,0:0:0:0:
306,137,36174,2,0,P|321:73|303:4,1,123.499996702194,0|8,1:2|0:0,0:0:0:0:
202,17,36572,2,0,P|191:77|206:137,1,123.499996702194,0|0,1:2|1:2,0:0:0:0:
274,202,36970,2,0,L|338:198,1,61.7499983510972,8|0,0:0|0:0,0:0:0:0:
345,308,37236,6,0,P|295:278|228:273,1,123.499996702194,0|8,1:2|0:0,0:0:0:0:
152,297,37634,1,0,0:0:0:0:
105,236,37767,2,0,P|79:267|69:307,1,61.7499983510972,0|0,1:2|1:2,0:0:0:0:
38,374,38032,2,0,P|7:348|-2:317,1,61.7499983510972,8|0,0:0|0:0,0:0:0:0:
71,286,38298,1,0,1:2:0:0:
0,328,38563,5,8,0:0:0:0:
71,286,38696,1,0,1:2:0:0:
154,352,38829,5,8,0:0:0:0:
227,345,38961,1,8,0:0:0:0:
300,335,39094,1,8,0:0:0:0:
373,322,39227,1,8,0:0:0:0:
444,248,39360,6,0,B|446:133|446:133|421:108,1,130,4|10,1:2|0:0,0:0:0:0:
343,87,39758,1,0,0:0:0:0:
411,38,39891,2,0,L|479:28,1,65,2|0,1:2|0:0,0:0:0:0:
343,87,40156,1,10,0:0:0:0:
312,168,40289,6,0,P|262:125|263:53,1,130,0|0,1:2|1:2,0:0:0:0:
171,131,40687,2,0,L|107:119,1,65,10|0,0:0|0:0,0:0:0:0:
258,64,40952,2,0,L|246:128,1,65,2|0,1:2|1:2,0:0:0:0:
194,215,41218,2,0,L|206:279,1,65,10|0,0:0|0:0,0:0:0:0:
289,333,41483,6,0,P|351:342|398:300,1,130,2|10,1:2|0:0,0:0:0:0:
427,226,41882,2,0,L|430:161,1,65,0|2,0:0|1:2,0:0:0:0:
321,201,42147,2,0,L|326:266,2,65,0|10|0,0:0|0:0|1:2,0:0:0:0:
429,168,42545,6,0,L|511:155,1,65,2|0,0:0|1:2,0:0:0:0:
333,103,42811,2,0,L|269:98,1,65,10|0,0:0|1:2,0:0:0:0:
448,31,43076,2,0,L|526:19,2,65,2|0|10,1:2|1:2|0:0,0:0:0:0:
372,105,43475,1,0,0:0:0:0:
372,105,43607,6,0,P|374:169|378:234,1,130,2|10,1:2|0:0,0:0:0:0:
310,309,44006,1,0,0:0:0:0:
310,309,44138,2,0,P|248:326|189:302,1,130,2|10,1:2|0:0,0:0:0:0:
243,218,44537,6,0,P|238:160|234:82,1,130,0|0,1:2|0:0,0:0:0:0:
319,109,44935,2,0,L|325:179,1,65,10|0,0:0|0:0,0:0:0:0:
367,268,45200,2,0,P|409:246|420:222,1,65,2|0,1:2|1:2,0:0:0:0:
455,150,45466,2,0,L|463:79,1,65,10|0,0:0|0:0,0:0:0:0:
354,27,45731,5,2,1:2:0:0:
354,27,45864,1,0,1:2:0:0:
354,27,45997,2,0,L|277:40,1,65,10|0,0:0|0:0,0:0:0:0:
183,85,46262,5,2,1:2:0:0:
183,85,46395,1,0,0:0:0:0:
183,85,46528,2,0,L|118:74,1,65,10|0,0:0|1:2,0:0:0:0:
260,161,46793,6,0,L|343:145,1,65,2|0,0:0|1:2,0:0:0:0:
198,235,47059,2,0,L|115:219,1,65,10|0,0:0|0:0,0:0:0:0:
260,161,47324,2,0,L|343:145,1,65,2|0,1:2|1:2,0:0:0:0:
409,199,47590,2,0,L|421:262,1,65,10|0,0:0|0:0,0:0:0:0:
342,358,47855,5,4,1:2:0:0:
342,358,48121,1,8,0:0:0:0:
342,358,48253,6,0,L|278:364,1,65,0|0,1:2|0:0,0:0:0:0:
97,298,48652,1,8,0:0:0:0:
97,298,49183,1,8,0:0:0:0:
97,298,49714,1,8,0:0:0:0:
97,298,49979,6,0,L|111:354,2,58.4999982147217,0|0|8,1:2|0:0|0:0,0:0:0:0:
149,193,50377,1,0,1:2:0:0:
149,193,50775,1,8,0:0:0:0:
149,193,51306,1,8,0:0:0:0:
149,193,51837,1,8,0:0:0:0:
149,193,52103,6,0,L|85:213,2,58.4999982147217,0|0|8,1:2|0:0|0:0,0:0:0:0:
289,237,52501,1,0,1:2:0:0:
289,237,52767,5,0,0:0:0:0:
352,172,52899,2,0,L|339:50,1,116.999996429443,8|0,0:0|0:0,0:0:0:0:
239,16,53298,5,0,0:0:0:0:
239,16,53430,1,8,0:0:0:0:
258,98,53696,1,0,0:0:0:0:
203,164,53961,2,0,L|146:178,1,58.4999982147217,8|0,0:0|0:0,0:0:0:0:
56,189,54227,6,0,L|62:124,1,65,12|0,0:0|1:2,0:0:0:0:
70,47,54492,1,0,1:2:0:0:
203,164,54625,6,0,L|196:228,1,65,8|0,0:0|1:2,0:0:0:0:
183,308,54891,1,0,1:2:0:0:
353,267,55023,6,0,L|359:202,1,65,8|0,0:0|1:2,0:0:0:0:
371,115,55289,5,0,1:2:0:0:
289,206,55421,1,8,0:0:0:0:
211,132,55554,5,0,1:2:0:0:
289,206,55687,1,0,1:2:0:0:
211,132,55820,6,0,L|147:137,1,65,8|0,0:0|1:2,0:0:0:0:
289,206,56085,2,0,L|353:201,1,65,8|0,0:0|1:2,0:0:0:0:
256,192,56351,12,10,57944,0:0:0:0:
215,180,58475,6,0,P|251:199|253:311,1,155.999995239258,4|10,1:2|0:0,0:0:0:0:
174,340,58873,2,0,L|96:331,1,77.999997619629,0|2,0:0|1:2,0:0:0:0:
31,249,59138,1,0,1:2:0:0:
31,249,59271,2,0,L|108:240,1,77.999997619629,10|0,0:0|0:0,0:0:0:0:
83,152,59537,6,0,L|248:135,1,155.999995239258,2|10,1:2|0:0,0:0:0:0:
325,187,59935,1,0,0:0:0:0:
375,126,60068,1,2,1:2:0:0:
375,126,60200,2,0,P|373:81|351:43,1,77.999997619629,0|10,1:2|0:0,0:0:0:0:
238,136,60466,6,0,L|265:311,1,155.999995239258,4|0,1:2|1:2,0:0:0:0:
467,340,60864,2,0,L|488:174,1,155.999995239258,10|2,0:0|1:2,0:0:0:0:
452,86,61262,1,0,1:2:0:0:
374,129,61395,2,0,P|335:129|302:109,1,77.999997619629,10|0,0:0|0:0,0:0:0:0:
217,49,61660,2,0,L|61:35,1,155.999995239258,2|10,1:2|0:0,0:0:0:0:
232,221,62191,5,2,1:2:0:0:
232,221,62324,2,0,L|223:142,1,77.999997619629,0|10,1:2|0:0,0:0:0:0:
135,164,62590,6,0,P|49:194|16:279,1,155.999995239258,4|0,1:2|1:2,0:0:0:0:
73,323,62988,2,0,L|150:315,1,77.999997619629,10|0,0:0|0:0,0:0:0:0:
271,358,63253,2,0,L|348:350,1,77.999997619629,2|0,1:2|1:2,0:0:0:0:
254,267,63519,5,10,0:0:0:0:
254,267,63652,2,0,B|271:226|271:226|279:174|273:112,1,155.999995239258,0|0,0:0|0:0,0:0:0:0:
200,67,64050,2,0,L|122:78,1,77.999997619629,10|0,0:0|0:0,0:0:0:0:
77,162,64315,2,0,L|0:173,1,77.999997619629,2|0,1:2|1:2,0:0:0:0:
122,78,64581,5,10,0:0:0:0:
189,160,64714,2,0,B|229:178|229:178|281:188|343:184,1,155.999995239258,4|0,1:2|1:2,0:0:0:0:
411,129,65112,2,0,L|419:51,1,77.999997619629,10|0,0:0|0:0,0:0:0:0:
490,161,65377,2,0,L|483:238,1,77.999997619629,2|0,1:2|1:2,0:0:0:0:
365,310,65643,2,0,P|328:322|289:319,1,77.999997619629,10|0,0:0|1:2,0:0:0:0:
219,250,65908,5,2,1:2:0:0:
306,223,66041,1,0,1:2:0:0:
226,172,66174,1,10,0:0:0:0:
318,146,66306,1,0,0:0:0:0:
256,75,66439,2,0,P|224:56|180:48,1,77.999997619629,2|0,1:2|1:2,0:0:0:0:
125,182,66705,1,10,0:0:0:0:
43,161,66837,6,0,L|211:143,1,143.000004364014,4|0,1:2|1:2,0:0:0:0:
288,91,67236,2,0,P|290:126|288:162,1,71.5000021820069,10|0,0:0|0:0,0:0:0:0:
174,218,67501,2,0,P|172:182|174:147,1,71.5000021820069,2|0,1:2|1:2,0:0:0:0:
272,250,67767,1,10,0:0:0:0:
192,304,67899,2,0,P|94:296|29:299,1,143.000004364014,0|0,0:0|1:2,0:0:0:0:
233,378,68298,6,0,P|268:371|298:346,1,71.5000021820069,10|0,0:0|0:0,0:0:0:0:
272,250,68563,1,2,1:2:0:0:
272,250,68696,2,0,L|264:179,1,71.5000021820069,0|10,1:2|0:0,0:0:0:0:
170,116,68961,6,0,P|218:55|290:42,1,143.000004364014,4|0,1:2|1:2,0:0:0:0:
331,112,69360,2,0,P|367:128|403:133,1,71.5000021820069,10|0,0:0|0:0,0:0:0:0:
264,184,69625,2,0,P|228:200|192:205,1,71.5000021820069,2|0,1:2|1:2,0:0:0:0:
86,174,69891,5,10,0:0:0:0:
196,204,70023,2,0,L|201:297,1,71.5000021820069,0|2,0:0|1:2,0:0:0:0:
170,116,70289,5,0,1:2:0:0:
86,174,70421,2,0,L|70:316,1,143.000004364014,10|2,0:0|1:2,0:0:0:0:
196,363,70820,5,0,1:2:0:0:
299,340,70952,1,10,0:0:0:0:
299,340,71085,6,0,P|387:319|427:271,1,143.000004364014,4|0,1:2|1:2,0:0:0:0:
434,190,71483,2,0,P|468:200|496:221,2,71.5000021820069,10|0|2,0:0|0:0|1:2,0:0:0:0:
383,102,71882,2,0,P|348:112|320:133,2,71.5000021820069,0|10|0,1:2|0:0|0:0,0:0:0:0:
383,102,72280,6,0,L|256:84,1,107.25000327301,2|0,1:2|0:0,0:0:0:0:
238,71,72545,2,0,P|222:89|222:144,1,71.5000021820069,10|0,0:0|0:0,0:0:0:0:
204,226,72811,2,0,P|227:231|275:204,1,71.5000021820069,2|0,1:2|1:2,0:0:0:0:
107,175,73076,2,0,L|115:250,1,71.5000021820069,10|0,0:0|0:0,0:0:0:0:
197,325,73342,5,12,0:0:0:0:
239,321,73475,1,0,1:2:0:0:
281,317,73607,1,0,1:2:0:0:
317,340,73740,1,12,0:0:0:0:
353,317,73873,2,0,L|423:307,1,71.5000021820069,0|0,1:2|1:2,0:0:0:0:
462,188,74138,5,12,0:0:0:0:
419,185,74271,1,0,1:2:0:0:
376,181,74404,1,0,1:2:0:0:
335,167,74537,1,12,0:0:0:0:
299,190,74669,2,0,L|215:203,1,71.5000021820069,0|0,1:2|1:2,0:0:0:0:
55,167,74935,5,12,0:0:0:0:
128,364,75200,1,12,0:0:0:0:
158,276,75466,6,0,P|130:196|163:130,1,155.999995239258,4|10,1:2|0:0,0:0:0:0:
243,79,75864,1,0,0:0:0:0:
243,79,75997,2,0,L|324:70,1,77.999997619629,2|0,1:2|1:2,0:0:0:0:
403,113,76262,2,0,P|396:150|367:189,1,77.999997619629,10|0,0:0|0:0,0:0:0:0:
282,217,76528,2,0,P|203:149|132:145,1,155.999995239258,2|10,1:2|0:0,0:0:0:0:
281,350,77059,5,2,1:2:0:0:
368,382,77191,1,0,1:2:0:0:
409,301,77324,1,10,0:0:0:0:
409,301,77457,6,0,L|415:134,1,155.999995239258,4|0,1:2|1:2,0:0:0:0:
234,45,77855,2,0,L|239:200,1,155.999995239258,10|2,0:0|1:2,0:0:0:0:
215,346,78253,1,0,1:2:0:0:
215,346,78386,2,0,P|246:306|284:295,1,77.999997619629,10|0,0:0|0:0,0:0:0:0:
158,250,78652,2,0,L|2:233,1,155.999995239258,2|10,1:2|0:0,0:0:0:0:
282,122,79183,5,2,1:2:0:0:
282,122,79315,2,0,L|359:111,1,77.999997619629,0|10,1:2|0:0,0:0:0:0:
330,192,79581,6,0,P|258:216|199:171,1,155.999995239258,4|0,1:2|1:2,0:0:0:0:
205,97,79979,1,10,0:0:0:0:
101,139,80112,1,0,0:0:0:0:
205,97,80244,2,0,P|214:59|216:21,2,77.999997619629,2|0|10,1:2|1:2|0:0,0:0:0:0:
101,139,80643,2,0,P|102:202|116:304,1,155.999995239258,0|0,0:0|1:2,0:0:0:0:
111,383,81041,1,10,0:0:0:0:
111,383,81174,1,0,0:0:0:0:
111,383,81306,2,0,B|157:371|157:371|195:342,1,77.999997619629,2|0,1:2|1:2,0:0:0:0:
320,312,81572,1,10,0:0:0:0:
320,312,81705,6,0,P|271:254|195:254,1,155.999995239258,4|0,1:2|1:2,0:0:0:0:
131,317,82103,1,10,0:0:0:0:
131,317,82236,2,0,P|94:325|54:323,2,77.999997619629,0|2|0,0:0|1:2|1:2,0:0:0:0:
239,375,82634,2,0,L|320:369,1,77.999997619629,10|0,0:0|0:0,0:0:0:0:
405,379,82899,1,2,1:2:0:0:
469,334,83032,1,0,1:2:0:0:
445,259,83165,1,10,0:0:0:0:
367,255,83298,1,0,1:2:0:0:
300,294,83430,2,0,L|317:206,2,77.999997619629,2|0|10,1:2|1:2|0:0,0:0:0:0:
387,159,83829,6,0,P|327:118|242:124,1,143.000004364014,4|0,1:2|1:2,0:0:0:0:
165,192,84227,2,0,P|146:153|143:110,1,71.5000021820069,10|0,0:0|0:0,0:0:0:0:
283,52,84492,2,0,P|276:87|260:118,1,71.5000021820069,2|0,1:2|1:2,0:0:0:0:
155,49,84758,5,10,0:0:0:0:
98,115,84891,2,0,P|107:185|116:257,1,143.000004364014,0|0,0:0|1:2,0:0:0:0:
179,327,85289,1,10,0:0:0:0:
72,361,85421,1,0,0:0:0:0:
72,361,85554,2,0,P|26:349|-3:346,2,71.5000021820069,2|0|10,1:2|1:2|0:0,0:0:0:0:
211,334,85952,6,0,P|232:258|211:190,1,143.000004364014,4|0,1:2|1:2,0:0:0:0:
120,200,86351,2,0,P|123:157|144:122,1,71.5000021820069,10|0,0:0|0:0,0:0:0:0:
213,82,86616,1,2,1:2:0:0:
285,154,86749,1,0,1:2:0:0:
285,154,86882,2,0,P|321:151|356:143,1,71.5000021820069,10|0,0:0|0:0,0:0:0:0:
460,144,87147,2,0,L|482:-9,1,143.000004364014,2|10,1:2|0:0,0:0:0:0:
387,64,87545,5,0,0:0:0:0:
308,95,87678,2,0,P|272:87|242:68,1,71.5000021820069,2|0,1:2|1:2,0:0:0:0:
171,5,87944,1,10,0:0:0:0:
171,5,88076,6,0,P|121:56|97:122,1,143.000004364014,4|0,1:2|1:2,0:0:0:0:
165,191,88475,2,0,P|203:206|252:186,1,71.5000021820069,10|0,0:0|0:0,0:0:0:0:
330,117,88740,5,2,1:2:0:0:
330,117,88873,1,0,1:2:0:0:
441,89,89006,2,0,B|445:130|445:130|426:165,1,71.5000021820069,10|0,0:0|0:0,0:0:0:0:
456,254,89271,5,2,1:2:0:0:
374,232,89404,1,0,1:2:0:0:
374,232,89537,2,0,L|287:241,1,71.5000021820069,10|0,0:0|0:0,0:0:0:0:
248,328,89802,6,0,L|152:315,1,71.5000021820069,2|0,1:2|1:2,0:0:0:0:
107,258,90068,2,0,L|11:245,1,71.5000021820069,10|0,0:0|0:0,0:0:0:0:
104,167,90333,5,12,0:0:0:0:
146,159,90466,1,0,1:2:0:0:
188,152,90598,1,0,1:2:0:0:
231,146,90731,1,12,0:0:0:0:
273,138,90864,2,0,L|352:120,1,71.5000021820069,0|0,1:2|1:2,0:0:0:0:
303,229,91129,5,12,0:0:0:0:
261,221,91262,1,0,1:2:0:0:
219,214,91395,1,0,1:2:0:0:
176,208,91528,1,12,0:0:0:0:
134,200,91660,2,0,L|54:182,1,71.5000021820069,0|0,1:2|1:2,0:0:0:0:
185,117,91926,2,0,L|264:134,1,71.5000021820069,12|0,0:0|1:2,0:0:0:0:
134,200,92191,2,0,L|54:182,1,71.5000021820069,12|0,0:0|1:2,0:0:0:0:
196,302,92457,6,0,P|294:294|339:309,2,130,4|10|2,1:2|0:0|1:2,0:0:0:0:
124,362,93121,2,0,L|50:353,1,65,0|10,1:2|0:0,0:0:0:0:
20,268,93386,2,0,P|8:198|-1:133,1,130,4|0,1:2|1:2,0:0:0:0:
113,60,93784,2,0,L|190:71,1,65,10|0,0:0|0:0,0:0:0:0:
92,150,94050,2,0,L|27:140,1,65,2|0,1:2|1:2,0:0:0:0:
177,69,94315,2,0,P|178:102|171:133,1,65,10|0,0:0|0:0,0:0:0:0:
105,235,94581,6,0,L|233:216,1,130,4|10,1:2|0:0,0:0:0:0:
307,268,94979,1,0,0:0:0:0:
307,268,95112,2,0,P|344:262|378:244,1,65,2|0,1:2|1:2,0:0:0:0:
427,194,95377,1,10,0:0:0:0:
360,132,95510,6,0,L|333:-3,1,130,4|0,1:2|1:2,0:0:0:0:
442,50,95908,2,0,L|453:120,1,65,10|0,0:0|0:0,0:0:0:0:
427,194,96174,1,2,1:2:0:0:
427,194,96306,1,0,1:2:0:0:
332,211,96439,2,0,P|299:225|270:233,1,65,10|0,0:0|0:0,0:0:0:0:
180,204,96705,6,0,P|138:154|124:91,2,130,4|10|2,1:2|0:0|1:2,0:0:0:0:
168,294,97435,2,0,P|159:335|151:369,1,65,0|0,0:0|0:0,0:0:0:0:
70,259,97634,2,0,P|122:212|179:203,1,130,4|0,1:2|1:2,0:0:0:0:
264,271,98032,2,0,P|304:259|326:237,1,65,10|0,0:0|0:0,0:0:0:0:
341,164,98298,2,0,L|350:100,1,65,2|0,1:2|1:2,0:0:0:0:
232,141,98563,2,0,P|237:172|256:199,1,65,10|0,0:0|0:0,0:0:0:0:
302,84,98829,6,0,B|248:51|248:51|168:65,1,130,4|10,1:2|0:0,0:0:0:0:
343,20,99227,1,0,0:0:0:0:
343,20,99360,2,0,B|374:36|374:36|404:31,1,65,2|0,1:2|1:2,0:0:0:0:
469,95,99625,1,10,0:0:0:0:
429,184,99758,2,0,L|424:313,1,130,4|0,1:2|1:2,0:0:0:0:
337,341,100156,5,10,0:0:0:0:
243,329,100289,1,0,0:0:0:0:
149,319,100421,2,0,L|105:313,2,32.5,2|0|0,1:2|0:0|1:2,0:0:0:0:
264,256,100687,2,0,L|346:267,1,65,10|0,0:0|0:0,0:0:0:0:
179,371,100952,6,0,P|173:306|168:241,2,130,4|10|2,1:2|0:0|1:2,0:0:0:0:
56,325,101616,2,0,L|80:253,1,65,0|10,1:2|0:0,0:0:0:0:
114,186,101882,2,0,P|54:167|34:107,1,130,4|0,1:2|1:2,0:0:0:0:
93,46,102280,2,0,L|173:55,1,65,10|0,0:0|0:0,0:0:0:0:
246,141,102545,2,0,L|181:133,1,65,2|0,1:2|1:2,0:0:0:0:
228,9,102811,2,0,P|246:28|250:81,1,65,10|0,0:0|0:0,0:0:0:0:
181,133,103076,6,0,P|156:193|141:256,1,130,4|10,1:2|0:0,0:0:0:0:
189,333,103475,1,0,0:0:0:0:
261,373,103607,2,0,P|292:378|325:378,1,65,4|0,1:2|1:2,0:0:0:0:
404,327,103873,1,10,0:0:0:0:
313,296,104006,2,0,L|175:336,1,130,4|0,1:2|1:2,0:0:0:0:
141,256,104404,5,10,0:0:0:0:
141,256,104537,1,0,0:0:0:0:
188,332,104669,2,0,L|114:356,1,65,2|0,1:2|1:2,0:0:0:0:
141,256,104935,2,0,L|202:235,1,65,10|0,0:0|0:0,0:0:0:0:
307,226,105200,6,0,L|319:78,1,130,4|10,1:2|0:0,0:0:0:0:
188,32,105731,5,2,1:2:0:0:
122,85,105864,1,0,1:2:0:0:
162,158,105997,1,10,0:0:0:0:
246,147,106129,1,2,3:0:0:0:
231,145,107191,6,0,P|136:141|111:165,1,116.999996429443,4|0,1:2|0:0,0:0:0:0:
199,235,107590,1,10,0:0:0:0:
199,235,107855,1,10,0:0:0:0:
199,235,108121,1,10,0:0:0:0:
199,235,108386,1,10,0:0:0:0:
199,235,108652,1,10,0:0:0:0:
199,235,108917,5,10,0:0:0:0:
199,235,109050,1,0,1:2:0:0:
199,235,109183,1,10,0:0:0:0:
268,296,109315,6,0,L|389:279,1,116.999996429443,4|0,1:2|1:2,0:0:0:0:
451,212,109714,1,10,0:0:0:0:
451,212,109979,1,10,0:0:0:0:
451,212,110244,1,10,0:0:0:0:
451,212,110510,1,10,0:0:0:0:
451,212,110775,1,10,0:0:0:0:
451,212,111041,5,10,0:0:0:0:
451,212,111174,1,0,1:2:0:0:
451,212,111306,1,10,0:0:0:0:
512,291,111439,6,0,P|453:294|406:358,1,116.999996429443,4|0,1:2|1:2,0:0:0:0:
512,384,111837,1,10,0:0:0:0:
512,384,112103,1,10,0:0:0:0:
512,384,112368,1,10,0:0:0:0:
512,384,112634,1,10,0:0:0:0:
512,384,112899,1,10,0:0:0:0:
512,384,113165,5,10,0:0:0:0:
512,384,113298,1,0,1:2:0:0:
512,384,113430,1,10,0:0:0:0:
408,333,113563,6,0,L|301:344,1,97.50000371933,4|0,1:2|0:0,0:0:0:0:
226,376,113961,6,0,P|222:300|253:275,1,116.999996429443,10|10,0:0|0:0,0:0:0:0:
336,257,114360,1,0,1:2:0:0:
336,257,114492,2,0,L|345:181,1,58.4999982147217,10|0,0:0|1:2,0:0:0:0:
431,167,114758,5,10,0:0:0:0:
431,167,114891,2,0,L|419:104,1,65,0|10,1:2|0:0,0:0:0:0:
380,34,115156,1,0,1:2:0:0:
310,84,115289,2,0,P|278:95|168:73,1,130,10|10,0:0|0:0,0:0:0:0:
96,21,115687,6,0,B|84:57|84:57|104:162,1,130,4|0,1:2|1:2,0:0:0:0:
152,220,116085,2,0,P|128:235|74:218,1,65,10|0,0:0|1:2,0:0:0:0:
190,156,116351,2,0,P|221:152|249:168,1,65,10|0,0:0|1:2,0:0:0:0:
304,239,116616,5,10,0:0:0:0:
380,168,116749,2,0,P|387:91|376:33,1,130,4|0,1:2|1:2,0:0:0:0:
243,93,117147,2,0,B|275:101|275:101|307:91,1,65,10|0,0:0|1:2,0:0:0:0:
440,38,117413,2,0,B|407:29|407:29|377:39,1,65,10|0,0:0|1:2,0:0:0:0:
305,91,117678,5,10,0:0:0:0:
310,185,117811,2,0,L|324:327,1,130,4|0,1:2|1:2,0:0:0:0:
232,352,118209,5,10,0:0:0:0:
232,352,118342,1,0,1:2:0:0:
232,352,118475,2,0,L|139:362,1,65,10|0,0:0|1:2,0:0:0:0:
80,234,118740,5,10,0:0:0:0:
80,234,118873,1,0,1:2:0:0:
80,234,119006,2,0,L|173:244,1,65,10|0,0:0|1:2,0:0:0:0:
245,182,119271,5,10,0:0:0:0:
245,182,119404,1,0,1:2:0:0:
245,182,119537,2,0,L|338:192,1,65,10|0,0:0|1:2,0:0:0:0:
391,244,119802,5,10,0:0:0:0:
354,334,119935,2,0,P|289:323|256:263,1,130,4|0,1:2|1:2,0:0:0:0:
391,244,120333,6,0,L|455:238,1,65,10|0,0:0|1:2,0:0:0:0:
349,162,120598,5,10,0:0:0:0:
349,162,120731,1,0,1:2:0:0:
349,162,120864,2,0,L|284:167,1,65,10|0,0:0|1:2,0:0:0:0:
200,211,121129,5,10,0:0:0:0:
200,211,121262,1,0,1:2:0:0:
200,211,121395,2,0,L|135:205,1,65,10|0,0:0|1:2,0:0:0:0:
33,154,121660,5,10,0:0:0:0:
112,123,121793,1,0,1:2:0:0:
33,154,121926,1,10,0:0:0:0:
135,45,122059,2,0,P|191:60|181:135,1,130,4|0,1:2|1:2,0:0:0:0:
273,78,122457,6,0,L|338:89,1,65,10|0,0:0|1:2,0:0:0:0:
294,155,122722,2,0,L|359:166,1,65,10|0,0:0|1:2,0:0:0:0:
458,248,122988,2,0,L|447:313,1,65,10|0,0:0|1:2,0:0:0:0:
381,269,123253,2,0,L|370:334,1,65,10|0,0:0|1:2,0:0:0:0:
244,284,123519,2,0,L|179:273,1,65,10|0,0:0|1:2,0:0:0:0:
223,207,123784,2,0,L|158:196,2,65,10|0|10,0:0|1:2|0:0,0:0:0:0:
337,279,124183,6,0,P|412:244|483:258,1,130,4|0,1:2|1:2,0:0:0:0:
508,169,124581,1,10,0:0:0:0:
508,169,124714,1,0,1:2:0:0:
508,169,124846,2,0,L|514:91,2,65,10|0|10,0:0|1:2|0:0,0:0:0:0:
457,247,125244,6,0,L|301:210,1,130,4|0,1:2|1:2,0:0:0:0:
256,248,125643,1,10,0:0:0:0:
181,198,125775,1,0,1:2:0:0:
181,198,125908,2,0,P|171:151|177:128,1,65,10|0,0:0|1:2,0:0:0:0:
245,76,126174,5,10,0:0:0:0:
334,96,126306,1,0,1:2:0:0:
406,201,126439,6,0,L|259:165,2,123.499996702194,4|8|0,1:2|0:0|1:2,0:0:0:0:
487,232,127103,1,0,1:2:0:0:
487,232,127236,2,0,P|492:208|478:171,1,61.7499983510972,8|0,0:0|0:0,0:0:0:0:
410,72,127501,6,0,P|358:95|282:85,1,123.499996702194,0|8,1:2|0:0,0:0:0:0:
218,41,127899,2,0,P|166:18|90:28,1,123.499996702194,0|0,1:2|1:2,0:0:0:0:
54,105,128298,2,0,P|97:115|129:114,1,61.7499983510972,8|0,0:0|0:0,0:0:0:0:
217,132,128563,6,0,P|248:186|231:246,1,123.499996702194,0|8,1:2|0:0,0:0:0:0:
154,239,128961,2,0,L|92:231,1,61.7499983510972,0|0,0:0|1:2,0:0:0:0:
44,330,129227,1,0,1:2:0:0:
44,330,129360,2,0,L|105:322,1,61.7499983510972,8|0,0:0|0:0,0:0:0:0:
230,365,129625,6,0,B|233:350|241:306|231:228,1,123.499996702194,0|8,1:2|0:0,0:0:0:0:
115,200,130023,2,0,B|112:215|96:262|107:337,1,123.499996702194,0|0,1:2|1:2,0:0:0:0:
230,365,130421,2,0,P|305:342|314:338,1,61.7499983510972,8|0,0:0|0:0,0:0:0:0:
344,273,130687,1,2,1:2:0:0:
344,273,130952,6,0,P|404:242|469:242,1,123.499996702194,8|0,0:0|1:2,0:0:0:0:
486,168,131351,2,0,P|438:146|413:125,1,61.7499983510972,0|8,1:2|0:0,0:0:0:0:
384,60,131616,1,0,0:0:0:0:
384,60,131749,1,0,1:2:0:0:
264,194,132014,2,0,P|204:163|139:163,1,123.499996702194,8|0,0:0|0:0,0:0:0:0:
60,112,132413,2,0,P|108:90|132:69,1,61.7499983510972,0|8,1:2|0:0,0:0:0:0:
189,24,132678,1,0,0:0:0:0:
257,74,132811,6,0,P|273:133|256:210,1,123.499996702194,2|8,1:2|0:0,0:0:0:0:
172,242,133209,1,0,0:0:0:0:
121,158,133342,2,0,P|145:149|200:160,1,61.7499983510972,0|0,1:2|1:2,0:0:0:0:
263,193,133607,2,0,P|287:202|342:191,1,61.7499983510972,8|0,0:0|0:0,0:0:0:0:
420,253,133873,6,0,P|372:254|333:326,1,123.499996702194,0|8,1:2|0:0,0:0:0:0:
407,375,134271,2,0,P|466:368|495:316,1,123.499996702194,0|0,1:2|1:2,0:0:0:0:
456,230,134669,1,8,0:0:0:0:
468,152,134802,1,2,3:0:0:0:
413,79,134935,6,0,P|353:90|291:91,1,123.499996702194,2|8,1:2|0:0,0:0:0:0:
198,42,135333,1,0,0:0:0:0:
198,42,135466,2,0,P|186:81|188:111,1,61.7499983510972,0|0,1:2|1:2,0:0:0:0:
263,189,135731,2,0,P|275:150|273:120,1,61.7499983510972,8|0,0:0|0:0,0:0:0:0:
167,176,135997,6,0,B|66:177|66:177|95:208,1,123.499996702194,0|8,1:2|0:0,0:0:0:0:
148,269,136395,2,0,B|249:268|249:268|220:237,1,123.499996702194,0|0,1:2|1:2,0:0:0:0:
155,168,136793,2,0,L|220:167,1,61.7499983510972,8|0,0:0|0:0,0:0:0:0:
377,43,137059,6,0,P|367:113|380:169,1,123.499996702194,2|8,1:2|0:0,0:0:0:0:
463,209,137457,1,0,0:0:0:0:
463,209,137590,1,0,1:2:0:0:
510,121,137722,1,0,1:2:0:0:
510,121,137855,2,0,P|472:119|437:122,1,61.7499983510972,8|0,0:0|0:0,0:0:0:0:
292,153,138121,2,0,P|232:165|173:149,1,123.499996702194,0|8,1:2|0:0,0:0:0:0:
174,59,138519,2,0,P|114:48|55:64,1,123.499996702194,0|0,1:2|1:2,0:0:0:0:
14,155,138917,2,0,P|17:181|25:218,1,61.7499983510972,8|0,0:0|0:0,0:0:0:0:
78,347,139183,5,2,1:2:0:0:
78,347,139448,1,8,0:0:0:0:
0,299,139581,2,0,P|46:270|138:271,1,123.499996702194,0|0,0:0|1:2,0:0:0:0:
128,156,139979,2,0,P|157:169|190:176,1,61.7499983510972,8|0,0:0|0:0,0:0:0:0:
206,247,140244,2,0,P|191:311|209:380,1,123.499996702194,0|8,1:2|0:0,0:0:0:0:
310,367,140643,2,0,P|321:307|306:247,1,123.499996702194,0|0,1:2|1:2,0:0:0:0:
238,182,141041,2,0,L|174:186,1,61.7499983510972,8|0,0:0|0:0,0:0:0:0:
16,32,141306,6,0,P|68:51|135:56,1,123.499996702194,2|8,1:2|0:0,0:0:0:0:
215,102,141705,1,0,0:0:0:0:
231,173,141837,1,0,1:2:0:0:
173,220,141970,1,0,1:2:0:0:
103,179,142103,1,8,0:0:0:0:
173,220,142236,1,0,0:0:0:0:
153,295,142368,1,0,1:2:0:0:
153,295,142634,5,8,0:0:0:0:
77,307,142767,1,0,1:2:0:0:
174,366,142900,5,8,0:0:0:0:
247,359,143032,1,8,0:0:0:0:
320,349,143165,1,8,0:0:0:0:
393,336,143298,1,8,0:0:0:0:
444,248,143431,6,0,B|446:133|446:133|421:108,1,130,4|10,1:2|0:0,0:0:0:0:
343,87,143829,1,0,0:0:0:0:
411,38,143962,2,0,L|479:28,1,65,2|0,1:2|0:0,0:0:0:0:
343,87,144227,1,10,0:0:0:0:
312,168,144360,6,0,P|262:125|263:53,1,130,0|0,1:2|1:2,0:0:0:0:
171,131,144758,2,0,L|107:119,1,65,10|0,0:0|0:0,0:0:0:0:
258,64,145023,2,0,L|246:128,1,65,2|0,1:2|1:2,0:0:0:0:
194,215,145289,2,0,L|206:279,1,65,10|0,0:0|0:0,0:0:0:0:
289,333,145554,6,0,P|351:342|398:300,1,130,2|10,1:2|0:0,0:0:0:0:
427,226,145953,2,0,L|430:161,1,65,0|2,0:0|1:2,0:0:0:0:
321,201,146218,2,0,L|326:266,2,65,0|10|0,0:0|0:0|1:2,0:0:0:0:
429,168,146616,6,0,L|511:155,1,65,2|0,0:0|1:2,0:0:0:0:
333,103,146882,2,0,L|269:98,1,65,10|0,0:0|1:2,0:0:0:0:
448,31,147147,2,0,L|526:19,1,65,2|0,1:2|1:2,0:0:0:0:
333,103,147413,2,0,L|269:98,1,65,10|0,0:0|0:0,0:0:0:0:
421,193,147678,5,4,1:2:0:0:
421,193,147944,1,10,0:0:0:0:
381,269,148077,1,0,0:0:0:0:
310,309,148209,2,0,P|248:326|189:302,1,130,2|10,1:2|0:0,0:0:0:0:
243,218,148608,6,0,P|238:160|234:82,1,130,0|0,1:2|1:2,0:0:0:0:
319,109,149006,2,0,L|325:179,1,65,10|0,0:0|0:0,0:0:0:0:
367,268,149271,2,0,P|409:246|420:222,1,65,2|0,1:2|1:2,0:0:0:0:
455,150,149537,2,0,L|463:79,1,65,10|0,0:0|0:0,0:0:0:0:
354,27,149802,5,2,1:2:0:0:
354,27,149935,1,0,1:2:0:0:
354,27,150068,2,0,L|277:40,1,65,10|0,0:0|0:0,0:0:0:0:
183,85,150333,5,2,1:2:0:0:
183,85,150466,1,0,0:0:0:0:
183,85,150599,2,0,L|118:74,1,65,10|0,0:0|1:2,0:0:0:0:
260,161,150864,6,0,L|343:145,1,65,2|0,0:0|1:2,0:0:0:0:
198,235,151130,2,0,L|115:219,1,65,10|0,0:0|0:0,0:0:0:0:
260,161,151395,2,0,L|343:145,1,65,2|0,1:2|1:2,0:0:0:0:
409,199,151661,2,0,L|421:262,1,65,10|0,0:0|0:0,0:0:0:0:
342,358,151926,5,4,1:2:0:0:
342,358,152192,1,8,0:0:0:0:
342,358,152324,6,0,L|280:366,1,58.4999982147217,0|0,1:2|0:0,0:0:0:0:
97,298,152723,1,8,0:0:0:0:
97,298,153254,1,8,0:0:0:0:
97,298,153785,1,8,0:0:0:0:
97,298,154050,6,0,L|109:360,2,58.4999982147217,0|0|8,1:2|0:0|0:0,0:0:0:0:
149,193,154448,1,0,1:2:0:0:
149,193,154846,1,8,0:0:0:0:
149,193,155377,1,8,0:0:0:0:
149,193,155908,1,8,0:0:0:0:
149,193,156174,6,0,L|85:213,2,58.4999982147217,0|0|8,1:2|0:0|0:0,0:0:0:0:
289,237,156572,1,0,1:2:0:0:
289,237,156838,5,0,0:0:0:0:
352,172,156970,2,0,L|339:50,1,116.999996429443,8|0,0:0|0:0,0:0:0:0:
239,16,157369,5,0,0:0:0:0:
239,16,157501,1,8,0:0:0:0:
258,98,157767,1,0,0:0:0:0:
203,164,158032,2,0,L|146:178,1,58.4999982147217,8|0,0:0|0:0,0:0:0:0:
56,189,158298,6,0,L|62:124,1,65,12|0,0:0|1:2,0:0:0:0:
70,47,158563,1,0,1:2:0:0:
203,164,158696,6,0,L|196:228,1,65,8|0,0:0|1:2,0:0:0:0:
183,308,158962,1,0,1:2:0:0:
353,267,159094,6,0,L|359:202,1,65,8|0,0:0|1:2,0:0:0:0:
371,115,159360,5,0,1:2:0:0:
289,206,159492,1,8,0:0:0:0:
211,132,159625,5,0,1:2:0:0:
289,206,159758,5,0,1:2:0:0:
211,132,159891,6,0,L|147:137,1,65,8|0,0:0|1:2,0:0:0:0:
289,206,160156,2,0,L|353:201,1,65,8|0,0:0|1:2,0:0:0:0:
256,192,160421,12,0,162014,1:2:0:0:
297,204,162545,6,0,P|261:185|259:73,1,155.999995239258,4|10,1:2|0:0,0:0:0:0:
338,44,162944,2,0,L|416:53,1,77.999997619629,0|2,0:0|1:2,0:0:0:0:
481,135,163209,1,0,1:2:0:0:
481,135,163342,2,0,L|404:144,1,77.999997619629,10|0,0:0|0:0,0:0:0:0:
429,232,163607,6,0,L|264:249,1,155.999995239258,2|10,1:2|0:0,0:0:0:0:
187,197,164006,1,0,0:0:0:0:
137,258,164138,1,2,1:2:0:0:
137,258,164271,2,0,P|139:303|161:341,1,77.999997619629,0|10,1:2|0:0,0:0:0:0:
274,248,164537,6,0,L|247:73,1,155.999995239258,4|0,1:2|1:2,0:0:0:0:
45,44,164935,2,0,L|24:210,1,155.999995239258,10|2,0:0|1:2,0:0:0:0:
60,298,165333,1,0,1:2:0:0:
138,255,165466,2,0,P|177:255|210:275,1,77.999997619629,10|0,0:0|0:0,0:0:0:0:
295,335,165731,2,0,L|451:349,1,155.999995239258,2|10,1:2|0:0,0:0:0:0:
280,163,166262,5,2,1:2:0:0:
280,163,166395,2,0,L|289:242,1,77.999997619629,0|10,1:2|0:0,0:0:0:0:
377,220,166660,6,0,P|463:190|496:105,1,155.999995239258,4|0,1:2|1:2,0:0:0:0:
439,61,167059,2,0,L|362:69,1,77.999997619629,10|0,0:0|0:0,0:0:0:0:
241,26,167324,2,0,L|164:34,1,77.999997619629,2|0,1:2|1:2,0:0:0:0:
258,117,167590,5,10,0:0:0:0:
258,117,167722,2,0,B|241:158|241:158|233:210|239:272,1,155.999995239258,0|0,0:0|0:0,0:0:0:0:
312,317,168121,2,0,L|390:306,1,77.999997619629,10|0,0:0|0:0,0:0:0:0:
435,222,168386,2,0,L|512:211,1,77.999997619629,2|0,1:2|1:2,0:0:0:0:
390,306,168652,5,10,0:0:0:0:
323,224,168784,2,0,B|283:206|283:206|231:196|169:200,1,155.999995239258,4|0,1:2|1:2,0:0:0:0:
101,255,169183,2,0,L|93:333,1,77.999997619629,10|0,0:0|0:0,0:0:0:0:
22,223,169448,2,0,L|29:146,1,77.999997619629,2|0,1:2|1:2,0:0:0:0:
147,74,169714,2,0,P|184:62|223:65,1,77.999997619629,10|0,0:0|0:0,0:0:0:0:
293,134,169979,5,2,1:2:0:0:
206,161,170112,1,0,0:0:0:0:
286,212,170244,1,10,0:0:0:0:
194,238,170377,1,0,0:0:0:0:
256,309,170510,2,0,P|288:328|332:336,1,77.999997619629,2|0,1:2|1:2,0:0:0:0:
387,202,170775,1,10,0:0:0:0:
469,223,170908,6,0,L|301:241,1,155.999995239258,4|0,1:2|1:2,0:0:0:0:
224,293,171306,2,0,P|222:258|224:222,1,71.5000021820069,10|0,0:0|0:0,0:0:0:0:
338,166,171572,2,0,P|340:202|338:237,1,71.5000021820069,2|0,1:2|1:2,0:0:0:0:
240,134,171837,1,10,0:0:0:0:
320,80,171970,2,0,P|418:88|483:85,1,143.000004364014,0|0,0:0|0:0,0:0:0:0:
279,6,172368,6,0,P|244:13|214:38,1,71.5000021820069,10|0,0:0|0:0,0:0:0:0:
240,134,172634,1,2,1:2:0:0:
240,134,172767,2,0,L|248:205,1,71.5000021820069,0|10,1:2|0:0,0:0:0:0:
342,268,173032,6,0,P|294:329|222:342,1,143.000004364014,4|0,1:2|1:2,0:0:0:0:
181,272,173430,2,0,P|145:256|109:251,1,71.5000021820069,10|0,0:0|0:0,0:0:0:0:
248,200,173696,2,0,P|284:184|320:179,1,71.5000021820069,2|0,1:2|1:2,0:0:0:0:
426,210,173961,5,10,0:0:0:0:
316,180,174094,2,0,L|311:87,1,71.5000021820069,0|2,0:0|1:2,0:0:0:0:
342,268,174360,5,0,0:0:0:0:
426,210,174492,2,0,L|442:68,1,143.000004364014,10|2,0:0|1:2,0:0:0:0:
316,21,174891,5,0,1:2:0:0:
213,44,175023,1,10,0:0:0:0:
213,44,175156,6,0,P|125:65|85:113,1,143.000004364014,4|0,1:2|1:2,0:0:0:0:
78,194,175554,2,0,P|44:184|16:163,2,71.5000021820069,10|0|2,0:0|0:0|1:2,0:0:0:0:
129,282,175952,2,0,P|164:272|192:251,2,71.5000021820069,0|10|0,1:2|0:0|0:0,0:0:0:0:
129,282,176351,6,0,L|256:300,1,107.25000327301,2|0,1:2|0:0,0:0:0:0:
274,313,176616,2,0,P|290:295|290:240,1,71.5000021820069,10|0,0:0|0:0,0:0:0:0:
308,158,176882,2,0,P|285:153|237:180,1,71.5000021820069,2|0,1:2|1:2,0:0:0:0:
405,209,177147,2,0,L|397:134,1,71.5000021820069,10|0,0:0|0:0,0:0:0:0:
315,59,177413,5,12,0:0:0:0:
273,63,177545,1,0,1:2:0:0:
231,67,177678,1,0,1:2:0:0:
195,44,177811,1,12,0:0:0:0:
159,67,177944,2,0,L|89:77,1,71.5000021820069,0|0,1:2|1:2,0:0:0:0:
50,196,178209,5,12,0:0:0:0:
93,199,178342,1,0,1:2:0:0:
136,203,178475,1,0,1:2:0:0:
177,217,178607,1,12,0:0:0:0:
213,194,178740,2,0,L|297:181,1,71.5000021820069,0|0,1:2|1:2,0:0:0:0:
422,270,179006,6,0,L|351:280,1,71.5000021820069,12|0,0:0|1:2,0:0:0:0:
213,194,179271,2,0,L|297:181,1,71.5000021820069,12|0,0:0|1:2,0:0:0:0:
354,108,179537,6,0,P|382:188|349:254,1,155.999995239258,4|10,1:2|0:0,0:0:0:0:
269,305,179935,1,0,0:0:0:0:
269,305,180068,2,0,L|188:314,1,77.999997619629,2|0,1:2|1:2,0:0:0:0:
109,271,180333,2,0,P|116:234|145:195,1,77.999997619629,10|0,0:0|0:0,0:0:0:0:
230,167,180598,2,0,P|309:235|380:239,2,155.999995239258,2|10|2,1:2|0:0|1:2,0:0:0:0:
248,83,181262,5,0,1:2:0:0:
180,30,181395,1,10,0:0:0:0:
103,83,181528,6,0,L|97:250,1,155.999995239258,4|0,1:2|1:2,0:0:0:0:
278,339,181926,2,0,L|273:184,1,155.999995239258,10|2,0:0|1:2,0:0:0:0:
297,38,182324,1,0,1:2:0:0:
297,38,182457,2,0,P|266:78|228:89,1,77.999997619629,10|0,0:0|0:0,0:0:0:0:
354,134,182722,2,0,L|510:151,1,155.999995239258,2|10,1:2|0:0,0:0:0:0:
230,262,183253,5,2,1:2:0:0:
230,262,183386,2,0,L|153:273,1,77.999997619629,0|10,1:2|0:0,0:0:0:0:
182,192,183652,6,0,P|254:168|313:213,1,155.999995239258,4|0,1:2|1:2,0:0:0:0:
278,293,184050,2,0,P|273:330|263:378,1,77.999997619629,10|0,0:0|0:0,0:0:0:0:
399,322,184315,2,0,P|403:284|409:245,1,77.999997619629,2|0,1:2|1:2,0:0:0:0:
410,244,184581,1,10,0:0:0:0:
411,245,184714,6,0,P|410:182|396:80,1,155.999995239258,0|0,0:0|0:0,0:0:0:0:
401,1,185112,1,10,0:0:0:0:
401,1,185244,1,0,0:0:0:0:
401,1,185377,2,0,B|355:13|355:13|317:42,1,77.999997619629,2|0,1:2|1:2,0:0:0:0:
192,72,185643,1,10,0:0:0:0:
192,72,185775,6,0,P|241:130|317:130,1,155.999995239258,4|0,1:2|1:2,0:0:0:0:
381,67,186174,1,10,0:0:0:0:
317,131,186306,1,0,0:0:0:0:
381,67,186439,2,0,P|418:59|458:61,1,77.999997619629,2|0,1:2|1:2,0:0:0:0:
273,9,186705,2,0,L|192:15,1,77.999997619629,10|0,0:0|0:0,0:0:0:0:
107,5,186970,1,2,1:2:0:0:
43,50,187103,1,0,0:0:0:0:
67,125,187236,1,10,0:0:0:0:
145,129,187368,1,0,0:0:0:0:
212,90,187501,2,0,L|195:178,2,77.999997619629,2|0|10,1:2|1:2|0:0,0:0:0:0:
125,225,187899,6,0,P|185:266|270:260,1,155.999995239258,4|0,1:2|1:2,0:0:0:0:
347,192,188298,2,0,P|366:231|369:274,1,71.5000021820069,10|0,0:0|0:0,0:0:0:0:
229,332,188563,2,0,P|236:297|252:266,1,71.5000021820069,2|0,1:2|1:2,0:0:0:0:
357,335,188829,5,10,0:0:0:0:
414,269,188961,2,0,P|405:199|396:127,1,143.000004364014,0|0,0:0|0:0,0:0:0:0:
333,57,189360,1,10,0:0:0:0:
440,23,189492,1,0,0:0:0:0:
440,23,189625,2,0,P|486:35|515:38,2,71.5000021820069,2|0|10,1:2|1:2|0:0,0:0:0:0:
301,50,190023,6,0,P|280:126|301:194,1,143.000004364014,4|0,1:2|1:2,0:0:0:0:
392,184,190421,2,0,P|389:227|368:262,1,71.5000021820069,10|0,0:0|0:0,0:0:0:0:
299,302,190687,1,2,1:2:0:0:
227,230,190820,1,0,1:2:0:0:
227,230,190952,2,0,P|191:233|156:241,1,71.5000021820069,10|0,0:0|0:0,0:0:0:0:
52,240,191218,2,0,L|30:393,1,143.000004364014,2|10,1:2|0:0,0:0:0:0:
125,320,191616,5,0,0:0:0:0:
204,289,191749,2,0,P|240:297|270:316,1,71.5000021820069,2|0,1:2|1:2,0:0:0:0:
341,379,192014,1,10,0:0:0:0:
341,379,192147,6,0,P|391:328|415:262,1,143.000004364014,4|0,1:2|1:2,0:0:0:0:
347,193,192545,2,0,P|309:178|260:198,1,71.5000021820069,10|0,0:0|0:0,0:0:0:0:
182,267,192811,5,2,1:2:0:0:
182,267,192944,1,0,1:2:0:0:
71,295,193076,2,0,B|67:254|67:254|86:219,1,71.5000021820069,10|0,0:0|0:0,0:0:0:0:
56,130,193342,5,2,1:2:0:0:
138,152,193475,1,0,0:0:0:0:
138,152,193607,2,0,L|225:143,1,71.5000021820069,10|0,0:0|0:0,0:0:0:0:
334,65,193873,6,0,L|264:56,1,71.5000021820069,2|0,1:2|1:2,0:0:0:0:
138,152,194138,2,0,L|225:143,1,71.5000021820069,10|0,0:0|0:0,0:0:0:0:
104,34,194404,6,0,P|79:78|86:117,1,71.5000021820069,12|0,0:0|1:2,0:0:0:0:
189,79,194669,5,0,1:2:0:0:
223,46,194802,1,12,0:0:0:0:
280,49,194935,1,0,1:2:0:0:
310,97,195068,1,0,1:2:0:0:
284,147,195200,1,12,0:0:0:0:
228,161,195333,2,0,P|164:169|154:175,1,71.5000021820069,0|0,1:2|1:2,0:0:0:0:
100,286,195598,2,0,P|164:278|174:272,1,71.5000021820069,12|0,0:0|1:2,0:0:0:0:
224,260,195864,1,0,1:2:0:0:
281,263,195997,1,12,0:0:0:0:
325,298,196129,1,0,1:2:0:0:
333,354,196262,2,0,L|350:267,1,71.5000021820069,12|0,0:0|1:2,0:0:0:0:
396,148,196528,6,0,P|353:195|290:199,1,130,4|10,1:2|0:0,0:0:0:0:
198,118,196926,1,0,0:0:0:0:
198,118,197059,2,0,L|205:47,1,65,2|0,1:2|1:2,0:0:0:0:
212,197,197324,5,10,0:0:0:0:
306,117,197457,1,0,0:0:0:0:
211,196,197590,2,0,L|219:261,1,65,2|0,1:2|0:0,0:0:0:0:
306,117,197855,2,0,L|298:52,1,65,10|0,0:0|0:0,0:0:0:0:
435,44,198121,5,2,1:2:0:0:
395,147,198253,1,0,1:2:0:0:
435,44,198386,1,10,0:0:0:0:
306,117,198519,6,0,P|244:111|178:119,1,130,4|0,1:2|1:2,0:0:0:0:
87,174,198917,2,0,L|92:238,1,65,10|0,0:0|0:0,0:0:0:0:
203,289,199183,6,0,L|195:193,1,65,2|0,1:2|1:2,0:0:0:0:
36,303,199448,2,0,P|84:323|113:324,1,65,10|0,0:0|0:0,0:0:0:0:
187,313,199714,6,0,P|218:307|247:291,1,65,2|0,1:2|0:0,0:0:0:0:
115,183,199979,2,0,L|121:248,1,65,10|0,0:0|0:0,0:0:0:0:
158,348,200244,5,10,0:0:0:0:
243,382,200377,1,8,0:0:0:0:
328,340,200510,1,8,0:0:0:0:
390,271,200643,6,0,L|385:141,1,130,4|0,1:2|0:0,0:0:0:0:
292,20,201041,2,0,P|338:63|383:59,1,97.5,0|0,1:2|0:0,0:0:0:0:
406,39,201306,1,12,0:0:0:0:
286,143,201572,1,0,1:2:0:0:
211,196,201705,6,0,L|73:186,1,130,0|0,1:2|0:0,0:0:0:0:
7,228,202103,6,0,P|-10:269|13:339,1,97.5,0|0,1:2|0:0,0:0:0:0:
39,337,202368,1,12,0:0:0:0:
211,196,202634,1,8,0:0:0:0:
133,139,202767,6,0,B|171:96|171:96|160:12,1,130,8|0,0:0|0:0,0:0:0:0:
10,84,203165,2,0,P|17:131|46:169,1,65,0|0,1:2|1:2,0:0:0:0:
75,170,203430,1,12,0:0:0:0:
254,76,203696,1,0,1:2:0:0:
340,115,203829,6,0,B|474:100,1,130,0|0,1:2|0:0,0:0:0:0:
411,219,204227,2,0,L|321:205,1,65,0|0,1:2|1:2,0:0:0:0:
489,180,204492,5,12,0:0:0:0:
489,180,204625,1,0,0:0:0:0:
489,180,204758,1,0,0:0:0:0:
392,304,204891,6,0,P|327:277|261:267,1,130,4|0,1:2|1:2,0:0:0:0:
147,337,205289,2,0,B|138:298|138:298|144:257,1,65,10|0,0:0|0:0,0:0:0:0:
227,184,205554,2,0,P|212:133|128:107,1,130,2|10,1:2|0:0,0:0:0:0:
0,246,205952,6,0,B|145:221,1,130,0|0,0:0|0:0,0:0:0:0:
215,244,206351,2,0,B|232:207|232:207|222:164,1,65,10|0,0:0|0:0,0:0:0:0:
291,122,206616,2,0,L|429:140,1,130,2|10,1:2|0:0,0:0:0:0:
487,209,207014,1,4,1:2:0:0:
417,271,207147,6,0,P|391:227|390:193,1,65,0|0,0:0|1:2,0:0:0:0:
419,138,207413,2,0,L|434:63,1,65,10|0,0:0|0:0,0:0:0:0:
317,168,207678,6,0,L|304:231,1,65,2|0,1:2|1:2,0:0:0:0:
226,200,207944,2,0,L|213:263,1,65,10|0,0:0|0:0,0:0:0:0:
138,227,208209,6,0,L|125:290,2,65,2|0|10,1:2|0:0|0:0,0:0:0:0:
172,215,208541,1,0,0:0:0:0:
187,212,208607,1,0,0:0:0:0:
203,209,208674,1,0,0:0:0:0:
218,206,208740,5,2,1:2:0:0:
233,203,208806,1,0,0:0:0:0:
249,200,208873,1,0,1:2:0:0:
264,197,208939,1,0,0:0:0:0:
279,193,209006,2,0,L|324:180,3,32.5,10|0|0|0,0:0|0:0|0:0|0:0,0:0:0:0:
279,193,209271,6,0,L|322:347,1,143.000004364014,12|0,0:0|1:2,0:0:0:0:
178,138,209669,6,0,L|315:99,1,143.000004364014,8|0,0:0|1:2,0:0:0:0:
120,237,210068,6,0,L|81:99,1,143.000004364014,8|0,0:0|1:2,0:0:0:0:
218,293,210466,6,0,L|74:335,1,143.000004364014,8|0,0:0|1:2,0:0:0:0:
201,209,210864,6,0,P|277:219|295:256,1,107.25000327301,8|0,0:0|0:0,0:0:0:0:
309,278,211129,2,0,L|305:358,1,71.5000021820069,8|0,0:0|0:0,0:0:0:0:
201,209,211395,6,0,L|204:137,2,71.5000021820069,12|0|0,0:0|1:2|1:2,0:0:0:0:
304,161,211793,2,0,L|307:89,2,71.5000021820069,8|0|0,0:0|1:2|1:2,0:0:0:0:
412,127,212191,6,0,L|415:55,2,71.5000021820069,8|0|0,0:0|1:2|1:2,0:0:0:0:
508,83,212590,2,0,L|511:11,2,71.5000021820069,8|0|0,0:0|1:2|1:2,0:0:0:0:
412,127,212988,5,8,0:0:0:0:
419,198,213121,1,0,1:2:0:0:
427,268,213253,1,8,0:0:0:0:
434,339,213386,1,0,1:2:0:0:
256,192,213519,12,4,214581,0:1:0:0:
149,264,214846,5,0,1:2:0:0:
149,264,215112,2,0,L|255:246,1,97.50000371933,0|0,0:0|1:2,0:0:0:0:
338,268,215643,2,0,L|398:257,2,48.750001859665,0|0|0,0:0|0:0|1:2,0:0:0:0:
191,159,216174,6,0,L|120:148,1,48.750001859665,0|0,0:0|0:0,0:0:0:0:
64,140,216439,1,0,1:2:0:0:
328,194,216705,6,0,P|338:145|313:99,1,97.50000371933,0|0,0:0|1:2,0:0:0:0:
202,62,217236,2,0,L|190:158,1,97.50000371933,0|0,0:0|1:2,0:0:0:0:
54,220,217767,2,0,L|65:124,1,97.50000371933,0|0,0:0|1:2,0:0:0:0:
21,32,218231,5,0,0:0:0:0:
21,32,218364,1,0,0:0:0:0:
131,203,218629,2,0,L|127:224,2,12.1875004649162,0|0|2,0:0|0:0|0:0,0:0:0:0:
131,203,219094,5,12,0:0:0:0:
131,203,219227,1,8,0:0:0:0:
203,232,219360,6,0,L|280:222,1,65,8|8,0:0|0:0,0:0:0:0:
353,316,219625,2,0,L|288:324,1,65,8|8,0:0|0:0,0:0:0:0:
340,180,219891,6,0,B|354:220|354:220|346:258,1,65,8|8,0:0|0:0,0:0:0:0:
259,359,220156,2,0,B|245:319|245:319|253:281,1,65,8|8,0:0|0:0,0:0:0:0:
320,247,220421,1,8,0:0:0:0:
398,277,220554,1,8,0:0:0:0:
482,252,220687,5,8,0:0:0:0:
482,252,220753,1,0,0:0:0:0:
482,252,220820,1,8,0:0:0:0:
429,157,220952,6,0,L|434:79,1,65,12|8,0:0|0:0,0:0:0:0:
411,55,221152,2,0,P|382:40|322:40,1,65,0|0,1:2|0:0,0:0:0:0:
350,35,221351,1,8,0:0:0:0:
262,86,221483,6,0,L|174:67,1,65,0|8,0:0|0:0,0:0:0:0:
156,60,221683,2,0,P|140:92|140:143,1,65,0|0,1:2|0:0,0:0:0:0:
136,120,221882,1,0,1:2:0:0:
214,199,222014,6,0,L|287:194,1,65,8|0,0:0|1:2,0:0:0:0:
315,209,222214,1,0,1:2:0:0:
349,232,222280,2,0,L|413:227,1,65,8|0,0:0|1:2,0:0:0:0:
478,304,222545,6,0,L|534:297,5,32.5,8|0|8|0|8|0,0:0|0:0|0:0|0:0|0:0|0:0,0:0:0:0:
448,332,222944,6,0,B|410:331|365:364|308:343,1,130,4|0,1:2|1:2,0:0:0:0:
242,296,223342,2,0,P|223:258|234:222,1,77.999997619629,10|0,0:0|0:0,0:0:0:0:
309,176,223574,2,0,P|328:214|317:250,1,77.999997619629,0|0,0:0|0:0,0:0:0:0:
242,296,223873,1,10,0:0:0:0:
170,240,224006,2,0,P|94:213|17:206,1,155.999995239258,0|0,0:0|0:0,0:0:0:0:
44,127,224404,6,0,L|32:47,1,77.999997619629,10|0,0:0|0:0,0:0:0:0:
130,18,224669,1,2,1:2:0:0:
130,18,224802,2,0,L|145:104,1,77.999997619629,0|10,1:2|0:0,0:0:0:0:
210,190,225068,6,0,P|296:195|330:122,1,155.999995239258,4|0,1:2|1:2,0:0:0:0:
290,63,225466,2,0,P|250:43|214:38,1,77.999997619629,10|0,0:0|0:0,0:0:0:0:
329,143,225731,2,0,P|363:126|406:122,1,77.999997619629,2|0,1:2|1:2,0:0:0:0:
340,241,225997,5,10,0:0:0:0:
234,209,226129,2,0,L|229:116,1,77.999997619629,0|2,0:0|1:2,0:0:0:0:
185,23,226395,5,0,0:0:0:0:
100,69,226528,2,0,B|123:111|123:111|237:132,1,155.999995239258,10|2,0:0|1:2,0:0:0:0:
328,183,226926,5,0,1:2:0:0:
250,225,227059,1,10,0:0:0:0:
250,225,227191,6,0,P|162:246|127:304,1,155.999995239258,4|0,1:2|1:2,0:0:0:0:
134,383,227590,2,0,P|100:380|62:346,2,77.999997619629,10|0|0,0:0|0:0|0:0,0:0:0:0:
210,333,227988,2,0,P|236:306|301:307,1,77.999997619629,0|10,1:2|0:0,0:0:0:0:
373,357,228253,1,0,0:0:0:0:
373,357,228386,6,0,L|500:375,1,116.999996429443,2|0,1:2|0:0,0:0:0:0:
465,280,228652,2,0,P|481:262|481:207,1,77.999997619629,10|0,0:0|0:0,0:0:0:0:
384,159,228917,2,0,P|361:154|313:181,1,77.999997619629,2|0,1:2|1:2,0:0:0:0:
393,236,229183,2,0,L|381:138,1,77.999997619629,10|0,0:0|0:0,0:0:0:0:
311,58,229448,5,12,0:0:0:0:
269,62,229581,1,0,1:2:0:0:
227,66,229714,1,0,1:2:0:0:
191,43,229846,1,12,0:0:0:0:
155,66,229979,2,0,L|72:76,1,77.999997619629,0|0,1:2|1:2,0:0:0:0:
46,195,230244,5,12,0:0:0:0:
89,198,230377,1,0,1:2:0:0:
132,202,230510,1,0,1:2:0:0:
173,216,230643,1,12,0:0:0:0:
209,193,230775,2,0,L|293:180,1,77.999997619629,0|0,1:2|1:2,0:0:0:0:
422,270,231041,6,0,L|335:283,1,77.999997619629,12|0,0:0|1:2,0:0:0:0:
213,194,231306,2,0,L|301:182,1,77.999997619629,12|0,0:0|1:2,0:0:0:0:
360,116,231572,6,0,P|388:196|355:262,1,155.999995239258,4|10,1:2|0:0,0:0:0:0:
265,304,231970,1,0,0:0:0:0:
265,304,232103,2,0,L|184:313,1,77.999997619629,2|0,1:2|1:2,0:0:0:0:
105,270,232368,2,0,P|112:233|141:194,1,77.999997619629,10|0,0:0|0:0,0:0:0:0:
226,165,232634,2,0,P|319:175|372:108,1,155.999995239258,2|10,1:2|0:0,0:0:0:0:
321,34,233032,6,0,L|234:38,1,77.999997619629,0|2,0:0|1:2,0:0:0:0:
140,1,233298,1,0,1:2:0:0:
99,82,233430,1,10,0:0:0:0:
99,82,233563,6,0,L|93:249,1,155.999995239258,4|0,1:2|1:2,0:0:0:0:
274,338,233961,2,0,L|269:183,1,155.999995239258,10|2,0:0|1:2,0:0:0:0:
293,37,234360,1,0,1:2:0:0:
293,37,234492,2,0,P|262:77|224:88,1,77.999997619629,10|0,0:0|0:0,0:0:0:0:
350,133,234758,2,0,L|506:150,1,155.999995239258,2|10,1:2|0:0,0:0:0:0:
219,271,235289,5,2,1:2:0:0:
219,271,235421,2,0,L|142:282,1,77.999997619629,0|10,1:2|0:0,0:0:0:0:
178,191,235687,6,0,P|250:167|309:212,1,155.999995239258,4|0,1:2|1:2,0:0:0:0:
313,311,236085,1,10,0:0:0:0:
313,311,236218,1,0,0:0:0:0:
313,311,236351,2,0,P|328:341|374:359,1,77.999997619629,2|0,1:2|1:2,0:0:0:0:
444,283,236616,1,10,0:0:0:0:
444,283,236749,2,0,P|443:220|429:118,1,155.999995239258,0|0,0:0|0:0,0:0:0:0:
365,10,237147,1,10,0:0:0:0:
365,10,237280,1,0,0:0:0:0:
365,10,237413,2,0,B|319:22|319:22|281:51,1,77.999997619629,2|0,1:2|1:2,0:0:0:0:
230,106,237678,1,10,0:0:0:0:
230,106,237811,6,0,P|157:86|79:64,1,155.999995239258,4|0,1:2|1:2,0:0:0:0:
37,159,238209,1,10,0:0:0:0:
97,217,238342,1,0,0:0:0:0:
177,185,238475,2,0,P|224:175|271:181,1,77.999997619629,2|0,1:2|1:2,0:0:0:0:
288,257,238740,1,10,0:0:0:0:
203,290,238873,2,0,B|157:288|157:288|151:362|151:362|198:365,1,155.999995239258,0|0,1:2|1:2,0:0:0:0:
267,354,239271,5,10,0:0:0:0:
352,317,239404,1,0,0:0:0:0:
352,317,239537,2,0,P|362:277|360:239,1,77.999997619629,2|0,1:2|1:2,0:0:0:0:
321,161,239802,1,10,0:0:0:0:
231,178,239935,6,0,P|157:157|111:95,1,155.999995239258,4|0,1:2|1:2,0:0:0:0:
169,22,240333,2,0,P|188:61|191:104,1,77.999997619629,10|0,0:0|0:0,0:0:0:0:
86,168,240598,2,0,P|93:133|112:94,1,77.999997619629,2|0,1:2|1:2,0:0:0:0:
169,22,240864,5,10,0:0:0:0:
250,52,240997,2,0,P|329:44|404:33,1,155.999995239258,0|0,0:0|0:0,0:0:0:0:
418,136,241395,5,10,0:0:0:0:
495,90,241528,1,0,0:0:0:0:
495,90,241660,2,0,P|507:44|509:2,2,77.999997619629,2|0|10,1:2|1:2|0:0,0:0:0:0:
418,136,242059,6,0,P|397:212|421:287,1,155.999995239258,4|0,1:2|1:2,0:0:0:0:
505,239,242457,2,0,L|422:226,1,77.999997619629,10|0,0:0|0:0,0:0:0:0:
336,283,242722,1,2,1:2:0:0:
336,283,242855,2,0,L|246:296,1,77.999997619629,0|10,1:2|0:0,0:0:0:0:
192,246,243121,1,0,0:0:0:0:
192,245,243253,2,0,P|146:303|186:365,1,155.999995239258,2|10,1:2|0:0,0:0:0:0:
240,305,243652,5,0,0:0:0:0:
152,322,243784,2,0,L|76:304,1,77.999997619629,2|0,1:2|1:2,0:0:0:0:
18,224,244050,1,10,0:0:0:0:
104,190,244183,6,0,L|259:166,1,155.999995239258,4|0,1:2|1:2,0:0:0:0:
318,111,244581,2,0,P|337:140|335:194,1,77.999997619629,10|0,0:0|0:0,0:0:0:0:
270,245,244846,5,2,1:2:0:0:
270,245,244979,1,0,1:2:0:0:
173,266,245112,2,0,P|173:227|193:194,1,77.999997619629,10|0,0:0|0:0,0:0:0:0:
270,245,245377,5,2,1:2:0:0:
270,245,245510,1,0,0:0:0:0:
358,267,245643,2,0,L|445:258,1,77.999997619629,10|0,0:0|0:0,0:0:0:0:
321,350,245908,6,0,L|243:339,1,77.999997619629,2|0,1:2|1:2,0:0:0:0:
154,355,246174,2,0,L|76:344,1,77.999997619629,10|0,0:0|0:0,0:0:0:0:
19,281,246439,5,12,0:0:0:0:
27,239,246572,1,0,1:2:0:0:
34,197,246705,1,0,1:2:0:0:
40,154,246837,1,12,0:0:0:0:
48,112,246970,2,0,L|66:33,1,77.999997619629,0|0,1:2|1:2,0:0:0:0:
171,16,247236,5,12,0:0:0:0:
179,58,247368,1,0,1:2:0:0:
186,100,247501,1,0,1:2:0:0:
192,143,247634,1,12,0:0:0:0:
200,185,247767,2,0,L|218:265,1,77.999997619629,0|0,1:2|1:2,0:0:0:0:
356,331,248032,6,0,L|339:252,1,77.999997619629,12|0,0:0|1:2,0:0:0:0:
200,185,248298,2,0,L|218:265,1,77.999997619629,12|0,0:0|1:2,0:0:0:0:
265,102,248563,6,0,P|167:110|122:95,2,143.000004364014,4|10|2,1:2|0:0|1:2,0:0:0:0:
321,31,249227,2,0,P|343:29|395:40,1,71.5000021820069,0|10,1:2|0:0,0:0:0:0:
474,104,249492,2,0,P|488:172|492:256,1,143.000004364014,4|0,1:2|1:2,0:0:0:0:
401,324,249891,2,0,L|324:313,1,71.5000021820069,10|0,0:0|0:0,0:0:0:0:
421,234,250156,2,0,L|495:245,1,71.5000021820069,2|0,1:2|1:2,0:0:0:0:
331,314,250421,2,0,P|327:282|336:230,1,71.5000021820069,10|0,0:0|0:0,0:0:0:0:
403,148,250687,6,0,L|255:166,1,143.000004364014,4|10,1:2|0:0,0:0:0:0:
189,97,251085,1,0,0:0:0:0:
189,97,251218,2,0,P|152:103|118:121,1,71.5000021820069,2|0,1:2|1:2,0:0:0:0:
78,189,251483,1,10,0:0:0:0:
150,244,251616,6,0,L|181:394,1,143.000004364014,4|0,1:2|1:2,0:0:0:0:
53,343,252014,2,0,L|42:273,1,71.5000021820069,10|0,0:0|0:0,0:0:0:0:
78,189,252280,1,2,1:2:0:0:
78,189,252413,1,0,1:2:0:0:
176,172,252545,2,0,P|209:158|248:148,1,71.5000021820069,10|0,0:0|0:0,0:0:0:0:
351,180,252811,6,0,P|393:230|410:312,2,143.000004364014,4|10|2,1:2|0:0|1:2,0:0:0:0:
340,89,253475,2,0,P|349:48|357:14,1,71.5000021820069,0|10,1:2|0:0,0:0:0:0:
466,108,253740,2,0,P|400:170|343:179,1,143.000004364014,4|0,1:2|1:2,0:0:0:0:
244,112,254138,2,0,P|204:124|182:146,1,71.5000021820069,10|0,0:0|0:0,0:0:0:0:
153,236,254404,2,0,L|144:316,1,71.5000021820069,2|0,1:2|1:2,0:0:0:0:
287,264,254669,2,0,P|278:216|259:189,1,71.5000021820069,10|0,0:0|0:0,0:0:0:0:
230,322,254935,6,0,B|284:355|284:355|364:341,1,143.000004364014,4|10,1:2|0:0,0:0:0:0:
165,363,255333,1,0,0:0:0:0:
165,363,255466,2,0,B|134:347|134:347|88:322,1,71.5000021820069,2|0,1:2|1:2,0:0:0:0:
11,261,255731,1,10,0:0:0:0:
79,199,255864,2,0,L|84:53,1,143.000004364014,4|0,1:2|1:2,0:0:0:0:
171,42,256262,5,10,0:0:0:0:
265,54,256395,1,0,1:2:0:0:
359,64,256528,2,0,L|403:70,2,35.7500010910034,2|0|0,1:2|0:0|1:2,0:0:0:0:
244,127,256793,2,0,L|162:116,1,71.5000021820069,10|0,0:0|0:0,0:0:0:0:
329,12,257059,6,0,P|335:77|338:162,2,143.000004364014,4|10|2,1:2|0:0|1:2,0:0:0:0:
452,58,257722,2,0,L|428:130,1,71.5000021820069,0|10,1:2|0:0,0:0:0:0:
408,210,257988,2,0,P|468:229|493:307,1,143.000004364014,4|0,1:2|1:2,0:0:0:0:
415,337,258386,2,0,L|335:328,1,71.5000021820069,10|0,0:0|0:0,0:0:0:0:
262,242,258652,2,0,L|338:251,1,71.5000021820069,2|0,1:2|1:2,0:0:0:0:
258,384,258917,2,0,P|240:365|236:312,1,71.5000021820069,10|0,0:0|0:0,0:0:0:0:
333,250,259183,6,0,P|358:190|373:127,1,107.25000327301,4|0,1:2|0:0,0:0:0:0:
319,50,259581,1,0,0:0:0:0:
247,10,259714,2,0,P|216:5|171:7,1,71.5000021820069,4|0,1:2|1:2,0:0:0:0:
101,62,259979,1,10,0:0:0:0:
192,98,260112,2,0,L|330:58,1,143.000004364014,4|0,1:2|1:2,0:0:0:0:
367,127,260510,5,10,0:0:0:0:
367,127,260643,1,0,0:0:0:0:
329,58,260775,2,0,L|403:34,1,71.5000021820069,2|0,1:2|1:2,0:0:0:0:
367,127,261041,2,0,L|295:153,1,71.5000021820069,10|0,0:0|0:0,0:0:0:0:
201,157,261306,6,0,L|189:305,1,143.000004364014,4|10,1:2|0:0,0:0:0:0:
320,351,261837,5,2,1:2:0:0:
386,298,261970,1,0,1:2:0:0:
346,225,262103,1,10,0:0:0:0:
262,236,262236,1,4,1:2:0:0:
262,236,263298,6,0,B|327:170|405:181|442:241|383:283,1,227.5,10|2,0:0|0:0,0:0:0:0:
300,346,264492,5,8,0:0:0:0:
222,334,264625,5,8,0:0:0:0:
144,325,264758,5,8,0:0:0:0:
66,312,264891,5,8,0:0:0:0:
254,192,265289,5,10,0:0:0:0:
254,192,265421,1,4,1:2:0:0:
256,192,265554,12,4,267545,1:2:0:0:
