osu file format v14

[General]
AudioFilename: audio.ogg
AudioLeadIn: 0
PreviewTime: 161974
Countdown: 0
SampleSet: Normal
StackLeniency: 0.7
Mode: 1
LetterboxInBreaks: 0
WidescreenStoryboard: 1

[Editor]
Bookmarks: 957,22328,39320,58435,75426,92417,107151,126399,134895,143390,162505,179497,196488,222904,231532,265381
DistanceSpacing: 1.7
BeatDivisor: 4
GridSize: 32
TimelineZoom: 2.599999

[Metadata]
Title:Akari no Arika
TitleUnicode:アカリノアリカ
Artist:Kicco
ArtistUnicode:Kicco
Creator:gaston_2199
Version:KyeX's Oni
Source:縁りて此の葉は紅に
Tags:四季彩クロニクル Shikisai Chronicle Kuronikuru Yorite Konoha wa Kurenai ni よりくれ yorikure ランプオブシュガー Lump of Sugar KOKOMI 水野大輔 Mizuno Daisuke ギャルゲーム galgame エロゲー eroge visual novel op opening long full ver. version video game vgm japanese rock jrock j-rock jpop j-pop pop KyeX
BeatmapID:3652736
BeatmapSetID:1716811

[Difficulty]
HPDrainRate:5
CircleSize:3
OverallDifficulty:6
ApproachRate:10
SliderMultiplier:1.4
SliderTickRate:1

[Events]
//Background and Video events
0,0,"BG.jpg",0,50
//Break Periods
//Storyboard Layer 0 (Background)
//Storyboard Layer 1 (Fail)
//Storyboard Layer 2 (Pass)
//Storyboard Layer 3 (Foreground)
//Storyboard Layer 4 (Overlay)
//Storyboard Sound Samples

[TimingPoints]
28,265.486725663717,4,1,0,90,1,0
18081,-100,4,1,0,100,0,0
18346,-100.627887691032,4,1,0,100,0,0
18612,-101.266124609552,4,1,0,100,0,0
18744,-101.585858827469,4,1,0,100,0,0
19010,-102.236344815965,4,1,0,100,0,0
19143,-102.56472179289,4,1,0,100,0,0
19275,-102.892722163,4,1,0,100,0,0
19408,-103.225336023139,4,1,0,100,0,0
19541,-103.560107290905,4,1,0,100,0,0
19806,-104.233648300405,4,1,0,100,0,0
19939,-104.575002462326,4,1,0,100,0,0
20072,-104.918599767781,4,1,0,100,0,0
20204,-105.261853421568,4,1,0,100,0,0
20470,-105.960430128989,4,1,0,100,0,0
20735,-106.665662045409,4,1,0,100,0,0
20868,-107.023158531361,4,1,0,100,0,0
21134,-107.745389045336,4,1,0,100,0,0
21266,-108.107420134912,4,1,0,100,0,0
21399,-108.474662852472,4,1,0,100,0,0
21532,-108.844409134012,4,1,0,100,0,0
21665,-109.216684668004,4,1,0,100,0,0
22328,-111.111111111111,4,1,0,80,0,0
38918,-109.597523219814,4,1,0,80,0,0
39051,-108.113610913163,4,1,0,80,0,0
39184,-106.669345118522,4,1,0,80,0,0
39317,-105.263157894737,4,1,0,90,0,0
48081,-117.64705882353,4,1,0,80,0,0
54187,-111.111111111111,4,1,0,90,0,0
54320,-110.34339446205,4,1,0,90,0,0
54452,-109.591868324648,4,1,0,90,0,0
54585,-108.844931843804,4,1,0,90,0,0
54718,-108.108108108108,4,1,0,90,0,0
54851,-107.381193124368,4,1,0,90,0,0
54983,-106.669345118521,4,1,0,90,0,0
55249,-105.263157894737,4,1,0,90,0,0
55381,-104.579025110783,4,1,0,90,0,0
55514,-103.898645012963,4,1,0,90,0,0
55647,-103.227060653188,4,1,0,90,0,0
55780,-102.564102564103,4,1,0,90,0,0
56045,-101.26823686469,4,1,0,90,0,0
56311,-100,4,1,0,90,0,0
58435,-100,4,1,0,100,0,1
92417,-100,4,1,0,90,0,0
92682,-105.263157894737,4,1,0,80,0,0
107151,-100,4,1,0,90,0,0
126532,-117.647058823529,4,1,0,80,0,0
142992,-114.279565264177,4,1,0,80,0,0
143125,-111.099487394079,4,1,0,80,0,0
143258,-108.091603053435,4,1,0,80,0,0
143387,-105.263157894737,4,1,0,90,0,0
152151,-117.64705882353,4,1,0,80,0,0
158258,-111.111111111111,4,1,0,80,0,0
158390,-110.348770726129,4,1,0,80,0,0
158523,-109.591162502581,4,1,0,80,0,0
158656,-108.84388618303,4,1,0,80,0,0
158789,-108.10673184642,4,1,0,80,0,0
158921,-107.38492665655,4,1,0,80,0,0
159054,-106.667336582425,4,1,0,80,0,0
159320,-105.260548366305,4,1,0,80,0,0
159452,-104.576129254717,4,1,0,80,0,0
159585,-103.895468337085,4,1,0,80,0,0
159718,-103.223610638401,4,1,0,80,0,0
159851,-102.56038647343,4,1,0,80,0,0
160116,-101.264011447651,4,1,0,80,0,0
160381,-100,4,1,0,80,0,0
162505,-100,4,1,0,100,0,1
196488,-100,4,1,0,90,0,0
200735,-105.263157894737,4,1,0,80,0,0
204851,-100,4,1,0,90,0,0
209231,-95.2380952380952,4,1,0,100,0,1
211355,-90.9090909090909,4,1,0,100,0,1
213213,-90.9090909090909,4,1,0,80,0,0
214541,-125,4,1,0,60,0,0
218656,-125,4,1,0,70,0,0
219054,-125,4,1,0,90,0,0
219184,-124.45171044538,4,1,0,90,0,0
219317,-123.747489160401,4,1,0,90,0,0
219449,-122.981235443034,4,1,0,90,0,0
219516,-122.574885912613,4,1,0,90,0,0
219582,-122.165674298235,4,1,0,90,0,0
219715,-121.319396212173,4,1,0,90,0,0
219781,-120.890703572825,4,1,0,90,0,0
219848,-120.450681122298,4,1,0,90,0,0
219980,-119.57205207255,4,1,0,90,0,0
220113,-118.674512391103,4,1,0,90,0,0
220179,-118.225618541056,4,1,0,90,0,0
220246,-117.768039193371,4,1,0,90,0,0
220312,-117.315748791792,4,1,0,90,0,0
220378,-116.862212499794,4,1,0,90,0,0
220511,-115.945500292255,4,1,0,90,0,0
220644,-115.026576550247,4,1,0,90,0,0
220777,-114.106980155329,4,1,0,90,0,0
220843,-113.650800299749,4,1,0,90,0,0
220909,-113.19492031511,4,1,0,90,0,0
221042,-112.277686302792,4,1,0,90,0,0
221109,-111.816588295241,4,1,0,90,0,0
221175,-111.363150237254,4,1,0,90,0,0
221308,-110.452139234863,4,1,0,90,0,0
221440,-109.552169503398,4,1,0,90,0,0
221507,-109.097162429351,4,1,0,90,0,0
221573,-108.650222331679,4,1,0,90,0,0
221706,-107.753671961488,4,1,0,90,0,0
221839,-106.862986944232,4,1,0,90,0,0
221905,-106.423298190578,4,1,0,90,0,0
221971,-105.985199373386,4,1,0,90,0,0
222038,-105.542131606389,4,1,0,90,0,0
222104,-105.10735987746,4,1,0,90,0,0
222237,-104.236447483976,4,1,0,90,0,0
222303,-103.806919774354,4,1,0,90,0,0
222370,-103.372725063391,4,1,0,90,0,0
222436,-102.946851174141,4,1,0,90,0,0
222502,-102.522828305359,4,1,0,90,0,0
222569,-102.094297294653,4,1,0,90,0,0
222635,-101.674071087261,4,1,0,90,0,0
222701,-101.255758450888,4,1,0,90,0,0
222768,-100.833082904591,4,1,0,90,0,0
222904,-100,4,1,0,100,0,1
248523,-100,4,1,0,80,0,0
248789,-105.263157894737,4,1,0,80,0,0
263258,-117.647058823529,4,1,0,90,0,0
263390,-117.647058823529,4,1,0,70,0,0
265249,-100,4,1,0,90,0,0
282506,-100,4,1,0,80,0,0
282771,-100.628036497215,4,1,0,80,0,0
283036,-101.264011447651,4,1,0,80,0,0
283169,-101.586238246764,4,1,0,80,0,0
283435,-102.236883291999,4,1,0,80,0,0
283567,-102.562863837291,4,1,0,80,0,0
283700,-102.893423157078,4,1,0,80,0,0
283833,-103.226120146841,4,1,0,80,0,0
283966,-103.560975609756,4,1,0,80,0,0
284231,-104.234687615073,4,1,0,80,0,0
284364,-104.576129254717,4,1,0,80,0,0
284497,-104.919815167165,4,1,0,80,0,0
284895,-100,4,1,0,80,0,0
285691,-100,4,1,0,68,0,0
286753,-100,4,1,0,56,0,0
287815,-100,4,1,0,44,0,0
288877,-100,4,1,0,32,0,0
289939,-100,4,1,0,20,0,0

[HitObjects]
256,192,558,5,8,0:0:0:0:
237,74,691,1,0,0:0:0:0:
256,192,824,1,8,0:0:0:0:
256,192,957,1,4,0:0:0:0:
256,192,1222,1,0,0:0:0:0:
256,192,1355,1,8,0:0:0:0:
256,192,1620,1,0,0:0:0:0:
256,192,1753,1,0,0:0:0:0:
256,192,1886,1,8,0:0:0:0:
256,192,2019,1,8,0:0:0:0:
256,192,2085,1,8,0:0:0:0:
256,192,2151,1,0,0:0:0:0:
256,192,2284,1,0,0:0:0:0:
256,192,2417,1,8,0:0:0:0:
256,192,2682,1,8,0:0:0:0:
256,192,2815,1,0,0:0:0:0:
256,192,2948,1,0,0:0:0:0:
256,192,3081,1,12,0:0:0:0:
256,192,3346,1,0,0:0:0:0:
256,192,3479,1,8,0:0:0:0:
256,192,3744,1,0,0:0:0:0:
256,192,3877,1,0,0:0:0:0:
256,192,4010,1,8,0:0:0:0:
256,192,4143,1,0,0:0:0:0:
256,192,4209,1,0,0:0:0:0:
256,192,4275,1,8,0:0:0:0:
256,192,4408,1,0,0:0:0:0:
256,192,4541,1,8,0:0:0:0:
256,192,4806,1,8,0:0:0:0:
256,192,4939,1,8,0:0:0:0:
256,192,5072,1,0,0:0:0:0:
256,192,5204,1,12,0:0:0:0:
256,192,5470,1,0,0:0:0:0:
256,192,5603,1,8,0:0:0:0:
256,192,5868,1,0,0:0:0:0:
256,192,6001,1,0,0:0:0:0:
256,192,6134,1,8,0:0:0:0:
256,192,6266,1,0,0:0:0:0:
256,192,6333,1,0,0:0:0:0:
256,192,6399,1,8,0:0:0:0:
256,192,6532,1,0,0:0:0:0:
256,192,6797,1,8,0:0:0:0:
256,192,6930,1,8,0:0:0:0:
256,192,7063,1,0,0:0:0:0:
256,192,7196,1,0,0:0:0:0:
256,192,7328,1,12,0:0:0:0:
256,192,7594,1,0,0:0:0:0:
256,192,7727,1,8,0:0:0:0:
256,192,7859,1,0,0:0:0:0:
256,192,7992,1,8,0:0:0:0:
256,192,8125,1,8,0:0:0:0:
256,192,8258,1,0,0:0:0:0:
256,192,8390,1,8,0:0:0:0:
256,192,8656,1,0,0:0:0:0:
256,192,8789,1,8,0:0:0:0:
256,192,8855,1,8,0:0:0:0:
256,192,8921,1,0,0:0:0:0:
256,192,8988,1,0,0:0:0:0:
256,192,9054,1,8,0:0:0:0:
256,192,9187,1,0,0:0:0:0:
256,192,9320,1,8,0:0:0:0:
256,192,9452,1,4,0:0:0:0:
256,192,9718,1,0,0:0:0:0:
256,192,9851,1,8,0:0:0:0:
256,192,10116,1,0,0:0:0:0:
256,192,10249,1,0,0:0:0:0:
256,192,10381,1,8,0:0:0:0:
256,192,10514,1,8,0:0:0:0:
256,192,10581,1,8,0:0:0:0:
256,192,10647,1,0,0:0:0:0:
256,192,10780,1,0,0:0:0:0:
256,192,10912,1,8,0:0:0:0:
256,192,11178,1,0,0:0:0:0:
256,192,11311,1,0,0:0:0:0:
256,192,11443,1,8,0:0:0:0:
256,192,11576,1,4,0:0:0:0:
256,192,11842,1,0,0:0:0:0:
256,192,11974,1,8,0:0:0:0:
256,192,12240,1,0,0:0:0:0:
256,192,12373,1,0,0:0:0:0:
256,192,12505,1,8,0:0:0:0:
256,192,12638,1,8,0:0:0:0:
256,192,12704,1,8,0:0:0:0:
256,192,12771,1,8,0:0:0:0:
256,192,12904,1,0,0:0:0:0:
256,192,13036,1,0,0:0:0:0:
256,192,13169,1,8,0:0:0:0:
256,192,13435,1,0,0:0:0:0:
256,192,13567,1,8,0:0:0:0:
256,192,13700,1,4,0:0:0:0:
256,192,13966,1,0,0:0:0:0:
256,192,14098,1,8,0:0:0:0:
256,192,14231,1,0,0:0:0:0:
256,192,14297,1,0,0:0:0:0:
256,192,14364,1,8,0:0:0:0:
256,192,14497,1,0,0:0:0:0:
256,192,14629,1,8,0:0:0:0:
256,192,14762,1,8,0:0:0:0:
256,192,14895,1,0,0:0:0:0:
256,192,15160,1,8,0:0:0:0:
256,192,15293,1,0,0:0:0:0:
256,192,15426,1,8,0:0:0:0:
256,192,15558,1,8,0:0:0:0:
256,192,15824,1,12,0:0:0:0:
256,192,16089,1,0,0:0:0:0:
256,192,16222,1,8,0:0:0:0:
256,192,16355,1,0,0:0:0:0:
256,192,16421,1,0,0:0:0:0:
256,192,16488,1,8,0:0:0:0:
256,192,16620,1,8,0:0:0:0:
256,192,16753,1,0,0:0:0:0:
256,192,16886,1,12,0:0:0:0:
256,192,17151,1,0,0:0:0:0:
256,192,17284,1,8,0:0:0:0:
256,192,17417,1,0,0:0:0:0:
256,192,17483,1,0,0:0:0:0:
256,192,17550,1,8,0:0:0:0:
256,192,17616,1,8,0:0:0:0:
256,192,17682,1,0,0:0:0:0:
256,192,17815,1,8,0:0:0:0:
256,192,17948,1,8,0:0:0:0:
256,192,18081,1,4,0:0:0:0:
256,192,18346,1,8,0:0:0:0:
256,192,18612,1,0,0:0:0:0:
256,192,18744,1,8,0:0:0:0:
256,192,19010,1,0,0:0:0:0:
256,192,19143,1,8,0:0:0:0:
256,192,19275,1,8,0:0:0:0:
256,192,19408,1,0,0:0:0:0:
256,192,19541,1,8,0:0:0:0:
256,192,19806,1,0,0:0:0:0:
256,192,19939,1,8,0:0:0:0:
256,192,20072,1,8,0:0:0:0:
256,192,20204,1,0,0:0:0:0:
256,192,20470,1,8,0:0:0:0:
256,192,20735,1,0,0:0:0:0:
256,192,20868,1,8,0:0:0:0:
256,192,21134,1,0,0:0:0:0:
256,192,21266,1,8,0:0:0:0:
256,192,21399,1,0,0:0:0:0:
256,192,21532,1,0,0:0:0:0:
256,192,21665,1,8,0:0:0:0:
256,192,22328,1,4,0:0:0:0:
256,192,22594,1,8,0:0:0:0:
256,192,22727,1,8,0:0:0:0:
256,192,22859,1,0,0:0:0:0:
256,192,23125,1,8,0:0:0:0:
256,192,23258,1,0,0:0:0:0:
256,192,23523,1,0,0:0:0:0:
256,192,23656,1,8,0:0:0:0:
256,192,23789,1,0,0:0:0:0:
256,192,23921,1,8,0:0:0:0:
256,192,24187,1,8,0:0:0:0:
256,192,24320,1,8,0:0:0:0:
256,192,24452,1,0,0:0:0:0:
256,192,24718,1,8,0:0:0:0:
256,192,24851,1,8,0:0:0:0:
256,192,24983,1,0,0:0:0:0:
256,192,25116,1,0,0:0:0:0:
256,192,25249,1,8,0:0:0:0:
256,192,25514,1,0,0:0:0:0:
256,192,25780,1,8,0:0:0:0:
224,160,26045,1,0,0:0:0:0:
256,192,26178,1,0,0:0:0:0:
224,160,26311,1,8,0:0:0:0:
256,192,26443,1,8,0:0:0:0:
224,160,26576,1,0,0:0:0:0:
256,160,26842,1,8,0:0:0:0:
256,160,27107,1,0,0:0:0:0:
256,160,27373,1,8,0:0:0:0:
256,160,27505,1,8,0:0:0:0:
224,128,27771,1,0,0:0:0:0:
224,128,27904,1,8,0:0:0:0:
224,128,28169,1,0,0:0:0:0:
224,128,28435,1,8,0:0:0:0:
224,128,28567,1,8,0:0:0:0:
224,128,28700,1,0,0:0:0:0:
224,128,28966,1,8,0:0:0:0:
224,128,29098,1,0,0:0:0:0:
224,128,29231,1,8,0:0:0:0:
224,128,29497,1,8,0:0:0:0:
224,128,29762,1,0,0:0:0:0:
256,128,29895,1,0,0:0:0:0:
224,128,30028,1,8,0:0:0:0:
224,128,30160,1,0,0:0:0:0:
224,128,30293,1,8,0:0:0:0:
224,128,30558,1,8,0:0:0:0:
224,128,30691,1,8,0:0:0:0:
256,160,30824,1,0,0:0:0:0:
256,160,31089,1,8,0:0:0:0:
256,160,31355,1,0,0:0:0:0:
256,160,31620,1,8,0:0:0:0:
256,160,31753,1,0,0:0:0:0:
256,160,32019,1,0,0:0:0:0:
256,160,32151,1,8,0:0:0:0:
256,160,32284,1,0,0:0:0:0:
256,160,32417,1,8,0:0:0:0:
256,160,32682,1,8,0:0:0:0:
256,160,32815,1,8,0:0:0:0:
224,160,32948,1,0,0:0:0:0:
256,160,33213,1,8,0:0:0:0:
256,160,33346,1,8,0:0:0:0:
224,160,33479,1,0,0:0:0:0:
224,160,33612,1,0,0:0:0:0:
256,160,33744,1,8,0:0:0:0:
224,160,34010,1,0,0:0:0:0:
224,160,34275,1,8,0:0:0:0:
224,160,34541,1,8,0:0:0:0:
224,160,34674,1,0,0:0:0:0:
224,160,34806,1,8,0:0:0:0:
224,160,34939,1,8,0:0:0:0:
224,160,35072,1,0,0:0:0:0:
256,160,35337,1,8,0:0:0:0:
256,160,35603,1,8,0:0:0:0:
256,160,35868,1,8,0:0:0:0:
256,160,36001,1,0,0:0:0:0:
224,128,36266,1,0,0:0:0:0:
224,128,36399,1,8,0:0:0:0:
224,128,36532,1,8,0:0:0:0:
224,128,36665,1,0,0:0:0:0:
224,128,36930,1,8,0:0:0:0:
224,128,37063,1,8,0:0:0:0:
224,128,37196,1,0,0:0:0:0:
224,128,37461,1,8,0:0:0:0:
224,128,37727,1,0,0:0:0:0:
224,128,37859,1,0,0:0:0:0:
224,128,37992,1,8,0:0:0:0:
224,128,38125,1,8,0:0:0:0:
224,128,38258,1,0,0:0:0:0:
224,128,38523,1,8,0:0:0:0:
224,128,38789,1,8,0:0:0:0:
224,128,38921,1,8,0:0:0:0:
224,128,39054,1,8,0:0:0:0:
224,128,39187,1,8,0:0:0:0:
224,128,39320,1,0,0:0:0:0:
224,128,39585,1,8,0:0:0:0:
224,128,39718,1,0,0:0:0:0:
224,96,39784,1,0,0:0:0:0:
224,96,39851,1,8,0:0:0:0:
224,96,39983,1,0,0:0:0:0:
224,96,40116,1,8,0:0:0:0:
224,96,40249,1,8,0:0:0:0:
224,96,40514,1,0,0:0:0:0:
224,96,40647,1,8,0:0:0:0:
224,96,40912,1,0,0:0:0:0:
256,192,41045,1,0,0:0:0:0:
224,96,41178,1,8,0:0:0:0:
224,128,41443,1,0,0:0:0:0:
224,128,41709,1,8,0:0:0:0:
224,128,41842,1,8,0:0:0:0:
224,128,41908,1,8,0:0:0:0:
256,128,41974,1,0,0:0:0:0:
256,128,42107,1,8,0:0:0:0:
256,128,42240,1,8,0:0:0:0:
256,128,42373,1,0,0:0:0:0:
256,128,42638,1,0,0:0:0:0:
256,128,42771,1,8,0:0:0:0:
256,128,43036,1,8,0:0:0:0:
256,128,43169,1,0,0:0:0:0:
256,128,43302,1,8,0:0:0:0:
256,128,43435,1,8,0:0:0:0:
256,128,43567,1,0,0:0:0:0:
256,96,43833,1,8,0:0:0:0:
256,128,43966,1,0,0:0:0:0:
256,96,44032,1,0,0:0:0:0:
256,128,44098,1,8,0:0:0:0:
256,128,44231,1,0,0:0:0:0:
256,128,44364,1,8,0:0:0:0:
256,128,44497,1,8,0:0:0:0:
256,96,44762,1,0,0:0:0:0:
256,96,44895,1,8,0:0:0:0:
256,96,45160,1,8,0:0:0:0:
256,192,45293,1,0,0:0:0:0:
256,96,45426,1,8,0:0:0:0:
256,96,45691,1,0,0:0:0:0:
256,128,45957,1,8,0:0:0:0:
256,128,46089,1,8,0:0:0:0:
256,128,46156,1,8,0:0:0:0:
224,128,46222,1,0,0:0:0:0:
224,128,46355,1,0,0:0:0:0:
224,128,46488,1,8,0:0:0:0:
224,128,46620,1,0,0:0:0:0:
224,128,46886,1,0,0:0:0:0:
224,128,47019,1,8,0:0:0:0:
224,128,47284,1,0,0:0:0:0:
224,128,47417,1,0,0:0:0:0:
224,128,47550,1,8,0:0:0:0:
224,128,47815,1,4,0:0:0:0:
224,96,48081,1,8,0:0:0:0:
224,96,48213,1,0,0:0:0:0:
224,96,48612,1,8,0:0:0:0:
224,96,49143,1,8,0:0:0:0:
224,96,49674,1,8,0:0:0:0:
238,129,49806,1,8,0:0:0:0:
224,96,49939,1,0,0:0:0:0:
224,96,50204,1,8,0:0:0:0:
224,96,50337,1,0,0:0:0:0:
224,96,50735,1,8,0:0:0:0:
224,128,51266,1,8,0:0:0:0:
224,128,51797,1,8,0:0:0:0:
231,99,51930,1,8,0:0:0:0:
224,128,52063,1,0,0:0:0:0:
224,128,52328,1,8,0:0:0:0:
224,128,52461,1,0,0:0:0:0:
224,128,52859,1,8,0:0:0:0:
224,128,53390,1,8,0:0:0:0:
224,128,53921,1,8,0:0:0:0:
224,128,54187,1,12,0:0:0:0:
224,128,54320,1,0,0:0:0:0:
224,128,54452,1,0,0:0:0:0:
224,128,54585,1,12,0:0:0:0:
224,128,54718,1,0,0:0:0:0:
224,128,54851,1,0,0:0:0:0:
224,128,54983,1,12,0:0:0:0:
224,128,55249,1,0,0:0:0:0:
224,128,55381,1,12,0:0:0:0:
224,96,55514,1,0,0:0:0:0:
256,128,55647,1,0,0:0:0:0:
256,128,55780,1,12,0:0:0:0:
256,128,56045,1,12,0:0:0:0:
256,128,56311,1,8,0:0:0:0:
256,128,56443,1,0,0:0:0:0:
224,96,56510,1,0,0:0:0:0:
256,128,56576,1,0,0:0:0:0:
256,128,56709,1,8,0:0:0:0:
256,128,56842,1,0,0:0:0:0:
256,128,56974,1,0,0:0:0:0:
224,96,57107,1,8,0:0:0:0:
256,128,57240,1,0,0:0:0:0:
256,192,57306,1,0,0:0:0:0:
256,128,57373,1,0,0:0:0:0:
256,128,57505,1,8,0:0:0:0:
256,128,57638,1,0,0:0:0:0:
256,192,57704,1,0,0:0:0:0:
224,192,57771,1,0,0:0:0:0:
256,128,57837,1,0,0:0:0:0:
247,123,57904,1,8,0:0:0:0:
256,128,58435,1,4,0:0:0:0:
256,128,58700,1,8,0:0:0:0:
256,192,58833,1,8,0:0:0:0:
256,160,58966,1,0,0:0:0:0:
256,128,59032,1,0,0:0:0:0:
256,128,59098,1,0,0:0:0:0:
256,128,59231,1,8,0:0:0:0:
256,128,59364,1,8,0:0:0:0:
256,128,59497,1,0,0:0:0:0:
256,128,59762,1,8,0:0:0:0:
256,128,59895,1,0,0:0:0:0:
256,128,60028,1,8,0:0:0:0:
256,128,60094,1,0,0:0:0:0:
256,128,60160,1,8,0:0:0:0:
256,128,60293,1,0,0:0:0:0:
256,128,60426,1,12,0:0:0:0:
256,128,60691,1,0,0:0:0:0:
256,128,60824,1,8,0:0:0:0:
224,128,60890,1,8,0:0:0:0:
256,128,60957,1,0,0:0:0:0:
256,192,61023,1,0,0:0:0:0:
256,128,61089,1,8,0:0:0:0:
256,192,61222,1,0,0:0:0:0:
224,128,61355,1,8,0:0:0:0:
224,128,61488,1,0,0:0:0:0:
224,160,61753,1,0,0:0:0:0:
224,128,61886,1,8,0:0:0:0:
224,128,62019,1,0,0:0:0:0:
256,96,62085,1,0,0:0:0:0:
224,128,62151,1,8,0:0:0:0:
224,128,62284,1,8,0:0:0:0:
224,128,62417,1,0,0:0:0:0:
224,128,62550,1,12,0:0:0:0:
224,128,62815,1,0,0:0:0:0:
224,128,62948,1,8,0:0:0:0:
224,128,63081,1,8,0:0:0:0:
224,160,63147,1,8,0:0:0:0:
243,144,63213,1,0,0:0:0:0:
243,144,63346,1,0,0:0:0:0:
243,144,63479,1,8,0:0:0:0:
243,144,63612,1,0,0:0:0:0:
243,144,63877,1,0,0:0:0:0:
243,144,64010,1,8,0:0:0:0:
224,128,64143,1,0,0:0:0:0:
224,96,64209,1,0,0:0:0:0:
224,96,64275,1,8,0:0:0:0:
243,144,64408,1,0,0:0:0:0:
243,144,64541,1,0,0:0:0:0:
243,144,64674,1,12,0:0:0:0:
224,128,64939,1,0,0:0:0:0:
224,128,65072,1,8,0:0:0:0:
224,96,65138,1,8,0:0:0:0:
224,128,65204,1,8,0:0:0:0:
224,128,65337,1,0,0:0:0:0:
224,128,65470,1,0,0:0:0:0:
224,128,65603,1,8,0:0:0:0:
256,160,65735,1,0,0:0:0:0:
256,192,65802,1,8,0:0:0:0:
256,192,65868,1,0,0:0:0:0:
224,128,66001,1,8,0:0:0:0:
256,160,66134,1,8,0:0:0:0:
256,160,66266,1,0,0:0:0:0:
256,128,66333,1,0,0:0:0:0:
256,160,66399,1,8,0:0:0:0:
256,128,66532,1,8,0:0:0:0:
256,128,66665,1,0,0:0:0:0:
256,160,66797,1,12,0:0:0:0:
256,160,67063,1,0,0:0:0:0:
256,160,67196,1,8,0:0:0:0:
224,128,67262,1,8,0:0:0:0:
256,160,67328,1,0,0:0:0:0:
256,160,67461,1,8,0:0:0:0:
256,160,67594,1,0,0:0:0:0:
256,160,67727,1,8,0:0:0:0:
256,160,67859,1,8,0:0:0:0:
224,128,68125,1,0,0:0:0:0:
224,128,68258,1,8,0:0:0:0:
256,160,68390,1,0,0:0:0:0:
224,128,68457,1,0,0:0:0:0:
256,160,68523,1,8,0:0:0:0:
256,160,68656,1,0,0:0:0:0:
256,160,68789,1,0,0:0:0:0:
256,160,68921,1,12,0:0:0:0:
256,160,69187,1,0,0:0:0:0:
256,160,69320,1,8,0:0:0:0:
256,192,69386,1,8,0:0:0:0:
256,160,69452,1,0,0:0:0:0:
256,160,69585,1,8,0:0:0:0:
256,160,69718,1,0,0:0:0:0:
256,160,69851,1,8,0:0:0:0:
256,160,69983,1,0,0:0:0:0:
224,128,70249,1,8,0:0:0:0:
224,128,70381,1,8,0:0:0:0:
256,160,70514,1,0,0:0:0:0:
224,128,70581,1,0,0:0:0:0:
256,160,70647,1,8,0:0:0:0:
256,160,70780,1,8,0:0:0:0:
256,160,70912,1,0,0:0:0:0:
256,160,71045,1,12,0:0:0:0:
256,128,71311,1,0,0:0:0:0:
256,128,71443,1,8,0:0:0:0:
256,128,71576,1,8,0:0:0:0:
256,128,71709,1,0,0:0:0:0:
256,128,71842,1,0,0:0:0:0:
256,128,71974,1,8,0:0:0:0:
256,128,72240,1,8,0:0:0:0:
256,128,72373,1,0,0:0:0:0:
256,128,72505,1,8,0:0:0:0:
256,128,72572,1,8,0:0:0:0:
256,128,72638,1,0,0:0:0:0:
256,128,72771,1,8,0:0:0:0:
256,128,72904,1,0,0:0:0:0:
256,128,73036,1,8,0:0:0:0:
256,128,73302,1,12,0:0:0:0:
256,128,73435,1,0,0:0:0:0:
256,128,73567,1,0,0:0:0:0:
256,128,73700,1,12,0:0:0:0:
256,128,73966,1,0,0:0:0:0:
256,128,74098,1,12,0:0:0:0:
256,128,74231,1,0,0:0:0:0:
256,128,74364,1,0,0:0:0:0:
256,128,74497,1,12,0:0:0:0:
256,128,74629,1,0,0:0:0:0:
256,128,74762,1,0,0:0:0:0:
256,128,74895,1,12,0:0:0:0:
256,128,75160,1,12,0:0:0:0:
256,128,75426,1,4,0:0:0:0:
256,128,75691,1,8,0:0:0:0:
256,128,75824,1,0,0:0:0:0:
256,160,75957,1,8,0:0:0:0:
256,160,76023,1,8,0:0:0:0:
256,128,76089,1,0,0:0:0:0:
256,128,76222,1,8,0:0:0:0:
256,128,76355,1,0,0:0:0:0:
256,128,76488,1,8,0:0:0:0:
256,128,76753,1,8,0:0:0:0:
256,128,76886,1,0,0:0:0:0:
256,128,77019,1,8,0:0:0:0:
256,128,77085,1,8,0:0:0:0:
256,128,77151,1,8,0:0:0:0:
256,128,77284,1,0,0:0:0:0:
256,128,77417,1,12,0:0:0:0:
256,128,77682,1,8,0:0:0:0:
256,128,77815,1,0,0:0:0:0:
224,128,77881,1,0,0:0:0:0:
256,128,77948,1,0,0:0:0:0:
256,192,78014,1,0,0:0:0:0:
256,128,78081,1,8,0:0:0:0:
224,128,78213,1,0,0:0:0:0:
224,128,78346,1,8,0:0:0:0:
224,128,78479,1,0,0:0:0:0:
224,160,78744,1,0,0:0:0:0:
224,128,78877,1,8,0:0:0:0:
224,128,79010,1,0,0:0:0:0:
224,160,79076,1,0,0:0:0:0:
224,128,79143,1,8,0:0:0:0:
224,128,79275,1,8,0:0:0:0:
224,128,79408,1,0,0:0:0:0:
224,128,79541,1,12,0:0:0:0:
224,128,79806,1,0,0:0:0:0:
224,128,79939,1,8,0:0:0:0:
224,128,80072,1,0,0:0:0:0:
224,160,80138,1,0,0:0:0:0:
243,144,80204,1,8,0:0:0:0:
243,144,80337,1,0,0:0:0:0:
243,144,80470,1,8,0:0:0:0:
243,144,80603,1,8,0:0:0:0:
243,144,80868,1,0,0:0:0:0:
243,144,81001,1,8,0:0:0:0:
224,96,81067,1,8,0:0:0:0:
224,128,81134,1,0,0:0:0:0:
224,96,81266,1,8,0:0:0:0:
243,144,81399,1,0,0:0:0:0:
243,144,81532,1,0,0:0:0:0:
243,144,81665,1,12,0:0:0:0:
224,128,81930,1,0,0:0:0:0:
224,128,82063,1,8,0:0:0:0:
224,128,82196,1,0,0:0:0:0:
256,96,82262,1,0,0:0:0:0:
224,128,82328,1,8,0:0:0:0:
224,128,82461,1,0,0:0:0:0:
224,128,82594,1,8,0:0:0:0:
256,96,82727,1,0,0:0:0:0:
256,192,82793,1,0,0:0:0:0:
256,192,82859,1,0,0:0:0:0:
224,128,82992,1,8,0:0:0:0:
256,160,83125,1,8,0:0:0:0:
256,160,83258,1,0,0:0:0:0:
256,128,83324,1,0,0:0:0:0:
256,160,83390,1,8,0:0:0:0:
256,128,83523,1,0,0:0:0:0:
256,128,83656,1,0,0:0:0:0:
256,160,83789,1,12,0:0:0:0:
256,160,84054,1,0,0:0:0:0:
256,160,84187,1,8,0:0:0:0:
224,128,84253,1,0,0:0:0:0:
256,160,84320,1,0,0:0:0:0:
256,160,84452,1,8,0:0:0:0:
256,160,84585,1,0,0:0:0:0:
256,160,84718,1,8,0:0:0:0:
256,160,84851,1,0,0:0:0:0:
224,128,85116,1,0,0:0:0:0:
224,128,85249,1,8,0:0:0:0:
256,160,85381,1,0,0:0:0:0:
224,128,85448,1,0,0:0:0:0:
256,160,85514,1,8,0:0:0:0:
256,160,85647,1,8,0:0:0:0:
256,160,85780,1,0,0:0:0:0:
256,160,85912,1,12,0:0:0:0:
256,160,86178,1,0,0:0:0:0:
256,160,86311,1,8,0:0:0:0:
256,160,86443,1,0,0:0:0:0:
224,128,86510,1,0,0:0:0:0:
256,160,86576,1,8,0:0:0:0:
256,160,86709,1,0,0:0:0:0:
256,160,86842,1,8,0:0:0:0:
256,160,86974,1,8,0:0:0:0:
224,128,87107,1,0,0:0:0:0:
224,128,87240,1,8,0:0:0:0:
256,160,87505,1,8,0:0:0:0:
256,160,87638,1,0,0:0:0:0:
256,160,87771,1,0,0:0:0:0:
256,160,87904,1,8,0:0:0:0:
256,160,88036,1,4,0:0:0:0:
256,128,88302,1,0,0:0:0:0:
256,128,88435,1,8,0:0:0:0:
256,128,88567,1,8,0:0:0:0:
256,128,88700,1,0,0:0:0:0:
256,128,88833,1,0,0:0:0:0:
256,128,88966,1,8,0:0:0:0:
256,128,89231,1,8,0:0:0:0:
256,128,89364,1,0,0:0:0:0:
256,128,89497,1,8,0:0:0:0:
256,128,89563,1,8,0:0:0:0:
256,128,89629,1,0,0:0:0:0:
256,128,89762,1,8,0:0:0:0:
256,128,89895,1,0,0:0:0:0:
256,128,90028,1,8,0:0:0:0:
256,128,90293,1,12,0:0:0:0:
256,128,90426,1,0,0:0:0:0:
256,128,90558,1,0,0:0:0:0:
256,128,90691,1,12,0:0:0:0:
256,128,90957,1,0,0:0:0:0:
256,128,91089,1,12,0:0:0:0:
256,128,91222,1,0,0:0:0:0:
256,128,91355,1,0,0:0:0:0:
256,128,91488,1,12,0:0:0:0:
256,128,91620,1,0,0:0:0:0:
256,128,91753,1,0,0:0:0:0:
256,128,91886,1,12,0:0:0:0:
256,128,92151,1,12,0:0:0:0:
256,128,92417,1,4,0:0:0:0:
256,96,92682,1,8,0:0:0:0:
256,96,92815,1,0,0:0:0:0:
256,96,92948,1,8,0:0:0:0:
256,96,93213,1,8,0:0:0:0:
256,96,93346,1,4,0:0:0:0:
256,128,93612,1,0,0:0:0:0:
256,128,93744,1,8,0:0:0:0:
256,96,93877,1,8,0:0:0:0:
256,128,94010,1,0,0:0:0:0:
256,128,94143,1,0,0:0:0:0:
256,128,94275,1,8,0:0:0:0:
256,128,94541,1,12,0:0:0:0:
256,128,94806,1,8,0:0:0:0:
256,128,95072,1,0,0:0:0:0:
256,128,95204,1,8,0:0:0:0:
256,128,95337,1,0,0:0:0:0:
256,128,95470,1,12,0:0:0:0:
256,128,95735,1,0,0:0:0:0:
256,128,95868,1,8,0:0:0:0:
256,128,96001,1,0,0:0:0:0:
256,128,96134,1,8,0:0:0:0:
256,128,96266,1,8,0:0:0:0:
256,128,96399,1,0,0:0:0:0:
256,128,96665,1,4,0:0:0:0:
256,96,96930,1,8,0:0:0:0:
256,96,97196,1,8,0:0:0:0:
256,96,97328,1,0,0:0:0:0:
256,96,97461,1,8,0:0:0:0:
256,96,97594,1,4,0:0:0:0:
256,128,97859,1,0,0:0:0:0:
256,128,97992,1,8,0:0:0:0:
256,96,98125,1,8,0:0:0:0:
256,128,98258,1,0,0:0:0:0:
256,128,98390,1,0,0:0:0:0:
256,128,98523,1,8,0:0:0:0:
256,128,98789,1,12,0:0:0:0:
256,128,99054,1,8,0:0:0:0:
256,128,99320,1,0,0:0:0:0:
256,128,99452,1,8,0:0:0:0:
256,128,99585,1,0,0:0:0:0:
256,128,99718,1,12,0:0:0:0:
256,128,99983,1,0,0:0:0:0:
256,128,100116,1,8,0:0:0:0:
256,128,100249,1,0,0:0:0:0:
256,128,100315,1,0,0:0:0:0:
256,128,100381,1,8,0:0:0:0:
256,128,100514,1,0,0:0:0:0:
256,128,100647,1,8,0:0:0:0:
256,128,100780,1,8,0:0:0:0:
256,128,100912,1,4,0:0:0:0:
256,96,101178,1,8,0:0:0:0:
256,96,101443,1,0,0:0:0:0:
256,96,101576,1,8,0:0:0:0:
256,96,101709,1,8,0:0:0:0:
256,96,101842,1,4,0:0:0:0:
256,128,102107,1,0,0:0:0:0:
256,128,102240,1,8,0:0:0:0:
256,96,102373,1,0,0:0:0:0:
256,128,102505,1,8,0:0:0:0:
256,128,102638,1,8,0:0:0:0:
256,128,102771,1,0,0:0:0:0:
256,128,103036,1,12,0:0:0:0:
256,128,103302,1,8,0:0:0:0:
256,128,103567,1,4,0:0:0:0:
256,128,103833,1,0,0:0:0:0:
256,128,103966,1,12,0:0:0:0:
256,128,104231,1,0,0:0:0:0:
256,128,104364,1,8,0:0:0:0:
256,128,104497,1,0,0:0:0:0:
256,128,104563,1,0,0:0:0:0:
256,128,104629,1,8,0:0:0:0:
256,128,104762,1,0,0:0:0:0:
256,128,104895,1,8,0:0:0:0:
256,128,105160,1,4,0:0:0:0:
256,96,105426,1,8,0:0:0:0:
256,96,105558,1,0,0:0:0:0:
256,96,105691,1,8,0:0:0:0:
256,96,105824,1,8,0:0:0:0:
256,96,105957,1,0,0:0:0:0:
256,96,106089,1,12,0:0:0:0:
256,96,107151,1,4,0:0:0:0:
256,96,107550,1,8,0:0:0:0:
256,96,107682,1,0,0:0:0:0:
256,128,107749,1,0,0:0:0:0:
256,96,107815,1,8,0:0:0:0:
256,128,107948,1,0,0:0:0:0:
256,128,108081,1,8,0:0:0:0:
256,128,108213,1,0,0:0:0:0:
256,128,108346,1,8,0:0:0:0:
256,128,108612,1,8,0:0:0:0:
256,128,108744,1,8,0:0:0:0:
256,128,108811,1,8,0:0:0:0:
256,128,108877,1,0,0:0:0:0:
256,128,109010,1,8,0:0:0:0:
247,118,109143,1,8,0:0:0:0:
256,128,109275,1,4,0:0:0:0:
288,96,109541,1,0,0:0:0:0:
256,96,109674,1,8,0:0:0:0:
256,96,109806,1,8,0:0:0:0:
224,96,109873,1,8,0:0:0:0:
224,96,109939,1,0,0:0:0:0:
224,96,110072,1,0,0:0:0:0:
256,64,110204,1,8,0:0:0:0:
256,64,110337,1,0,0:0:0:0:
256,64,110470,1,8,0:0:0:0:
256,64,110735,1,8,0:0:0:0:
256,64,110868,1,0,0:0:0:0:
256,64,110935,1,0,0:0:0:0:
256,64,111001,1,8,0:0:0:0:
256,64,111134,1,0,0:0:0:0:
256,64,111266,1,8,0:0:0:0:
256,64,111399,1,4,0:0:0:0:
224,96,111665,1,0,0:0:0:0:
224,96,111797,1,8,0:0:0:0:
224,96,111930,1,0,0:0:0:0:
224,96,111997,1,0,0:0:0:0:
224,96,112063,1,8,0:0:0:0:
224,96,112196,1,0,0:0:0:0:
224,96,112328,1,8,0:0:0:0:
224,96,112461,1,8,0:0:0:0:
224,96,112594,1,0,0:0:0:0:
224,96,112859,1,8,0:0:0:0:
224,96,112992,1,8,0:0:0:0:
256,192,113058,1,0,0:0:0:0:
224,96,113125,1,0,0:0:0:0:
224,96,113258,1,8,0:0:0:0:
224,96,113390,1,8,0:0:0:0:
224,96,113523,1,4,0:0:0:0:
256,160,113789,1,0,0:0:0:0:
256,160,113921,1,8,0:0:0:0:
224,160,114054,1,0,0:0:0:0:
224,160,114120,1,0,0:0:0:0:
224,160,114187,1,8,0:0:0:0:
224,160,114320,1,0,0:0:0:0:
224,160,114452,1,8,0:0:0:0:
224,160,114585,1,0,0:0:0:0:
224,160,114718,1,8,0:0:0:0:
224,160,114983,1,8,0:0:0:0:
224,160,115116,1,8,0:0:0:0:
224,160,115182,1,8,0:0:0:0:
224,160,115249,1,0,0:0:0:0:
224,160,115381,1,8,0:0:0:0:
224,160,115514,1,0,0:0:0:0:
224,160,115647,1,12,0:0:0:0:
224,128,115912,1,0,0:0:0:0:
224,128,116045,1,8,0:0:0:0:
256,128,116112,1,0,0:0:0:0:
224,128,116178,1,8,0:0:0:0:
231,141,116311,1,0,0:0:0:0:
231,141,116443,1,8,0:0:0:0:
224,128,116576,1,8,0:0:0:0:
224,128,116709,1,4,0:0:0:0:
224,128,116974,1,0,0:0:0:0:
224,128,117107,1,8,0:0:0:0:
231,141,117240,1,0,0:0:0:0:
256,192,117306,1,0,0:0:0:0:
231,141,117373,1,8,0:0:0:0:
224,128,117505,1,8,0:0:0:0:
224,128,117638,1,0,0:0:0:0:
224,128,117771,1,12,0:0:0:0:
224,128,118036,1,0,0:0:0:0:
231,141,118169,1,8,0:0:0:0:
231,141,118302,1,0,0:0:0:0:
224,128,118368,1,0,0:0:0:0:
224,128,118435,1,8,0:0:0:0:
224,128,118567,1,0,0:0:0:0:
224,128,118700,1,8,0:0:0:0:
224,128,118833,1,8,0:0:0:0:
224,128,118966,1,0,0:0:0:0:
231,141,119231,1,8,0:0:0:0:
256,128,119364,1,0,0:0:0:0:
224,128,119497,1,8,0:0:0:0:
256,192,119563,1,8,0:0:0:0:
256,192,119629,1,0,0:0:0:0:
256,128,119762,1,8,0:0:0:0:
256,128,119895,1,4,0:0:0:0:
224,128,120160,1,0,0:0:0:0:
256,128,120293,1,8,0:0:0:0:
224,96,120426,1,0,0:0:0:0:
224,96,120492,1,0,0:0:0:0:
256,128,120558,1,8,0:0:0:0:
256,128,120691,1,0,0:0:0:0:
256,128,120824,1,8,0:0:0:0:
256,96,120957,1,0,0:0:0:0:
256,128,121089,1,8,0:0:0:0:
240,141,121355,1,8,0:0:0:0:
256,128,121488,1,0,0:0:0:0:
256,128,121620,1,8,0:0:0:0:
256,192,121687,1,0,0:0:0:0:
256,128,121753,1,8,0:0:0:0:
256,128,121886,1,0,0:0:0:0:
256,128,122019,1,12,0:0:0:0:
256,128,122284,1,0,0:0:0:0:
256,128,122417,1,8,0:0:0:0:
256,128,122550,1,0,0:0:0:0:
256,128,122616,1,0,0:0:0:0:
256,128,122682,1,8,0:0:0:0:
256,128,122815,1,0,0:0:0:0:
256,128,122948,1,8,0:0:0:0:
256,128,123081,1,8,0:0:0:0:
256,128,123213,1,0,0:0:0:0:
256,128,123479,1,8,0:0:0:0:
256,128,123612,1,0,0:0:0:0:
256,192,123678,1,0,0:0:0:0:
256,128,123744,1,8,0:0:0:0:
256,128,123877,1,8,0:0:0:0:
256,128,124010,1,0,0:0:0:0:
256,128,124143,1,12,0:0:0:0:
256,128,124408,1,0,0:0:0:0:
256,128,124541,1,8,0:0:0:0:
256,128,124674,1,8,0:0:0:0:
256,128,124740,1,8,0:0:0:0:
256,128,124806,1,0,0:0:0:0:
256,128,124939,1,8,0:0:0:0:
256,128,125072,1,0,0:0:0:0:
256,128,125204,1,12,0:0:0:0:
256,128,125470,1,0,0:0:0:0:
256,128,125603,1,8,0:0:0:0:
256,96,125691,1,8,0:0:0:0:
256,96,125780,1,8,0:0:0:0:
256,128,125868,1,8,0:0:0:0:
256,128,126001,1,0,0:0:0:0:
256,128,126134,1,8,0:0:0:0:
256,128,126266,1,8,0:0:0:0:
256,128,126399,1,0,0:0:0:0:
224,128,126665,1,8,0:0:0:0:
224,128,126930,1,0,0:0:0:0:
224,128,127063,1,0,0:0:0:0:
224,128,127196,1,8,0:0:0:0:
224,128,127461,1,0,0:0:0:0:
224,128,127727,1,8,0:0:0:0:
224,128,127859,1,0,0:0:0:0:
224,128,128125,1,0,0:0:0:0:
224,128,128258,1,8,0:0:0:0:
224,128,128523,1,0,0:0:0:0:
224,128,128789,1,8,0:0:0:0:
224,128,129054,1,8,0:0:0:0:
224,128,129187,1,0,0:0:0:0:
224,128,129320,1,8,0:0:0:0:
224,128,129585,1,0,0:0:0:0:
224,128,129851,1,8,0:0:0:0:
224,128,129983,1,0,0:0:0:0:
224,128,130249,1,0,0:0:0:0:
224,128,130381,1,8,0:0:0:0:
224,128,130647,1,0,0:0:0:0:
224,128,130912,1,8,0:0:0:0:
224,128,131178,1,0,0:0:0:0:
224,128,131311,1,0,0:0:0:0:
224,128,131443,1,8,0:0:0:0:
224,128,131709,1,0,0:0:0:0:
224,128,131974,1,8,0:0:0:0:
224,128,132107,1,0,0:0:0:0:
224,128,132373,1,0,0:0:0:0:
224,128,132505,1,8,0:0:0:0:
224,128,132771,1,0,0:0:0:0:
224,128,133036,1,8,0:0:0:0:
224,128,133302,1,0,0:0:0:0:
224,128,133435,1,0,0:0:0:0:
224,128,133567,1,8,0:0:0:0:
224,128,133833,1,0,0:0:0:0:
224,128,134098,1,8,0:0:0:0:
224,128,134231,1,0,0:0:0:0:
224,128,134497,1,0,0:0:0:0:
224,128,134629,1,8,0:0:0:0:
192,96,134895,1,0,0:0:0:0:
224,128,135160,1,8,0:0:0:0:
224,96,135293,1,8,0:0:0:0:
224,128,135426,1,0,0:0:0:0:
224,128,135558,1,0,0:0:0:0:
224,128,135691,1,8,0:0:0:0:
224,128,135957,1,0,0:0:0:0:
224,128,136222,1,8,0:0:0:0:
224,128,136355,1,0,0:0:0:0:
224,128,136620,1,0,0:0:0:0:
224,128,136753,1,8,0:0:0:0:
224,128,137019,1,0,0:0:0:0:
224,128,137284,1,8,0:0:0:0:
224,128,137417,1,0,0:0:0:0:
224,128,137550,1,0,0:0:0:0:
224,128,137682,1,0,0:0:0:0:
224,128,137815,1,8,0:0:0:0:
224,128,138081,1,0,0:0:0:0:
224,128,138346,1,8,0:0:0:0:
224,128,138479,1,0,0:0:0:0:
224,128,138744,1,0,0:0:0:0:
224,128,138877,1,8,0:0:0:0:
224,128,139143,1,0,0:0:0:0:
224,128,139408,1,8,0:0:0:0:
224,128,139541,1,8,0:0:0:0:
224,128,139674,1,8,0:0:0:0:
224,128,139806,1,0,0:0:0:0:
224,128,139939,1,8,0:0:0:0:
224,128,140204,1,0,0:0:0:0:
224,128,140470,1,8,0:0:0:0:
224,128,140603,1,0,0:0:0:0:
224,128,140868,1,0,0:0:0:0:
224,128,141001,1,8,0:0:0:0:
224,128,141266,1,0,0:0:0:0:
224,128,141532,1,8,0:0:0:0:
224,128,141665,1,8,0:0:0:0:
224,128,141797,1,0,0:0:0:0:
224,128,141930,1,0,0:0:0:0:
224,128,142063,1,8,0:0:0:0:
224,128,142328,1,0,0:0:0:0:
224,128,142594,1,8,0:0:0:0:
224,128,142859,1,8,0:0:0:0:
224,128,142992,1,8,0:0:0:0:
224,128,143125,1,8,0:0:0:0:
192,128,143258,1,8,0:0:0:0:
224,128,143390,1,0,0:0:0:0:
224,128,143656,1,8,0:0:0:0:
224,96,143921,1,0,0:0:0:0:
224,96,144054,1,0,0:0:0:0:
224,96,144187,1,8,0:0:0:0:
224,96,144320,1,0,0:0:0:0:
224,96,144585,1,0,0:0:0:0:
224,96,144718,1,8,0:0:0:0:
224,96,144983,1,0,0:0:0:0:
256,192,145116,1,0,0:0:0:0:
224,96,145249,1,8,0:0:0:0:
224,128,145514,1,0,0:0:0:0:
224,128,145780,1,8,0:0:0:0:
256,128,146045,1,0,0:0:0:0:
256,128,146178,1,0,0:0:0:0:
256,128,146311,1,8,0:0:0:0:
256,128,146443,1,0,0:0:0:0:
256,128,146709,1,0,0:0:0:0:
256,128,146842,1,8,0:0:0:0:
256,96,146974,1,0,0:0:0:0:
256,128,147240,1,0,0:0:0:0:
256,128,147373,1,8,0:0:0:0:
256,128,147638,1,0,0:0:0:0:
256,96,147904,1,8,0:0:0:0:
256,128,148036,1,8,0:0:0:0:
256,128,148169,1,0,0:0:0:0:
256,128,148435,1,8,0:0:0:0:
256,128,148567,1,8,0:0:0:0:
256,96,148833,1,0,0:0:0:0:
256,96,148966,1,8,0:0:0:0:
256,96,149098,1,8,0:0:0:0:
256,96,149231,1,0,0:0:0:0:
256,96,149497,1,8,0:0:0:0:
256,96,149762,1,0,0:0:0:0:
256,128,150028,1,8,0:0:0:0:
256,128,150160,1,8,0:0:0:0:
224,128,150426,1,0,0:0:0:0:
224,128,150558,1,8,0:0:0:0:
224,128,150691,1,0,0:0:0:0:
224,128,150957,1,0,0:0:0:0:
224,128,151089,1,8,0:0:0:0:
224,128,151355,1,0,0:0:0:0:
224,128,151488,1,0,0:0:0:0:
224,128,151620,1,8,0:0:0:0:
224,128,151886,1,4,0:0:0:0:
224,96,152151,1,8,0:0:0:0:
224,96,152284,1,0,0:0:0:0:
224,96,152682,1,8,0:0:0:0:
224,96,153213,1,8,0:0:0:0:
224,96,153744,1,8,0:0:0:0:
237,76,153877,1,8,0:0:0:0:
224,96,154010,1,0,0:0:0:0:
224,96,154275,1,8,0:0:0:0:
224,96,154408,1,0,0:0:0:0:
224,96,154806,1,8,0:0:0:0:
224,128,155337,1,8,0:0:0:0:
224,128,155868,1,8,0:0:0:0:
237,76,156001,1,8,0:0:0:0:
224,128,156134,1,0,0:0:0:0:
224,128,156399,1,8,0:0:0:0:
224,128,156532,1,0,0:0:0:0:
224,128,156930,1,8,0:0:0:0:
224,128,157461,1,8,0:0:0:0:
224,128,157992,1,8,0:0:0:0:
224,128,158258,1,12,0:0:0:0:
224,128,158390,1,0,0:0:0:0:
224,128,158523,1,0,0:0:0:0:
224,128,158656,1,12,0:0:0:0:
224,128,158789,1,0,0:0:0:0:
224,128,158921,1,0,0:0:0:0:
224,128,159054,1,12,0:0:0:0:
224,128,159320,1,0,0:0:0:0:
224,128,159452,1,12,0:0:0:0:
224,96,159585,1,0,0:0:0:0:
256,128,159718,1,0,0:0:0:0:
256,128,159851,1,12,0:0:0:0:
256,128,160116,1,12,0:0:0:0:
256,128,160381,1,8,0:0:0:0:
256,128,160514,1,0,0:0:0:0:
224,96,160581,1,0,0:0:0:0:
256,128,160647,1,0,0:0:0:0:
256,128,160780,1,8,0:0:0:0:
256,128,160912,1,0,0:0:0:0:
256,128,161045,1,0,0:0:0:0:
224,96,161178,1,8,0:0:0:0:
256,128,161311,1,0,0:0:0:0:
256,128,161377,1,0,0:0:0:0:
256,128,161443,1,8,0:0:0:0:
256,128,161576,1,0,0:0:0:0:
256,128,161709,1,8,0:0:0:0:
256,192,161775,1,8,0:0:0:0:
256,128,161842,1,0,0:0:0:0:
256,128,161908,1,0,0:0:0:0:
247,123,161974,1,8,0:0:0:0:
256,128,162505,1,4,0:0:0:0:
256,128,162771,1,8,0:0:0:0:
256,192,162904,1,8,0:0:0:0:
256,160,163036,1,0,0:0:0:0:
256,192,163103,1,0,0:0:0:0:
256,128,163169,1,0,0:0:0:0:
256,128,163302,1,8,0:0:0:0:
256,128,163435,1,8,0:0:0:0:
256,128,163567,1,0,0:0:0:0:
256,128,163833,1,8,0:0:0:0:
256,128,163966,1,0,0:0:0:0:
256,128,164098,1,8,0:0:0:0:
256,128,164165,1,0,0:0:0:0:
256,128,164231,1,8,0:0:0:0:
256,128,164364,1,0,0:0:0:0:
256,128,164497,1,12,0:0:0:0:
256,128,164762,1,0,0:0:0:0:
256,128,164895,1,8,0:0:0:0:
224,128,164961,1,8,0:0:0:0:
256,128,165028,1,0,0:0:0:0:
256,192,165094,1,0,0:0:0:0:
256,128,165160,1,8,0:0:0:0:
256,192,165293,1,0,0:0:0:0:
224,128,165426,1,8,0:0:0:0:
224,128,165558,1,0,0:0:0:0:
224,160,165824,1,0,0:0:0:0:
224,128,165957,1,8,0:0:0:0:
224,128,166089,1,0,0:0:0:0:
256,96,166156,1,0,0:0:0:0:
224,128,166222,1,8,0:0:0:0:
224,128,166355,1,0,0:0:0:0:
224,128,166488,1,0,0:0:0:0:
224,128,166620,1,12,0:0:0:0:
224,128,166886,1,0,0:0:0:0:
224,128,167019,1,8,0:0:0:0:
224,128,167151,1,8,0:0:0:0:
224,160,167218,1,8,0:0:0:0:
243,144,167284,1,0,0:0:0:0:
243,144,167417,1,8,0:0:0:0:
243,144,167550,1,0,0:0:0:0:
243,144,167682,1,8,0:0:0:0:
243,144,167948,1,0,0:0:0:0:
243,144,168081,1,8,0:0:0:0:
224,128,168213,1,0,0:0:0:0:
224,96,168280,1,0,0:0:0:0:
224,96,168346,1,8,0:0:0:0:
243,144,168479,1,0,0:0:0:0:
243,144,168612,1,0,0:0:0:0:
243,144,168744,1,12,0:0:0:0:
224,128,169010,1,0,0:0:0:0:
224,128,169143,1,8,0:0:0:0:
224,96,169209,1,8,0:0:0:0:
224,128,169275,1,8,0:0:0:0:
224,128,169408,1,0,0:0:0:0:
224,128,169541,1,0,0:0:0:0:
224,128,169674,1,8,0:0:0:0:
256,160,169806,1,0,0:0:0:0:
256,192,169873,1,8,0:0:0:0:
256,160,169939,1,0,0:0:0:0:
224,128,170072,1,8,0:0:0:0:
256,160,170204,1,8,0:0:0:0:
256,160,170337,1,0,0:0:0:0:
256,128,170404,1,0,0:0:0:0:
256,160,170470,1,8,0:0:0:0:
256,128,170603,1,8,0:0:0:0:
256,128,170735,1,0,0:0:0:0:
256,160,170868,1,12,0:0:0:0:
256,160,171134,1,0,0:0:0:0:
256,160,171266,1,8,0:0:0:0:
224,128,171333,1,8,0:0:0:0:
256,160,171399,1,0,0:0:0:0:
256,160,171532,1,8,0:0:0:0:
256,160,171665,1,0,0:0:0:0:
256,160,171797,1,8,0:0:0:0:
256,160,171930,1,8,0:0:0:0:
224,128,172196,1,0,0:0:0:0:
224,128,172328,1,8,0:0:0:0:
256,160,172461,1,0,0:0:0:0:
224,128,172528,1,0,0:0:0:0:
256,160,172594,1,8,0:0:0:0:
256,160,172727,1,0,0:0:0:0:
256,160,172859,1,0,0:0:0:0:
256,160,172992,1,12,0:0:0:0:
256,160,173258,1,0,0:0:0:0:
256,160,173390,1,8,0:0:0:0:
256,160,173523,1,0,0:0:0:0:
224,128,173589,1,0,0:0:0:0:
256,160,173656,1,0,0:0:0:0:
256,160,173789,1,8,0:0:0:0:
256,160,173921,1,8,0:0:0:0:
256,160,174054,1,0,0:0:0:0:
224,128,174320,1,8,0:0:0:0:
224,128,174452,1,8,0:0:0:0:
256,160,174585,1,0,0:0:0:0:
224,128,174651,1,0,0:0:0:0:
256,160,174718,1,8,0:0:0:0:
256,160,174851,1,8,0:0:0:0:
256,160,174983,1,0,0:0:0:0:
256,160,175116,1,12,0:0:0:0:
256,128,175381,1,0,0:0:0:0:
256,128,175514,1,8,0:0:0:0:
256,128,175647,1,8,0:0:0:0:
256,128,175780,1,0,0:0:0:0:
256,128,175912,1,0,0:0:0:0:
256,128,176045,1,8,0:0:0:0:
256,128,176311,1,8,0:0:0:0:
256,128,176443,1,0,0:0:0:0:
256,128,176576,1,8,0:0:0:0:
256,128,176643,1,8,0:0:0:0:
256,128,176709,1,0,0:0:0:0:
256,128,176842,1,8,0:0:0:0:
256,128,176974,1,0,0:0:0:0:
256,128,177107,1,8,0:0:0:0:
256,128,177373,1,12,0:0:0:0:
256,128,177505,1,0,0:0:0:0:
256,128,177638,1,0,0:0:0:0:
256,128,177771,1,12,0:0:0:0:
256,128,178036,1,0,0:0:0:0:
256,128,178169,1,12,0:0:0:0:
256,128,178302,1,0,0:0:0:0:
256,128,178435,1,0,0:0:0:0:
256,128,178567,1,12,0:0:0:0:
256,128,178700,1,0,0:0:0:0:
256,128,178833,1,0,0:0:0:0:
256,128,178966,1,12,0:0:0:0:
256,128,179231,1,12,0:0:0:0:
256,128,179497,1,4,0:0:0:0:
256,128,179762,1,8,0:0:0:0:
256,128,179895,1,0,0:0:0:0:
256,160,180028,1,8,0:0:0:0:
256,160,180094,1,8,0:0:0:0:
256,128,180160,1,0,0:0:0:0:
256,128,180293,1,8,0:0:0:0:
256,128,180426,1,0,0:0:0:0:
256,128,180558,1,8,0:0:0:0:
256,128,180824,1,8,0:0:0:0:
256,128,180957,1,0,0:0:0:0:
256,128,181089,1,8,0:0:0:0:
256,128,181156,1,8,0:0:0:0:
256,128,181222,1,8,0:0:0:0:
256,128,181355,1,0,0:0:0:0:
256,128,181488,1,12,0:0:0:0:
256,128,181753,1,8,0:0:0:0:
256,128,181886,1,0,0:0:0:0:
224,128,181952,1,0,0:0:0:0:
256,128,182019,1,0,0:0:0:0:
256,192,182085,1,0,0:0:0:0:
256,128,182151,1,8,0:0:0:0:
224,128,182284,1,0,0:0:0:0:
224,128,182417,1,8,0:0:0:0:
224,128,182550,1,0,0:0:0:0:
224,160,182815,1,0,0:0:0:0:
224,128,182948,1,8,0:0:0:0:
224,128,183081,1,0,0:0:0:0:
224,160,183147,1,0,0:0:0:0:
224,128,183213,1,8,0:0:0:0:
224,128,183346,1,8,0:0:0:0:
224,128,183479,1,0,0:0:0:0:
224,128,183612,1,12,0:0:0:0:
224,128,183877,1,0,0:0:0:0:
224,128,184010,1,8,0:0:0:0:
224,128,184143,1,8,0:0:0:0:
224,160,184209,1,8,0:0:0:0:
243,144,184275,1,8,0:0:0:0:
243,144,184408,1,0,0:0:0:0:
243,144,184541,1,8,0:0:0:0:
243,144,184674,1,8,0:0:0:0:
243,144,184939,1,0,0:0:0:0:
243,144,185072,1,8,0:0:0:0:
224,96,185138,1,8,0:0:0:0:
224,128,185204,1,0,0:0:0:0:
224,96,185337,1,8,0:0:0:0:
243,144,185470,1,0,0:0:0:0:
243,144,185603,1,0,0:0:0:0:
243,144,185735,1,12,0:0:0:0:
224,128,186001,1,0,0:0:0:0:
224,128,186134,1,8,0:0:0:0:
224,128,186266,1,0,0:0:0:0:
256,96,186333,1,0,0:0:0:0:
224,128,186399,1,8,0:0:0:0:
224,128,186532,1,0,0:0:0:0:
224,128,186665,1,8,0:0:0:0:
256,96,186797,1,0,0:0:0:0:
256,192,186864,1,0,0:0:0:0:
256,192,186930,1,0,0:0:0:0:
224,128,187063,1,8,0:0:0:0:
256,160,187196,1,8,0:0:0:0:
256,160,187328,1,0,0:0:0:0:
256,128,187395,1,0,0:0:0:0:
256,160,187461,1,8,0:0:0:0:
256,128,187594,1,0,0:0:0:0:
256,128,187727,1,0,0:0:0:0:
256,160,187859,1,12,0:0:0:0:
256,160,188125,1,0,0:0:0:0:
256,160,188258,1,8,0:0:0:0:
224,128,188324,1,8,0:0:0:0:
256,160,188390,1,0,0:0:0:0:
256,160,188523,1,8,0:0:0:0:
256,160,188656,1,0,0:0:0:0:
256,160,188789,1,8,0:0:0:0:
256,160,188921,1,0,0:0:0:0:
224,128,189187,1,0,0:0:0:0:
224,128,189320,1,8,0:0:0:0:
256,160,189452,1,0,0:0:0:0:
224,128,189519,1,0,0:0:0:0:
256,160,189585,1,8,0:0:0:0:
256,160,189718,1,8,0:0:0:0:
256,160,189851,1,0,0:0:0:0:
256,160,189983,1,12,0:0:0:0:
256,160,190249,1,0,0:0:0:0:
256,160,190381,1,8,0:0:0:0:
256,160,190514,1,0,0:0:0:0:
224,128,190581,1,0,0:0:0:0:
256,160,190647,1,8,0:0:0:0:
256,160,190780,1,0,0:0:0:0:
256,160,190912,1,8,0:0:0:0:
256,160,191045,1,0,0:0:0:0:
224,128,191178,1,0,0:0:0:0:
224,128,191311,1,8,0:0:0:0:
256,160,191576,1,8,0:0:0:0:
256,160,191709,1,0,0:0:0:0:
256,160,191842,1,0,0:0:0:0:
256,160,191974,1,8,0:0:0:0:
256,160,192107,1,4,0:0:0:0:
256,128,192373,1,0,0:0:0:0:
256,128,192505,1,8,0:0:0:0:
256,128,192638,1,8,0:0:0:0:
256,128,192771,1,0,0:0:0:0:
256,128,192904,1,0,0:0:0:0:
256,128,193036,1,8,0:0:0:0:
256,128,193302,1,8,0:0:0:0:
256,128,193435,1,0,0:0:0:0:
256,128,193567,1,8,0:0:0:0:
256,128,193634,1,8,0:0:0:0:
256,128,193700,1,0,0:0:0:0:
256,128,193833,1,8,0:0:0:0:
256,128,193966,1,0,0:0:0:0:
256,128,194098,1,8,0:0:0:0:
256,128,194364,1,12,0:0:0:0:
256,128,194497,1,0,0:0:0:0:
256,128,194629,1,0,0:0:0:0:
256,128,194762,1,12,0:0:0:0:
256,128,195028,1,0,0:0:0:0:
256,128,195160,1,12,0:0:0:0:
256,128,195293,1,0,0:0:0:0:
256,128,195426,1,0,0:0:0:0:
256,128,195558,1,12,0:0:0:0:
256,128,195691,1,0,0:0:0:0:
256,128,195824,1,0,0:0:0:0:
256,128,195957,1,12,0:0:0:0:
256,128,196222,1,12,0:0:0:0:
256,128,196488,1,4,0:0:0:0:
256,160,196753,1,8,0:0:0:0:
256,160,196886,1,0,0:0:0:0:
256,160,197151,1,0,0:0:0:0:
256,160,197284,1,8,0:0:0:0:
256,160,197417,1,0,0:0:0:0:
256,160,197550,1,8,0:0:0:0:
256,160,197682,1,0,0:0:0:0:
256,192,197749,1,0,0:0:0:0:
256,160,197815,1,8,0:0:0:0:
256,160,197948,1,0,0:0:0:0:
256,160,198081,1,8,0:0:0:0:
256,160,198213,1,8,0:0:0:0:
256,160,198346,1,0,0:0:0:0:
256,160,198479,1,12,0:0:0:0:
256,160,198744,1,0,0:0:0:0:
256,160,198877,1,8,0:0:0:0:
256,128,199143,1,8,0:0:0:0:
256,160,199275,1,0,0:0:0:0:
256,160,199408,1,8,0:0:0:0:
256,160,199541,1,0,0:0:0:0:
256,160,199674,1,8,0:0:0:0:
256,160,199806,1,8,0:0:0:0:
256,192,199873,1,8,0:0:0:0:
256,160,199939,1,0,0:0:0:0:
256,160,200072,1,0,0:0:0:0:
256,160,200204,1,8,0:0:0:0:
224,160,200337,1,0,0:0:0:0:
224,160,200470,1,8,0:0:0:0:
254,152,200603,1,4,0:0:0:0:
224,160,201001,1,8,0:0:0:0:
224,160,201134,1,0,0:0:0:0:
224,160,201266,1,8,0:0:0:0:
224,160,201532,1,8,0:0:0:0:
224,160,201665,1,0,0:0:0:0:
224,160,201930,1,0,0:0:0:0:
224,160,202063,1,8,0:0:0:0:
224,160,202196,1,0,0:0:0:0:
224,160,202328,1,8,0:0:0:0:
224,160,202594,1,8,0:0:0:0:
224,160,202727,1,8,0:0:0:0:
224,160,202859,1,4,0:0:0:0:
224,160,203125,1,8,0:0:0:0:
224,160,203258,1,0,0:0:0:0:
224,160,203390,1,8,0:0:0:0:
224,160,203656,1,8,0:0:0:0:
224,160,203789,1,0,0:0:0:0:
224,160,204054,1,8,0:0:0:0:
224,160,204187,1,0,0:0:0:0:
224,64,204320,1,0,0:0:0:0:
224,160,204452,1,8,0:0:0:0:
224,160,204718,1,8,0:0:0:0:
224,160,204851,1,4,0:0:0:0:
224,160,205116,1,0,0:0:0:0:
224,160,205249,1,8,0:0:0:0:
256,192,205315,1,8,0:0:0:0:
224,160,205381,1,0,0:0:0:0:
224,160,205514,1,8,0:0:0:0:
224,160,205780,1,8,0:0:0:0:
224,160,205912,1,0,0:0:0:0:
256,192,205979,1,0,0:0:0:0:
224,160,206045,1,8,0:0:0:0:
224,160,206178,1,0,0:0:0:0:
224,160,206311,1,8,0:0:0:0:
256,192,206377,1,8,0:0:0:0:
224,160,206443,1,0,0:0:0:0:
192,96,206576,1,8,0:0:0:0:
224,160,206709,1,8,0:0:0:0:
224,160,206842,1,0,0:0:0:0:
224,160,206974,1,12,0:0:0:0:
224,160,207240,1,0,0:0:0:0:
224,160,207373,1,8,0:0:0:0:
192,64,207505,1,0,0:0:0:0:
256,192,207572,1,0,0:0:0:0:
224,160,207638,1,8,0:0:0:0:
256,192,207771,1,0,0:0:0:0:
224,160,207904,1,8,0:0:0:0:
224,160,208036,1,8,0:0:0:0:
224,160,208169,1,0,0:0:0:0:
288,192,208302,1,0,0:0:0:0:
224,128,208435,1,8,0:0:0:0:
224,160,208567,1,0,0:0:0:0:
224,128,208634,1,0,0:0:0:0:
224,160,208700,1,0,0:0:0:0:
224,160,208833,1,8,0:0:0:0:
224,128,208966,1,8,0:0:0:0:
256,160,209032,1,8,0:0:0:0:
256,160,209098,1,0,0:0:0:0:
224,160,209231,1,12,0:0:0:0:
224,160,209497,1,0,0:0:0:0:
224,128,209629,1,12,0:0:0:0:
224,128,209895,1,8,0:0:0:0:
224,128,210028,1,4,0:0:0:0:
224,160,210293,1,0,0:0:0:0:
224,160,210426,1,12,0:0:0:0:
224,128,210691,1,0,0:0:0:0:
224,128,210824,1,12,0:0:0:0:
224,128,211089,1,12,0:0:0:0:
224,128,211355,1,8,0:0:0:0:
256,192,211488,1,8,0:0:0:0:
224,128,211620,1,0,0:0:0:0:
224,128,211753,1,8,0:0:0:0:
256,192,211820,1,8,0:0:0:0:
224,128,211886,1,0,0:0:0:0:
224,128,212019,1,0,0:0:0:0:
224,96,212151,1,8,0:0:0:0:
256,192,212284,1,8,0:0:0:0:
224,96,212417,1,0,0:0:0:0:
256,160,212550,1,8,0:0:0:0:
256,160,212616,1,8,0:0:0:0:
224,96,212682,1,8,0:0:0:0:
224,128,212815,1,0,0:0:0:0:
224,128,212948,1,8,0:0:0:0:
256,192,213081,1,8,0:0:0:0:
224,128,213213,1,4,0:0:0:0:
224,128,213346,1,4,0:0:0:0:
256,160,214541,1,12,0:0:0:0:
256,128,214806,1,0,0:0:0:0:
256,128,215337,1,0,0:0:0:0:
256,128,215868,1,0,0:0:0:0:
256,128,216399,1,0,0:0:0:0:
256,128,216930,1,0,0:0:0:0:
256,128,217461,1,0,0:0:0:0:
256,128,217992,1,0,0:0:0:0:
256,128,218523,1,0,0:0:0:0:
288,128,218656,1,12,0:0:0:0:
256,128,219054,1,8,0:0:0:0:
256,128,219187,1,0,0:0:0:0:
256,128,219320,1,8,0:0:0:0:
256,96,219452,1,0,0:0:0:0:
256,96,219585,1,8,0:0:0:0:
256,128,219718,1,8,0:0:0:0:
256,128,219851,1,0,0:0:0:0:
256,192,219983,1,0,0:0:0:0:
256,128,220116,1,8,0:0:0:0:
256,128,220249,1,0,0:0:0:0:
256,128,220381,1,8,0:0:0:0:
256,192,220514,1,0,0:0:0:0:
256,128,220647,1,8,0:0:0:0:
256,192,220780,1,8,0:0:0:0:
256,128,220912,1,0,0:0:0:0:
256,128,221178,1,0,0:0:0:0:
256,128,221311,1,0,0:0:0:0:
224,128,221443,1,8,0:0:0:0:
256,128,221576,1,8,0:0:0:0:
256,128,221709,1,0,0:0:0:0:
256,128,221842,1,8,0:0:0:0:
256,160,221908,1,8,0:0:0:0:
256,128,221974,1,0,0:0:0:0:
256,128,222107,1,0,0:0:0:0:
256,128,222240,1,8,0:0:0:0:
256,128,222373,1,0,0:0:0:0:
256,128,222505,1,8,0:0:0:0:
224,96,222638,1,0,0:0:0:0:
256,128,222904,1,12,0:0:0:0:
256,192,223169,1,0,0:0:0:0:
256,160,223302,1,8,0:0:0:0:
224,128,223368,1,8,0:0:0:0:
256,160,223435,1,0,0:0:0:0:
256,160,223567,1,8,0:0:0:0:
256,160,223700,1,0,0:0:0:0:
256,160,223833,1,8,0:0:0:0:
256,160,223966,1,8,0:0:0:0:
224,128,224231,1,0,0:0:0:0:
224,128,224364,1,8,0:0:0:0:
256,160,224497,1,0,0:0:0:0:
224,128,224563,1,0,0:0:0:0:
256,160,224629,1,8,0:0:0:0:
256,160,224762,1,0,0:0:0:0:
256,160,224895,1,0,0:0:0:0:
256,160,225028,1,12,0:0:0:0:
256,160,225293,1,0,0:0:0:0:
256,160,225426,1,8,0:0:0:0:
256,160,225558,1,0,0:0:0:0:
224,128,225625,1,0,0:0:0:0:
256,160,225691,1,0,0:0:0:0:
256,160,225824,1,8,0:0:0:0:
256,160,225957,1,8,0:0:0:0:
256,160,226089,1,0,0:0:0:0:
256,160,226355,1,8,0:0:0:0:
224,128,226488,1,8,0:0:0:0:
256,160,226620,1,0,0:0:0:0:
224,128,226687,1,0,0:0:0:0:
256,160,226753,1,8,0:0:0:0:
256,160,226886,1,8,0:0:0:0:
256,160,227019,1,0,0:0:0:0:
256,160,227151,1,12,0:0:0:0:
256,128,227417,1,0,0:0:0:0:
256,128,227550,1,8,0:0:0:0:
256,128,227682,1,8,0:0:0:0:
256,128,227815,1,0,0:0:0:0:
256,128,227948,1,0,0:0:0:0:
256,128,228081,1,8,0:0:0:0:
256,128,228346,1,8,0:0:0:0:
256,128,228479,1,0,0:0:0:0:
256,128,228612,1,8,0:0:0:0:
256,128,228678,1,8,0:0:0:0:
256,128,228744,1,0,0:0:0:0:
256,128,228877,1,8,0:0:0:0:
256,128,229010,1,0,0:0:0:0:
256,128,229143,1,8,0:0:0:0:
256,128,229408,1,12,0:0:0:0:
256,128,229541,1,0,0:0:0:0:
256,128,229674,1,0,0:0:0:0:
256,128,229806,1,12,0:0:0:0:
256,128,230072,1,0,0:0:0:0:
256,128,230204,1,12,0:0:0:0:
256,128,230337,1,0,0:0:0:0:
256,128,230470,1,0,0:0:0:0:
256,128,230603,1,12,0:0:0:0:
256,128,230735,1,0,0:0:0:0:
256,128,230868,1,0,0:0:0:0:
256,128,231001,1,12,0:0:0:0:
256,128,231266,1,12,0:0:0:0:
256,128,231532,1,4,0:0:0:0:
256,128,231797,1,8,0:0:0:0:
256,128,231930,1,0,0:0:0:0:
256,160,232063,1,8,0:0:0:0:
256,160,232129,1,8,0:0:0:0:
256,128,232196,1,0,0:0:0:0:
256,128,232328,1,8,0:0:0:0:
256,128,232461,1,0,0:0:0:0:
256,128,232594,1,8,0:0:0:0:
256,128,232859,1,8,0:0:0:0:
256,128,232992,1,0,0:0:0:0:
256,128,233125,1,8,0:0:0:0:
256,128,233191,1,8,0:0:0:0:
256,128,233258,1,8,0:0:0:0:
256,128,233390,1,0,0:0:0:0:
256,128,233523,1,12,0:0:0:0:
256,128,233789,1,8,0:0:0:0:
256,128,233921,1,0,0:0:0:0:
224,128,233988,1,0,0:0:0:0:
256,128,234054,1,0,0:0:0:0:
256,192,234120,1,0,0:0:0:0:
256,128,234187,1,8,0:0:0:0:
224,128,234320,1,0,0:0:0:0:
224,128,234452,1,8,0:0:0:0:
224,128,234585,1,0,0:0:0:0:
224,160,234851,1,0,0:0:0:0:
224,128,234983,1,8,0:0:0:0:
224,128,235116,1,0,0:0:0:0:
224,160,235182,1,0,0:0:0:0:
224,128,235249,1,8,0:0:0:0:
224,128,235381,1,8,0:0:0:0:
224,128,235514,1,0,0:0:0:0:
224,128,235647,1,12,0:0:0:0:
224,128,235912,1,0,0:0:0:0:
224,128,236045,1,8,0:0:0:0:
224,128,236178,1,0,0:0:0:0:
224,160,236244,1,0,0:0:0:0:
243,144,236311,1,8,0:0:0:0:
243,144,236443,1,0,0:0:0:0:
243,144,236576,1,8,0:0:0:0:
243,144,236709,1,8,0:0:0:0:
243,144,236974,1,0,0:0:0:0:
243,144,237107,1,8,0:0:0:0:
224,96,237174,1,8,0:0:0:0:
224,128,237240,1,0,0:0:0:0:
224,96,237373,1,8,0:0:0:0:
243,144,237505,1,0,0:0:0:0:
243,144,237638,1,0,0:0:0:0:
243,144,237771,1,12,0:0:0:0:
224,128,238036,1,0,0:0:0:0:
224,128,238169,1,8,0:0:0:0:
224,128,238302,1,0,0:0:0:0:
256,96,238368,1,0,0:0:0:0:
224,128,238435,1,8,0:0:0:0:
224,128,238567,1,0,0:0:0:0:
224,128,238700,1,8,0:0:0:0:
256,96,238833,1,0,0:0:0:0:
256,192,238899,1,0,0:0:0:0:
256,192,238966,1,0,0:0:0:0:
224,128,239098,1,8,0:0:0:0:
256,160,239231,1,8,0:0:0:0:
256,160,239364,1,0,0:0:0:0:
256,128,239430,1,0,0:0:0:0:
256,160,239497,1,8,0:0:0:0:
256,128,239629,1,0,0:0:0:0:
256,128,239762,1,0,0:0:0:0:
256,160,239895,1,12,0:0:0:0:
256,160,240160,1,0,0:0:0:0:
256,160,240293,1,8,0:0:0:0:
224,128,240359,1,0,0:0:0:0:
256,160,240426,1,0,0:0:0:0:
256,160,240558,1,8,0:0:0:0:
256,160,240691,1,0,0:0:0:0:
256,160,240824,1,8,0:0:0:0:
256,160,240957,1,0,0:0:0:0:
224,128,241222,1,0,0:0:0:0:
224,128,241355,1,8,0:0:0:0:
256,160,241488,1,0,0:0:0:0:
224,128,241554,1,0,0:0:0:0:
256,160,241620,1,8,0:0:0:0:
256,160,241753,1,8,0:0:0:0:
256,160,241886,1,0,0:0:0:0:
256,160,242019,1,12,0:0:0:0:
256,160,242284,1,0,0:0:0:0:
256,160,242417,1,8,0:0:0:0:
256,160,242550,1,0,0:0:0:0:
224,128,242616,1,0,0:0:0:0:
256,160,242682,1,8,0:0:0:0:
256,160,242815,1,0,0:0:0:0:
256,160,242948,1,8,0:0:0:0:
256,160,243081,1,8,0:0:0:0:
224,128,243213,1,0,0:0:0:0:
224,128,243346,1,8,0:0:0:0:
256,160,243612,1,8,0:0:0:0:
256,160,243744,1,0,0:0:0:0:
256,160,243877,1,0,0:0:0:0:
256,160,244010,1,8,0:0:0:0:
256,160,244143,1,4,0:0:0:0:
256,128,244408,1,0,0:0:0:0:
256,128,244541,1,8,0:0:0:0:
256,128,244674,1,8,0:0:0:0:
256,128,244806,1,0,0:0:0:0:
256,128,244939,1,0,0:0:0:0:
256,128,245072,1,8,0:0:0:0:
256,128,245337,1,8,0:0:0:0:
256,128,245470,1,0,0:0:0:0:
256,128,245603,1,8,0:0:0:0:
256,128,245669,1,8,0:0:0:0:
256,128,245735,1,0,0:0:0:0:
256,128,245868,1,8,0:0:0:0:
256,128,246001,1,0,0:0:0:0:
256,128,246134,1,8,0:0:0:0:
256,128,246399,1,12,0:0:0:0:
256,128,246532,1,0,0:0:0:0:
256,128,246665,1,0,0:0:0:0:
256,128,246797,1,12,0:0:0:0:
256,128,247063,1,0,0:0:0:0:
256,128,247196,1,12,0:0:0:0:
256,128,247328,1,0,0:0:0:0:
256,128,247461,1,0,0:0:0:0:
256,128,247594,1,12,0:0:0:0:
256,128,247727,1,0,0:0:0:0:
256,128,247859,1,0,0:0:0:0:
256,128,247992,1,12,0:0:0:0:
256,128,248258,1,12,0:0:0:0:
256,128,248523,1,4,0:0:0:0:
256,96,248789,1,8,0:0:0:0:
256,96,248921,1,0,0:0:0:0:
256,96,249054,1,8,0:0:0:0:
256,96,249320,1,8,0:0:0:0:
256,96,249452,1,4,0:0:0:0:
256,128,249718,1,0,0:0:0:0:
256,128,249851,1,8,0:0:0:0:
256,96,249983,1,8,0:0:0:0:
256,128,250116,1,0,0:0:0:0:
256,128,250249,1,0,0:0:0:0:
256,128,250381,1,8,0:0:0:0:
256,128,250647,1,12,0:0:0:0:
256,128,250912,1,8,0:0:0:0:
256,128,251178,1,0,0:0:0:0:
256,128,251311,1,8,0:0:0:0:
256,128,251443,1,0,0:0:0:0:
256,128,251576,1,12,0:0:0:0:
256,128,251842,1,0,0:0:0:0:
256,128,251974,1,8,0:0:0:0:
256,128,252107,1,0,0:0:0:0:
256,128,252240,1,8,0:0:0:0:
256,128,252373,1,8,0:0:0:0:
256,128,252505,1,0,0:0:0:0:
256,128,252771,1,4,0:0:0:0:
256,96,253036,1,8,0:0:0:0:
256,96,253302,1,8,0:0:0:0:
256,96,253435,1,0,0:0:0:0:
256,96,253567,1,8,0:0:0:0:
256,96,253700,1,4,0:0:0:0:
256,128,253966,1,0,0:0:0:0:
256,128,254098,1,8,0:0:0:0:
256,96,254231,1,8,0:0:0:0:
256,128,254364,1,0,0:0:0:0:
256,128,254497,1,0,0:0:0:0:
256,128,254629,1,8,0:0:0:0:
256,128,254895,1,12,0:0:0:0:
256,128,255160,1,8,0:0:0:0:
256,128,255426,1,0,0:0:0:0:
256,128,255558,1,8,0:0:0:0:
256,128,255691,1,0,0:0:0:0:
256,128,255824,1,12,0:0:0:0:
256,128,256089,1,0,0:0:0:0:
256,128,256222,1,8,0:0:0:0:
256,128,256355,1,0,0:0:0:0:
256,128,256421,1,0,0:0:0:0:
256,128,256488,1,8,0:0:0:0:
256,128,256620,1,0,0:0:0:0:
256,128,256753,1,8,0:0:0:0:
256,128,256886,1,8,0:0:0:0:
256,128,257019,1,4,0:0:0:0:
256,96,257284,1,8,0:0:0:0:
256,96,257550,1,0,0:0:0:0:
256,96,257682,1,8,0:0:0:0:
256,96,257815,1,8,0:0:0:0:
256,96,257948,1,4,0:0:0:0:
256,128,258213,1,0,0:0:0:0:
256,128,258346,1,8,0:0:0:0:
256,96,258479,1,0,0:0:0:0:
256,128,258612,1,8,0:0:0:0:
256,128,258744,1,8,0:0:0:0:
256,128,258877,1,0,0:0:0:0:
256,128,259143,1,12,0:0:0:0:
256,128,259408,1,8,0:0:0:0:
256,128,259674,1,4,0:0:0:0:
256,128,259939,1,0,0:0:0:0:
256,128,260072,1,12,0:0:0:0:
256,128,260337,1,0,0:0:0:0:
256,128,260470,1,8,0:0:0:0:
256,128,260603,1,0,0:0:0:0:
256,128,260669,1,0,0:0:0:0:
256,128,260735,1,8,0:0:0:0:
256,128,260868,1,0,0:0:0:0:
256,128,261001,1,8,0:0:0:0:
256,128,261266,1,4,0:0:0:0:
256,96,261532,1,8,0:0:0:0:
256,96,261665,1,0,0:0:0:0:
256,96,261797,1,8,0:0:0:0:
256,96,261930,1,8,0:0:0:0:
256,96,262063,1,0,0:0:0:0:
256,96,262196,1,12,0:0:0:0:
256,96,263258,1,4,0:0:0:0:
256,128,263656,1,8,0:0:0:0:
256,128,263921,1,8,0:0:0:0:
256,128,264187,1,8,0:0:0:0:
256,128,264452,1,0,0:0:0:0:
224,128,264585,1,0,0:0:0:0:
256,128,264718,1,8,0:0:0:0:
256,128,264851,1,0,0:0:0:0:
256,192,265249,1,8,0:0:0:0:
256,192,265381,1,4,0:0:0:0:
256,192,265647,1,0,0:0:0:0:
256,192,265780,1,8,0:0:0:0:
256,192,266045,1,0,0:0:0:0:
256,192,266178,1,0,0:0:0:0:
256,192,266311,1,8,0:0:0:0:
256,192,266443,1,8,0:0:0:0:
256,192,266510,1,8,0:0:0:0:
256,192,266576,1,0,0:0:0:0:
256,192,266709,1,0,0:0:0:0:
256,192,266842,1,8,0:0:0:0:
256,192,267107,1,8,0:0:0:0:
256,192,267240,1,0,0:0:0:0:
256,192,267373,1,0,0:0:0:0:
256,192,267505,1,12,0:0:0:0:
256,192,267771,1,0,0:0:0:0:
256,192,267904,1,8,0:0:0:0:
256,192,268169,1,0,0:0:0:0:
256,192,268302,1,0,0:0:0:0:
256,192,268435,1,8,0:0:0:0:
256,192,268567,1,0,0:0:0:0:
256,192,268634,1,0,0:0:0:0:
256,192,268700,1,8,0:0:0:0:
256,192,268833,1,0,0:0:0:0:
256,192,268966,1,8,0:0:0:0:
256,192,269231,1,8,0:0:0:0:
256,192,269364,1,8,0:0:0:0:
256,192,269497,1,0,0:0:0:0:
256,192,269629,1,12,0:0:0:0:
256,192,269895,1,0,0:0:0:0:
256,192,270028,1,8,0:0:0:0:
256,192,270293,1,0,0:0:0:0:
256,192,270426,1,0,0:0:0:0:
256,192,270558,1,8,0:0:0:0:
256,192,270691,1,0,0:0:0:0:
256,192,270758,1,0,0:0:0:0:
256,192,270824,1,8,0:0:0:0:
256,192,270957,1,0,0:0:0:0:
256,192,271222,1,8,0:0:0:0:
256,192,271355,1,8,0:0:0:0:
256,192,271488,1,0,0:0:0:0:
256,192,271620,1,0,0:0:0:0:
256,192,271753,1,12,0:0:0:0:
256,192,272019,1,0,0:0:0:0:
256,192,272151,1,8,0:0:0:0:
256,192,272284,1,0,0:0:0:0:
256,192,272417,1,8,0:0:0:0:
256,192,272550,1,8,0:0:0:0:
256,192,272682,1,0,0:0:0:0:
256,192,272815,1,8,0:0:0:0:
256,192,273081,1,0,0:0:0:0:
256,192,273213,1,8,0:0:0:0:
256,192,273280,1,8,0:0:0:0:
256,192,273346,1,0,0:0:0:0:
256,192,273412,1,0,0:0:0:0:
256,192,273479,1,8,0:0:0:0:
256,192,273612,1,0,0:0:0:0:
256,192,273744,1,8,0:0:0:0:
256,192,273877,1,4,0:0:0:0:
256,192,274143,1,0,0:0:0:0:
256,192,274275,1,8,0:0:0:0:
256,192,274541,1,0,0:0:0:0:
256,192,274674,1,0,0:0:0:0:
256,192,274806,1,8,0:0:0:0:
256,192,274939,1,8,0:0:0:0:
256,192,275005,1,8,0:0:0:0:
256,192,275072,1,0,0:0:0:0:
256,192,275204,1,0,0:0:0:0:
256,192,275337,1,8,0:0:0:0:
256,192,275603,1,0,0:0:0:0:
256,192,275735,1,0,0:0:0:0:
256,192,275868,1,8,0:0:0:0:
256,192,276001,1,4,0:0:0:0:
256,192,276266,1,0,0:0:0:0:
256,192,276399,1,8,0:0:0:0:
256,192,276665,1,8,0:0:0:0:
256,192,276797,1,0,0:0:0:0:
256,192,276930,1,8,0:0:0:0:
256,192,277063,1,0,0:0:0:0:
256,192,277129,1,0,0:0:0:0:
256,192,277196,1,8,0:0:0:0:
256,192,277328,1,0,0:0:0:0:
256,192,277461,1,0,0:0:0:0:
256,192,277594,1,8,0:0:0:0:
256,192,277859,1,0,0:0:0:0:
256,192,277992,1,8,0:0:0:0:
256,192,278125,1,4,0:0:0:0:
256,192,278390,1,0,0:0:0:0:
256,192,278523,1,8,0:0:0:0:
256,192,278656,1,8,0:0:0:0:
256,192,278722,1,8,0:0:0:0:
256,192,278789,1,8,0:0:0:0:
256,192,278921,1,0,0:0:0:0:
256,192,279054,1,8,0:0:0:0:
256,192,279187,1,8,0:0:0:0:
256,192,279320,1,0,0:0:0:0:
256,192,279585,1,8,0:0:0:0:
256,192,279718,1,0,0:0:0:0:
256,192,279851,1,0,0:0:0:0:
256,192,279983,1,8,0:0:0:0:
256,192,280116,1,8,0:0:0:0:
256,192,280249,1,4,0:0:0:0:
256,192,280514,1,0,0:0:0:0:
256,192,280647,1,8,0:0:0:0:
256,192,280780,1,0,0:0:0:0:
256,192,280846,1,0,0:0:0:0:
256,192,280912,1,8,0:0:0:0:
256,192,281045,1,0,0:0:0:0:
256,192,281178,1,0,0:0:0:0:
256,192,281311,1,12,0:0:0:0:
256,192,281576,1,0,0:0:0:0:
256,192,281709,1,8,0:0:0:0:
256,192,281842,1,0,0:0:0:0:
256,192,281908,1,0,0:0:0:0:
256,192,281974,1,8,0:0:0:0:
256,192,282041,1,8,0:0:0:0:
256,192,282107,1,0,0:0:0:0:
256,192,282240,1,8,0:0:0:0:
256,192,282373,1,8,0:0:0:0:
256,192,282505,1,4,0:0:0:0:
256,160,282771,1,8,0:0:0:0:
256,160,283036,1,0,0:0:0:0:
256,160,283169,1,8,0:0:0:0:
256,160,283435,1,0,0:0:0:0:
256,160,283567,1,8,0:0:0:0:
256,160,283700,1,0,0:0:0:0:
256,160,283833,1,0,0:0:0:0:
256,160,283966,1,8,0:0:0:0:
224,96,284231,1,0,0:0:0:0:
256,160,284364,1,8,0:0:0:0:
256,160,284497,1,8,0:0:0:0:
256,160,284895,1,12,0:0:0:0:
256,192,285028,12,0,289939,0:0:0:0:
