osu file format v14

[General]
AudioFilename: audio.mp3
AudioLeadIn: 0
PreviewTime: 58984
Countdown: 0
SampleSet: Normal
StackLeniency: 0.7
Mode: 1
LetterboxInBreaks: 0
EpilepsyWarning: 1
WidescreenStoryboard: 1

[Editor]
Bookmarks: 23408,40400,48895,76506,107302,110488
DistanceSpacing: 1
BeatDivisor: 4
GridSize: 32
TimelineZoom: 1.6

[Metadata]
Title:Akari no Arika
TitleUnicode:アカリノアリカ
Artist:Kicco
ArtistUnicode:Kicco
Creator:[R]
Version:Oni
Source:縁りて此の葉は紅に
Tags:Yorite Konoha wa Kurenai ni lump of sugar yorikure よりくれ eroge visual novel ron ron's volta
BeatmapID:1497266
BeatmapSetID:707395

[Difficulty]
HPDrainRate:5
CircleSize:5
OverallDifficulty:5
ApproachRate:5
SliderMultiplier:1.4
SliderTickRate:1

[Events]
//Background and Video events
0,0,"BG.jpg",0,25
//Break Periods
//Storyboard Layer 0 (Background)
//Storyboard Layer 1 (Fail)
//Storyboard Layer 2 (Pass)
//Storyboard Layer 3 (Foreground)
//Storyboard Sound Samples

[TimingPoints]
1108,265.486725663717,4,1,0,100,1,0
23408,-100,4,1,0,90,0,0
40400,-100,4,1,0,100,0,0
59515,-100,4,1,0,100,0,1
93497,-100,4,1,0,90,0,0
110355,-100,4,1,0,100,0,0
122700,-100,4,1,0,90,0,0
123762,-100,4,1,0,80,0,0
124824,-100,4,1,0,70,0,0
125886,-100,4,1,0,60,0,0

[HitObjects]
256,192,1638,5,0,0:0:0:0:
256,192,1904,1,8,0:0:0:0:
256,192,2037,1,4,0:0:0:0:
256,192,2302,1,0,0:0:0:0:
256,192,2435,1,8,0:0:0:0:
256,192,2700,1,0,0:0:0:0:
256,192,2833,1,0,0:0:0:0:
256,192,2966,1,8,0:0:0:0:
256,192,3032,1,8,0:0:0:0:
256,192,3099,1,0,0:0:0:0:
256,192,3231,1,8,0:0:0:0:
256,192,3364,1,0,0:0:0:0:
256,192,3497,1,8,0:0:0:0:
256,192,3762,1,0,0:0:0:0:
256,192,4028,1,8,0:0:0:0:
256,192,4161,1,4,0:0:0:0:
256,192,4426,1,0,0:0:0:0:
256,192,4559,1,8,0:0:0:0:
256,192,4692,1,8,0:0:0:0:
256,192,4824,1,0,0:0:0:0:
256,192,5090,1,8,0:0:0:0:
256,192,5223,1,0,0:0:0:0:
256,192,5289,1,0,0:0:0:0:
256,192,5355,1,8,0:0:0:0:
256,192,5488,1,0,0:0:0:0:
256,192,5621,1,8,0:0:0:0:
256,192,5886,1,0,0:0:0:0:
256,192,6152,1,8,0:0:0:0:
256,192,6284,1,4,0:0:0:0:
256,192,6550,1,0,0:0:0:0:
256,192,6683,1,8,0:0:0:0:
256,192,6948,1,0,0:0:0:0:
256,192,7081,1,0,0:0:0:0:
256,192,7214,1,8,0:0:0:0:
256,192,7280,1,8,0:0:0:0:
256,192,7346,1,0,0:0:0:0:
256,192,7479,1,8,0:0:0:0:
256,192,7612,1,0,0:0:0:0:
256,192,7678,1,0,0:0:0:0:
256,192,7745,1,8,0:0:0:0:
256,192,7877,1,0,0:0:0:0:
256,192,8010,1,0,0:0:0:0:
256,192,8143,1,8,0:0:0:0:
256,192,8408,1,4,0:0:0:0:
256,192,8674,1,0,0:0:0:0:
256,192,8807,1,8,0:0:0:0:
256,192,9072,1,8,0:0:0:0:
256,192,9205,1,0,0:0:0:0:
256,192,9338,1,0,0:0:0:0:
256,192,9470,1,8,0:0:0:0:
256,192,9736,1,8,0:0:0:0:
256,192,9869,1,8,0:0:0:0:
256,192,10134,1,0,0:0:0:0:
256,192,10267,1,8,0:0:0:0:
256,192,10400,1,8,0:0:0:0:
256,192,10533,1,4,0:0:0:0:
256,192,10798,1,0,0:0:0:0:
256,192,10931,1,8,0:0:0:0:
256,192,11063,1,0,0:0:0:0:
256,192,11196,1,0,0:0:0:0:
256,192,11329,1,8,0:0:0:0:
256,192,11594,1,8,0:0:0:0:
256,192,11727,1,0,0:0:0:0:
256,192,11860,1,0,0:0:0:0:
256,192,11993,1,8,0:0:0:0:
256,192,12059,1,8,0:0:0:0:
256,192,12125,1,0,0:0:0:0:
256,192,12258,1,8,0:0:0:0:
256,192,12523,1,8,0:0:0:0:
256,192,12657,1,4,0:0:0:0:
256,192,12922,1,0,0:0:0:0:
256,192,13055,1,8,0:0:0:0:
256,192,13320,1,0,0:0:0:0:
256,192,13453,1,8,0:0:0:0:
256,192,13586,1,0,0:0:0:0:
256,192,13718,1,0,0:0:0:0:
256,192,13784,1,0,0:0:0:0:
256,192,13851,1,0,0:0:0:0:
256,192,13984,1,8,0:0:0:0:
256,192,14116,1,0,0:0:0:0:
256,192,14249,1,8,0:0:0:0:
256,192,14515,1,8,0:0:0:0:
256,192,14647,1,8,0:0:0:0:
256,192,14780,1,4,0:0:0:0:
256,192,15046,1,0,0:0:0:0:
256,192,15179,1,8,0:0:0:0:
256,192,15311,1,0,0:0:0:0:
256,192,15444,1,0,0:0:0:0:
256,192,15577,1,8,0:0:0:0:
256,192,15643,1,8,0:0:0:0:
256,192,15710,1,0,0:0:0:0:
256,192,15842,1,0,0:0:0:0:
256,192,15975,1,8,0:0:0:0:
256,192,16108,1,0,0:0:0:0:
256,192,16174,1,0,0:0:0:0:
256,192,16241,1,8,0:0:0:0:
256,192,16373,1,8,0:0:0:0:
256,192,16506,1,0,0:0:0:0:
256,192,16638,1,8,0:0:0:0:
256,192,16904,1,4,0:0:0:0:
256,192,17037,1,8,0:0:0:0:
256,192,17170,1,0,0:0:0:0:
256,192,17303,1,8,0:0:0:0:
256,192,17435,1,0,0:0:0:0:
256,192,17501,1,0,0:0:0:0:
256,192,17568,1,0,0:0:0:0:
256,192,17701,1,8,0:0:0:0:
256,192,17833,1,8,0:0:0:0:
256,192,17966,1,4,0:0:0:0:
256,192,18231,1,0,0:0:0:0:
256,192,18364,1,8,0:0:0:0:
256,192,18497,1,0,0:0:0:0:
256,192,18630,1,8,0:0:0:0:
256,192,18763,1,8,0:0:0:0:
256,192,18829,1,8,0:0:0:0:
256,192,18896,1,0,0:0:0:0:
256,192,19029,1,8,0:0:0:0:
256,192,19161,1,0,0:0:0:0:
256,192,19293,1,0,0:0:0:0:
256,192,19426,1,8,0:0:0:0:
256,192,19692,1,0,0:0:0:0:
256,192,19824,1,8,0:0:0:0:
256,192,19957,1,0,0:0:0:0:
256,192,20090,1,0,0:0:0:0:
256,192,20223,1,8,0:0:0:0:
256,192,20488,1,0,0:0:0:0:
256,192,20621,1,8,0:0:0:0:
256,192,20754,1,0,0:0:0:0:
256,192,20886,1,0,0:0:0:0:
256,192,21019,1,8,0:0:0:0:
256,192,21152,1,8,0:0:0:0:
256,192,21284,1,0,0:0:0:0:
256,192,21550,1,8,0:0:0:0:
256,192,21683,1,0,0:0:0:0:
256,192,21815,1,8,0:0:0:0:
256,192,21948,1,8,0:0:0:0:
256,192,22081,1,0,0:0:0:0:
256,192,22346,1,4,0:0:0:0:
256,192,22479,1,4,0:0:0:0:
256,192,22612,1,4,0:0:0:0:
256,192,22745,1,12,0:0:0:0:
256,192,23408,1,4,0:0:0:0:
256,192,23674,1,8,0:0:0:0:
256,192,23939,1,0,0:0:0:0:
256,192,24072,1,0,0:0:0:0:
256,192,24205,1,8,0:0:0:0:
256,192,24338,1,0,0:0:0:0:
256,192,24603,1,0,0:0:0:0:
256,192,24736,1,8,0:0:0:0:
256,192,25001,1,0,0:0:0:0:
256,192,25134,1,0,0:0:0:0:
256,192,25267,1,8,0:0:0:0:
256,192,25400,1,8,0:0:0:0:
256,192,25466,1,8,0:0:0:0:
256,192,25532,1,0,0:0:0:0:
256,192,25665,1,0,0:0:0:0:
256,192,25798,1,8,0:0:0:0:
256,192,26063,1,0,0:0:0:0:
256,192,26196,1,0,0:0:0:0:
256,192,26329,1,8,0:0:0:0:
256,192,26461,1,8,0:0:0:0:
256,192,26594,1,0,0:0:0:0:
256,192,26860,1,8,0:0:0:0:
256,192,27125,1,0,0:0:0:0:
256,192,27258,1,0,0:0:0:0:
256,192,27324,1,0,0:0:0:0:
256,192,27391,1,8,0:0:0:0:
256,192,27523,1,8,0:0:0:0:
256,192,27656,1,0,0:0:0:0:
256,192,27922,1,8,0:0:0:0:
256,192,28187,1,0,0:0:0:0:
256,192,28320,1,8,0:0:0:0:
256,192,28453,1,8,0:0:0:0:
256,192,28585,1,0,0:0:0:0:
256,192,28851,1,0,0:0:0:0:
256,192,28984,1,8,0:0:0:0:
256,192,29249,1,0,0:0:0:0:
256,192,29382,1,0,0:0:0:0:
256,192,29515,1,8,0:0:0:0:
256,192,29647,1,8,0:0:0:0:
256,192,29714,1,8,0:0:0:0:
256,192,29780,1,0,0:0:0:0:
256,192,29913,1,0,0:0:0:0:
256,192,30046,1,8,0:0:0:0:
256,192,30311,1,0,0:0:0:0:
256,192,30577,1,8,0:0:0:0:
256,192,30709,1,8,0:0:0:0:
256,192,30842,1,0,0:0:0:0:
256,192,30975,1,0,0:0:0:0:
256,192,31108,1,8,0:0:0:0:
256,192,31373,1,0,0:0:0:0:
256,192,31506,1,0,0:0:0:0:
256,192,31639,1,8,0:0:0:0:
256,192,31771,1,8,0:0:0:0:
256,192,31904,1,4,0:0:0:0:
256,192,32169,1,8,0:0:0:0:
256,192,32434,1,0,0:0:0:0:
256,192,32567,1,0,0:0:0:0:
256,192,32700,1,8,0:0:0:0:
256,192,32833,1,0,0:0:0:0:
256,192,33098,1,0,0:0:0:0:
256,192,33231,1,8,0:0:0:0:
256,192,33496,1,0,0:0:0:0:
256,192,33629,1,0,0:0:0:0:
256,192,33762,1,8,0:0:0:0:
256,192,33895,1,8,0:0:0:0:
256,192,33961,1,8,0:0:0:0:
256,192,34027,1,0,0:0:0:0:
256,192,34160,1,0,0:0:0:0:
256,192,34293,1,8,0:0:0:0:
256,192,34558,1,0,0:0:0:0:
256,192,34691,1,0,0:0:0:0:
256,192,34824,1,8,0:0:0:0:
256,192,34956,1,8,0:0:0:0:
256,192,35089,1,0,0:0:0:0:
256,192,35355,1,8,0:0:0:0:
256,192,35620,1,0,0:0:0:0:
256,192,35753,1,0,0:0:0:0:
256,192,35820,1,0,0:0:0:0:
256,192,35886,1,8,0:0:0:0:
256,192,36018,1,8,0:0:0:0:
256,192,36151,1,0,0:0:0:0:
256,192,36417,1,8,0:0:0:0:
256,192,36682,1,0,0:0:0:0:
256,192,36815,1,8,0:0:0:0:
256,192,36948,1,8,0:0:0:0:
256,192,37080,1,0,0:0:0:0:
256,192,37346,1,0,0:0:0:0:
256,192,37479,1,8,0:0:0:0:
256,192,37745,1,0,0:0:0:0:
256,192,37877,1,0,0:0:0:0:
256,192,38010,1,8,0:0:0:0:
256,192,38142,1,8,0:0:0:0:
256,192,38209,1,8,0:0:0:0:
256,192,38275,1,0,0:0:0:0:
256,192,38541,1,8,0:0:0:0:
256,192,38807,1,0,0:0:0:0:
256,192,38939,1,0,0:0:0:0:
256,192,39073,1,8,0:0:0:0:
256,192,39205,1,8,0:0:0:0:
256,192,39338,1,0,0:0:0:0:
256,192,39604,1,8,0:0:0:0:
256,192,39869,1,8,0:0:0:0:
256,192,40002,1,0,0:0:0:0:
256,192,40135,1,8,0:0:0:0:
256,192,40267,1,8,0:0:0:0:
256,192,40400,1,4,0:0:0:0:
256,192,40666,1,8,0:0:0:0:
256,192,40798,1,0,0:0:0:0:
256,192,40864,1,0,0:0:0:0:
256,192,40931,1,8,0:0:0:0:
256,192,41063,1,0,0:0:0:0:
256,192,41197,1,0,0:0:0:0:
256,192,41329,1,8,0:0:0:0:
256,192,41594,1,0,0:0:0:0:
256,192,41727,1,8,0:0:0:0:
256,192,41860,1,0,0:0:0:0:
256,192,41992,1,8,0:0:0:0:
256,192,42125,1,8,0:0:0:0:
256,192,42258,1,0,0:0:0:0:
256,192,42523,1,8,0:0:0:0:
256,192,42656,1,0,0:0:0:0:
256,192,42723,1,0,0:0:0:0:
256,192,42789,1,8,0:0:0:0:
256,192,42922,1,0,0:0:0:0:
256,192,43187,1,8,0:0:0:0:
256,192,43320,1,0,0:0:0:0:
256,192,43453,1,8,0:0:0:0:
256,192,43585,1,0,0:0:0:0:
256,192,43718,1,0,0:0:0:0:
256,192,43851,1,8,0:0:0:0:
256,192,44116,1,8,0:0:0:0:
256,192,44249,1,0,0:0:0:0:
256,192,44382,1,8,0:0:0:0:
256,192,44448,1,8,0:0:0:0:
256,192,44515,1,8,0:0:0:0:
256,192,44647,1,0,0:0:0:0:
256,192,44913,1,8,0:0:0:0:
256,192,45045,1,0,0:0:0:0:
256,192,45111,1,0,0:0:0:0:
256,192,45178,1,8,0:0:0:0:
256,192,45310,1,0,0:0:0:0:
256,192,45444,1,8,0:0:0:0:
256,192,45576,1,0,0:0:0:0:
256,192,45841,1,8,0:0:0:0:
256,192,45974,1,0,0:0:0:0:
256,192,46107,1,0,0:0:0:0:
256,192,46240,1,8,0:0:0:0:
256,192,46372,1,0,0:0:0:0:
256,192,46505,1,8,0:0:0:0:
256,192,46770,1,8,0:0:0:0:
256,192,46903,1,0,0:0:0:0:
256,192,46970,1,0,0:0:0:0:
256,192,47036,1,8,0:0:0:0:
256,192,47169,1,0,0:0:0:0:
256,192,47434,1,8,0:0:0:0:
256,192,47567,1,0,0:0:0:0:
256,192,47700,1,0,0:0:0:0:
256,192,47833,1,8,0:0:0:0:
256,192,47965,1,0,0:0:0:0:
256,192,48098,1,8,0:0:0:0:
256,192,48363,1,8,0:0:0:0:
256,192,48496,1,0,0:0:0:0:
256,192,48562,1,0,0:0:0:0:
256,192,48629,1,8,0:0:0:0:
256,192,48762,1,8,0:0:0:0:
256,192,48895,1,0,0:0:0:0:
256,192,49161,1,8,0:0:0:0:
256,192,49293,1,0,0:0:0:0:
256,192,49692,1,8,0:0:0:0:
256,192,50223,1,8,0:0:0:0:
256,192,50488,1,0,0:0:0:0:
256,192,50754,1,8,0:0:0:0:
256,192,51019,1,0,0:0:0:0:
256,192,51152,1,0,0:0:0:0:
256,192,51285,1,8,0:0:0:0:
256,192,51417,1,0,0:0:0:0:
256,192,51815,1,8,0:0:0:0:
256,192,52346,1,8,0:0:0:0:
256,192,52612,1,0,0:0:0:0:
256,192,52877,1,8,0:0:0:0:
256,192,53010,1,8,0:0:0:0:
256,192,53143,1,0,0:0:0:0:
256,192,53408,1,8,0:0:0:0:
256,192,53541,1,0,0:0:0:0:
256,192,53939,1,8,0:0:0:0:
256,192,54470,1,8,0:0:0:0:
256,192,54736,1,0,0:0:0:0:
256,192,55001,1,8,0:0:0:0:
256,192,55267,1,0,0:0:0:0:
256,192,55400,1,8,0:0:0:0:
256,192,55532,1,0,0:0:0:0:
256,192,55599,1,0,0:0:0:0:
256,192,55665,1,8,0:0:0:0:
256,192,55798,1,0,0:0:0:0:
256,192,55931,1,0,0:0:0:0:
256,192,56063,1,8,0:0:0:0:
256,192,56329,1,0,0:0:0:0:
256,192,56461,1,8,0:0:0:0:
256,192,56528,1,8,0:0:0:0:
256,192,56594,1,0,0:0:0:0:
256,192,56727,1,0,0:0:0:0:
256,192,56860,1,8,0:0:0:0:
256,192,56992,1,8,0:0:0:0:
256,192,57125,1,0,0:0:0:0:
256,192,57391,1,8,0:0:0:0:
256,192,57523,1,0,0:0:0:0:
256,192,57590,1,0,0:0:0:0:
256,192,57656,1,0,0:0:0:0:
256,192,57789,1,8,0:0:0:0:
256,192,57922,1,0,0:0:0:0:
256,192,57988,1,0,0:0:0:0:
256,192,58054,1,0,0:0:0:0:
256,192,58187,1,8,0:0:0:0:
256,192,58320,1,0,0:0:0:0:
256,192,58386,1,8,0:0:0:0:
256,192,58453,1,0,0:0:0:0:
256,192,58585,1,8,0:0:0:0:
256,192,58718,1,0,0:0:0:0:
256,192,58784,1,8,0:0:0:0:
256,192,58851,1,0,0:0:0:0:
256,192,58984,1,8,0:0:0:0:
256,192,59515,1,4,0:0:0:0:
256,192,59647,1,8,0:0:0:0:
256,192,59913,1,0,0:0:0:0:
256,192,60046,1,8,0:0:0:0:
256,192,60178,1,0,0:0:0:0:
256,192,60245,1,0,0:0:0:0:
256,192,60311,1,8,0:0:0:0:
256,192,60444,1,8,0:0:0:0:
256,192,60577,1,0,0:0:0:0:
256,192,60842,1,8,0:0:0:0:
256,192,61108,1,0,0:0:0:0:
256,192,61240,1,8,0:0:0:0:
256,192,61373,1,8,0:0:0:0:
256,192,61506,1,0,0:0:0:0:
256,192,61771,1,0,0:0:0:0:
256,192,61904,1,8,0:0:0:0:
256,192,62037,1,0,0:0:0:0:
256,192,62169,1,8,0:0:0:0:
256,192,62236,1,8,0:0:0:0:
256,192,62302,1,0,0:0:0:0:
256,192,62435,1,8,0:0:0:0:
256,192,62568,1,8,0:0:0:0:
256,192,62700,1,0,0:0:0:0:
256,192,62966,1,8,0:0:0:0:
256,192,63231,1,0,0:0:0:0:
256,192,63364,1,8,0:0:0:0:
256,192,63497,1,8,0:0:0:0:
256,192,63630,1,0,0:0:0:0:
256,192,63895,1,0,0:0:0:0:
256,192,64028,1,8,0:0:0:0:
256,192,64293,1,8,0:0:0:0:
256,192,64426,1,0,0:0:0:0:
256,192,64559,1,8,0:0:0:0:
256,192,64692,1,8,0:0:0:0:
256,192,64758,1,8,0:0:0:0:
256,192,64824,1,0,0:0:0:0:
256,192,64957,1,0,0:0:0:0:
256,192,65090,1,8,0:0:0:0:
256,192,65355,1,8,0:0:0:0:
256,192,65488,1,0,0:0:0:0:
256,192,65621,1,0,0:0:0:0:
256,192,65754,1,8,0:0:0:0:
256,192,66019,1,0,0:0:0:0:
256,192,66152,1,8,0:0:0:0:
256,192,66417,1,8,0:0:0:0:
256,192,66550,1,0,0:0:0:0:
256,192,66616,1,0,0:0:0:0:
256,192,66683,1,8,0:0:0:0:
256,192,66815,1,8,0:0:0:0:
256,192,66948,1,0,0:0:0:0:
256,192,67015,1,0,0:0:0:0:
256,192,67081,1,0,0:0:0:0:
256,192,67214,1,8,0:0:0:0:
256,192,67479,1,0,0:0:0:0:
256,192,67612,1,8,0:0:0:0:
256,192,67745,1,8,0:0:0:0:
256,192,67877,1,0,0:0:0:0:
256,192,68143,1,0,0:0:0:0:
256,192,68275,1,8,0:0:0:0:
256,192,68408,1,0,0:0:0:0:
256,192,68541,1,8,0:0:0:0:
256,192,68608,1,8,0:0:0:0:
256,192,68674,1,0,0:0:0:0:
256,192,68807,1,0,0:0:0:0:
256,192,68939,1,8,0:0:0:0:
256,192,69205,1,0,0:0:0:0:
256,192,69337,1,8,0:0:0:0:
256,192,69603,1,0,0:0:0:0:
256,192,69736,1,8,0:0:0:0:
256,192,69868,1,8,0:0:0:0:
256,192,70001,1,0,0:0:0:0:
256,192,70266,1,0,0:0:0:0:
256,192,70399,1,8,0:0:0:0:
256,192,70664,1,0,0:0:0:0:
256,192,70797,1,8,0:0:0:0:
256,192,70930,1,8,0:0:0:0:
256,192,71063,1,0,0:0:0:0:
256,192,71130,1,0,0:0:0:0:
256,192,71196,1,0,0:0:0:0:
256,192,71329,1,0,0:0:0:0:
256,192,71461,1,8,0:0:0:0:
256,192,71726,1,8,0:0:0:0:
256,192,71859,1,0,0:0:0:0:
256,192,71926,1,0,0:0:0:0:
256,192,71992,1,8,0:0:0:0:
256,192,72125,1,0,0:0:0:0:
256,192,72390,1,0,0:0:0:0:
256,192,72523,1,8,0:0:0:0:
256,192,72656,1,0,0:0:0:0:
256,192,72788,1,0,0:0:0:0:
256,192,72855,1,0,0:0:0:0:
256,192,72921,1,0,0:0:0:0:
256,192,73054,1,8,0:0:0:0:
256,192,73187,1,8,0:0:0:0:
256,192,73320,1,0,0:0:0:0:
256,192,73452,1,0,0:0:0:0:
256,192,73585,1,8,0:0:0:0:
256,192,73850,1,8,0:0:0:0:
256,192,73984,1,0,0:0:0:0:
256,192,74116,1,8,0:0:0:0:
256,192,74382,1,8,0:0:0:0:
256,192,74514,1,0,0:0:0:0:
256,192,74647,1,0,0:0:0:0:
256,192,74780,1,8,0:0:0:0:
256,192,75045,1,8,0:0:0:0:
256,192,75178,1,0,0:0:0:0:
256,192,75311,1,8,0:0:0:0:
256,192,75377,1,8,0:0:0:0:
256,192,75444,1,0,0:0:0:0:
256,192,75576,1,8,0:0:0:0:
256,192,75709,1,0,0:0:0:0:
256,192,75842,1,0,0:0:0:0:
256,192,75975,1,8,0:0:0:0:
256,192,76240,1,8,0:0:0:0:
256,192,76506,1,4,0:0:0:0:
256,192,76638,1,8,0:0:0:0:
256,192,76904,1,0,0:0:0:0:
256,192,77037,1,8,0:0:0:0:
256,192,77169,1,0,0:0:0:0:
256,192,77236,1,0,0:0:0:0:
256,192,77302,1,8,0:0:0:0:
256,192,77435,1,8,0:0:0:0:
256,192,77568,1,0,0:0:0:0:
256,192,77833,1,8,0:0:0:0:
256,192,78099,1,0,0:0:0:0:
256,192,78231,1,8,0:0:0:0:
256,192,78364,1,8,0:0:0:0:
256,192,78497,1,0,0:0:0:0:
256,192,78762,1,0,0:0:0:0:
256,192,78895,1,8,0:0:0:0:
256,192,79028,1,0,0:0:0:0:
256,192,79160,1,8,0:0:0:0:
256,192,79227,1,8,0:0:0:0:
256,192,79293,1,0,0:0:0:0:
256,192,79426,1,8,0:0:0:0:
256,192,79559,1,8,0:0:0:0:
256,192,79691,1,0,0:0:0:0:
256,192,79957,1,8,0:0:0:0:
256,192,80222,1,0,0:0:0:0:
256,192,80355,1,8,0:0:0:0:
256,192,80488,1,8,0:0:0:0:
256,192,80621,1,0,0:0:0:0:
256,192,80886,1,0,0:0:0:0:
256,192,81019,1,8,0:0:0:0:
256,192,81284,1,8,0:0:0:0:
256,192,81417,1,0,0:0:0:0:
256,192,81550,1,8,0:0:0:0:
256,192,81683,1,8,0:0:0:0:
256,192,81749,1,8,0:0:0:0:
256,192,81815,1,0,0:0:0:0:
256,192,81948,1,0,0:0:0:0:
256,192,82081,1,8,0:0:0:0:
256,192,82346,1,8,0:0:0:0:
256,192,82479,1,0,0:0:0:0:
256,192,82612,1,0,0:0:0:0:
256,192,82745,1,8,0:0:0:0:
256,192,83010,1,0,0:0:0:0:
256,192,83143,1,8,0:0:0:0:
256,192,83408,1,8,0:0:0:0:
256,192,83541,1,0,0:0:0:0:
256,192,83607,1,0,0:0:0:0:
256,192,83674,1,8,0:0:0:0:
256,192,83806,1,8,0:0:0:0:
256,192,83939,1,0,0:0:0:0:
256,192,84006,1,0,0:0:0:0:
256,192,84072,1,0,0:0:0:0:
256,192,84205,1,8,0:0:0:0:
256,192,84470,1,0,0:0:0:0:
256,192,84603,1,8,0:0:0:0:
256,192,84736,1,8,0:0:0:0:
256,192,84868,1,0,0:0:0:0:
256,192,85134,1,0,0:0:0:0:
256,192,85266,1,8,0:0:0:0:
256,192,85399,1,0,0:0:0:0:
256,192,85532,1,8,0:0:0:0:
256,192,85599,1,8,0:0:0:0:
256,192,85665,1,0,0:0:0:0:
256,192,85798,1,0,0:0:0:0:
256,192,85930,1,8,0:0:0:0:
256,192,86196,1,0,0:0:0:0:
256,192,86328,1,8,0:0:0:0:
256,192,86594,1,0,0:0:0:0:
256,192,86727,1,8,0:0:0:0:
256,192,86859,1,8,0:0:0:0:
256,192,86992,1,0,0:0:0:0:
256,192,87257,1,0,0:0:0:0:
256,192,87390,1,8,0:0:0:0:
256,192,87655,1,0,0:0:0:0:
256,192,87788,1,8,0:0:0:0:
256,192,87921,1,8,0:0:0:0:
256,192,88054,1,0,0:0:0:0:
256,192,88121,1,0,0:0:0:0:
256,192,88187,1,0,0:0:0:0:
256,192,88320,1,0,0:0:0:0:
256,192,88452,1,8,0:0:0:0:
256,192,88717,1,8,0:0:0:0:
256,192,88850,1,0,0:0:0:0:
256,192,88917,1,0,0:0:0:0:
256,192,88983,1,8,0:0:0:0:
256,192,89116,1,0,0:0:0:0:
256,192,89381,1,0,0:0:0:0:
256,192,89514,1,8,0:0:0:0:
256,192,89647,5,0,0:0:0:0:
256,192,89779,1,0,0:0:0:0:
256,192,89846,1,0,0:0:0:0:
256,192,89912,1,0,0:0:0:0:
256,192,90045,1,8,0:0:0:0:
256,192,90178,1,8,0:0:0:0:
256,192,90311,1,0,0:0:0:0:
256,192,90443,1,0,0:0:0:0:
256,192,90576,1,8,0:0:0:0:
256,192,90841,1,8,0:0:0:0:
256,192,90975,1,0,0:0:0:0:
256,192,91107,1,8,0:0:0:0:
256,192,91373,1,8,0:0:0:0:
256,192,91505,1,8,0:0:0:0:
256,192,91638,1,0,0:0:0:0:
256,192,91771,1,8,0:0:0:0:
256,192,92036,1,8,0:0:0:0:
256,192,92169,1,0,0:0:0:0:
256,192,92302,1,8,0:0:0:0:
256,192,92369,1,8,0:0:0:0:
256,192,92435,1,0,0:0:0:0:
256,192,92567,1,8,0:0:0:0:
256,192,92700,1,0,0:0:0:0:
256,192,92833,1,0,0:0:0:0:
256,192,92966,1,8,0:0:0:0:
256,192,93231,1,8,0:0:0:0:
256,192,93497,1,4,0:0:0:0:
256,192,93762,1,8,0:0:0:0:
256,192,94028,1,0,0:0:0:0:
256,192,94161,1,0,0:0:0:0:
256,192,94293,1,8,0:0:0:0:
256,192,94426,1,0,0:0:0:0:
256,192,94692,1,0,0:0:0:0:
256,192,94824,1,8,0:0:0:0:
256,192,95090,1,8,0:0:0:0:
256,192,95223,1,0,0:0:0:0:
256,192,95289,1,0,0:0:0:0:
256,192,95355,1,8,0:0:0:0:
256,192,95488,1,8,0:0:0:0:
256,192,95621,1,0,0:0:0:0:
256,192,95886,1,0,0:0:0:0:
256,192,96152,1,8,0:0:0:0:
256,192,96284,1,8,0:0:0:0:
256,192,96417,1,0,0:0:0:0:
256,192,96550,1,8,0:0:0:0:
256,192,96815,1,8,0:0:0:0:
256,192,96948,1,0,0:0:0:0:
256,192,97214,1,8,0:0:0:0:
256,192,97346,1,0,0:0:0:0:
256,192,97479,1,8,0:0:0:0:
256,192,97546,1,8,0:0:0:0:
256,192,97612,1,8,0:0:0:0:
256,192,97745,1,0,0:0:0:0:
256,192,98010,1,8,0:0:0:0:
256,192,98276,1,0,0:0:0:0:
256,192,98409,1,0,0:0:0:0:
256,192,98541,1,8,0:0:0:0:
256,192,98674,1,0,0:0:0:0:
256,192,98940,1,0,0:0:0:0:
256,192,99072,1,8,0:0:0:0:
256,192,99338,1,8,0:0:0:0:
256,192,99471,1,0,0:0:0:0:
256,192,99603,1,8,0:0:0:0:
256,192,99869,1,0,0:0:0:0:
256,192,100001,1,8,0:0:0:0:
256,192,100134,1,8,0:0:0:0:
256,192,100200,1,8,0:0:0:0:
256,192,100267,1,0,0:0:0:0:
256,192,100400,1,8,0:0:0:0:
256,192,100665,1,0,0:0:0:0:
256,192,100798,1,8,0:0:0:0:
256,192,101063,1,0,0:0:0:0:
256,192,101196,1,8,0:0:0:0:
256,192,101329,1,8,0:0:0:0:
256,192,101462,1,0,0:0:0:0:
256,192,101528,1,0,0:0:0:0:
256,192,101594,1,0,0:0:0:0:
256,192,101727,1,8,0:0:0:0:
256,192,101860,1,8,0:0:0:0:
256,192,101992,1,0,0:0:0:0:
256,192,102257,1,8,0:0:0:0:
256,192,102523,1,0,0:0:0:0:
256,192,102656,1,0,0:0:0:0:
256,192,102788,1,8,0:0:0:0:
256,192,102921,1,0,0:0:0:0:
256,192,103187,1,0,0:0:0:0:
256,192,103319,1,8,0:0:0:0:
256,192,103585,1,8,0:0:0:0:
256,192,103718,1,0,0:0:0:0:
256,192,103784,1,0,0:0:0:0:
256,192,103850,1,8,0:0:0:0:
256,192,103983,1,8,0:0:0:0:
256,192,104116,1,0,0:0:0:0:
256,192,104381,1,0,0:0:0:0:
256,192,104647,1,8,0:0:0:0:
256,192,104779,1,8,0:0:0:0:
256,192,104912,1,0,0:0:0:0:
256,192,105045,1,8,0:0:0:0:
256,192,105310,1,8,0:0:0:0:
256,192,105443,1,0,0:0:0:0:
256,192,105709,1,8,0:0:0:0:
256,192,105842,1,0,0:0:0:0:
256,192,105974,1,8,0:0:0:0:
256,192,106108,1,0,0:0:0:0:
256,192,106240,1,8,0:0:0:0:
256,192,106506,1,0,0:0:0:0:
256,192,106772,1,8,0:0:0:0:
256,192,106905,1,0,0:0:0:0:
256,192,107037,1,0,0:0:0:0:
256,192,107169,1,8,0:0:0:0:
256,192,107568,1,0,0:0:0:0:
256,192,107833,1,8,0:0:0:0:
256,192,107966,1,0,0:0:0:0:
256,192,108231,1,12,0:0:0:0:
256,192,109426,1,12,0:0:0:0:
256,192,109559,1,12,0:0:0:0:
256,192,109692,1,12,0:0:0:0:
256,192,109824,1,4,0:0:0:0:
256,192,110223,1,8,0:0:0:0:
256,192,110355,1,4,0:0:0:0:
256,192,110621,1,0,0:0:0:0:
256,192,110754,1,8,0:0:0:0:
256,192,111019,1,0,0:0:0:0:
256,192,111152,1,0,0:0:0:0:
256,192,111285,1,8,0:0:0:0:
256,192,111351,1,8,0:0:0:0:
256,192,111418,1,8,0:0:0:0:
256,192,111550,1,0,0:0:0:0:
256,192,111683,1,0,0:0:0:0:
256,192,111816,1,8,0:0:0:0:
256,192,112081,1,0,0:0:0:0:
256,192,112214,1,0,0:0:0:0:
256,192,112347,1,8,0:0:0:0:
256,192,112480,1,0,0:0:0:0:
256,192,112745,1,0,0:0:0:0:
256,192,112878,1,8,0:0:0:0:
256,192,113011,1,8,0:0:0:0:
256,192,113077,1,8,0:0:0:0:
256,192,113143,1,0,0:0:0:0:
256,192,113276,1,0,0:0:0:0:
256,192,113409,1,8,0:0:0:0:
256,192,113674,1,0,0:0:0:0:
256,192,113807,1,8,0:0:0:0:
256,192,113940,1,0,0:0:0:0:
256,192,114006,1,0,0:0:0:0:
256,192,114073,1,8,0:0:0:0:
256,192,114205,1,0,0:0:0:0:
256,192,114338,1,8,0:0:0:0:
256,192,114470,1,8,0:0:0:0:
256,192,114603,1,0,0:0:0:0:
256,192,114869,1,0,0:0:0:0:
256,192,115002,1,8,0:0:0:0:
256,192,115134,1,8,0:0:0:0:
256,192,115267,1,0,0:0:0:0:
256,192,115400,1,0,0:0:0:0:
256,192,115466,1,0,0:0:0:0:
256,192,115533,1,8,0:0:0:0:
256,192,115665,1,0,0:0:0:0:
256,192,115931,1,0,0:0:0:0:
256,192,116064,1,8,0:0:0:0:
256,192,116196,1,8,0:0:0:0:
256,192,116262,1,8,0:0:0:0:
256,192,116329,1,0,0:0:0:0:
256,192,116462,1,0,0:0:0:0:
256,192,116595,1,8,0:0:0:0:
256,192,116727,1,8,0:0:0:0:
256,192,116993,1,0,0:0:0:0:
256,192,117126,1,8,0:0:0:0:
256,192,117391,1,0,0:0:0:0:
256,192,117524,1,0,0:0:0:0:
256,192,117657,1,8,0:0:0:0:
256,192,117789,1,0,0:0:0:0:
256,192,118055,1,0,0:0:0:0:
256,192,118188,1,8,0:0:0:0:
256,192,118453,1,8,0:0:0:0:
256,192,118586,1,0,0:0:0:0:
256,192,118719,1,8,0:0:0:0:
256,192,118852,1,8,0:0:0:0:
256,192,118984,1,0,0:0:0:0:
256,192,119116,1,0,0:0:0:0:
256,192,119249,1,8,0:0:0:0:
256,192,119515,1,8,0:0:0:0:
256,192,119647,1,0,0:0:0:0:
256,192,119780,1,8,0:0:0:0:
256,192,119913,1,8,0:0:0:0:
256,192,120046,1,0,0:0:0:0:
256,192,120311,1,0,0:0:0:0:
256,192,120444,1,8,0:0:0:0:
256,192,120577,1,0,0:0:0:0:
256,192,120709,1,0,0:0:0:0:
256,192,120842,1,8,0:0:0:0:
256,192,120975,1,0,0:0:0:0:
256,192,121373,1,12,0:0:0:0:
256,192,121506,8,0,126284,0:0:0:0:
