osu file format v14

[General]
AudioFilename: audio.ogg
AudioLeadIn: 0
PreviewTime: 87553
Countdown: 0
SampleSet: Normal
StackLeniency: 0.7
Mode: 1
LetterboxInBreaks: 0
WidescreenStoryboard: 1

[Editor]
Bookmarks: 22469,35269,48069,60869,73669,99269
DistanceSpacing: 0.8
BeatDivisor: 4
GridSize: 32
TimelineZoom: 1.4

[Metadata]
Title:Ayashi Tsukiyo no Enishi yori
TitleUnicode:妖し月夜の縁より
Artist:Kicco & Ouse Akira
ArtistUnicode:Kicco&逢瀬アキラ
Creator:[R]
Version:Black's Oni
Source:まどひ白きの神隠し
Tags:ron BlackBq Madoi Shiroki no Kamikakushi lump of sugar まどきの madokino okamu. visual novel eroge japanese video game
BeatmapID:3036498
BeatmapSetID:1478679

[Difficulty]
HPDrainRate:5
CircleSize:2
OverallDifficulty:5
ApproachRate:10
SliderMultiplier:1.4
SliderTickRate:1

[Events]
//Background and Video events
0,0,"BG2.jpg",0,0
//Break Periods
//Storyboard Layer 0 (Background)
//Storyboard Layer 1 (Fail)
//Storyboard Layer 2 (Pass)
//Storyboard Layer 3 (Foreground)
//Storyboard Layer 4 (Overlay)
//Storyboard Sound Samples

[TimingPoints]
9562,400,4,1,0,60,1,0
21562,-100,4,1,0,65,0,0
22362,-100,4,1,0,70,0,0
23162,-80,4,1,0,75,0,0
23862,-100,4,1,0,80,0,0
35062,-90.9090909090909,4,1,0,80,0,0
35362,-95.2380952380952,4,1,0,80,0,0
35662,-100,4,1,0,80,0,0
36662,-111.111111111111,4,1,0,65,0,0
49462,-100,4,1,0,75,0,0
62262,-100,4,1,0,80,0,0
74612,-101.010101010101,4,1,0,80,0,0
74712,-102.040816326531,4,1,0,80,0,0
74812,-103.092783505155,4,1,0,80,0,0
74912,-104.166666666667,4,1,0,80,0,0
75062,-105.263157894737,4,1,0,80,0,0
78262,-100,4,1,0,80,0,0
79862,-97.5609756097561,4,1,0,80,0,0
81462,-95.2380952380952,4,1,0,80,0,0
86462,-86.9565217391304,4,1,0,80,0,0
86762,-83.3333333333333,4,1,0,80,0,0
87062,-80,4,1,0,80,0,0
87862,-95.2380952380952,4,1,0,85,0,0
87962,-95.2380952380952,4,1,0,85,0,1
100012,-95.99999996928,4,1,0,85,0,1
100112,-96.7741935796046,4,1,0,85,0,1
100212,-97.5609756097561,4,1,0,85,0,1
100312,-98.3606557054555,4,1,0,85,0,1
100462,-99.1735537517929,4,1,0,85,0,1
100662,-100,4,1,0,80,0,1
103862,-90.9090909090909,4,1,0,80,0,1
105462,-95.2380952380952,4,1,0,80,0,1
105762,-100,4,1,0,80,0,1
108462,-90.9090909090909,4,1,0,80,0,1
109162,-90.9090909090909,4,1,0,80,0,0
110262,-100,4,1,0,75,0,0

[HitObjects]
256,192,9562,5,8,0:0:0:0:
256,192,10362,1,0,0:0:0:0:
256,192,10762,1,8,0:0:0:0:
256,192,10962,1,0,0:0:0:0:
256,192,11162,1,8,0:0:0:0:
256,192,11562,1,0,0:0:0:0:
256,192,11962,1,8,0:0:0:0:
256,192,12362,1,0,0:0:0:0:
256,192,12762,1,8,0:0:0:0:
256,192,12962,1,0,0:0:0:0:
256,192,13162,1,0,0:0:0:0:
256,192,13562,1,0,0:0:0:0:
256,192,13962,1,8,0:0:0:0:
256,192,14162,1,0,0:0:0:0:
256,192,14362,1,8,0:0:0:0:
256,192,14762,1,0,0:0:0:0:
256,192,14962,1,0,0:0:0:0:
256,192,15162,1,8,0:0:0:0:
256,192,15562,1,8,0:0:0:0:
256,192,15962,1,0,0:0:0:0:
256,192,16762,1,0,0:0:0:0:
256,192,17162,1,0,0:0:0:0:
256,192,17562,1,8,0:0:0:0:
256,192,17962,1,8,0:0:0:0:
256,192,18162,1,0,0:0:0:0:
256,192,18362,1,8,0:0:0:0:
256,192,18762,1,0,0:0:0:0:
256,192,19162,1,8,0:0:0:0:
256,192,19562,1,0,0:0:0:0:
256,192,19762,1,0,0:0:0:0:
256,192,19962,1,8,0:0:0:0:
256,192,20362,1,8,0:0:0:0:
256,192,20562,1,8,0:0:0:0:
256,192,20762,1,0,0:0:0:0:
256,192,20962,12,0,22362,0:0:0:0:
256,192,23462,5,0,0:0:0:0:
256,192,23562,5,8,0:0:0:0:
384,96,23962,1,4,0:0:0:0:
256,192,24162,1,8,0:0:0:0:
256,192,24362,1,0,0:0:0:0:
256,192,24562,1,8,0:0:0:0:
256,192,24762,1,0,0:0:0:0:
256,192,24862,1,8,0:0:0:0:
256,192,24962,1,8,0:0:0:0:
256,192,25362,1,0,0:0:0:0:
256,192,25562,1,8,0:0:0:0:
256,192,25762,1,0,0:0:0:0:
256,192,25962,1,0,0:0:0:0:
256,192,26062,1,0,0:0:0:0:
256,192,26162,1,8,0:0:0:0:
256,192,26362,1,0,0:0:0:0:
256,192,26562,1,8,0:0:0:0:
256,192,26762,1,0,0:0:0:0:
256,192,27162,1,8,0:0:0:0:
256,192,27362,1,8,0:0:0:0:
256,192,27562,1,0,0:0:0:0:
256,192,27762,1,8,0:0:0:0:
256,192,27962,1,8,0:0:0:0:
256,192,28062,1,0,0:0:0:0:
256,192,28162,1,8,0:0:0:0:
256,192,28562,1,8,0:0:0:0:
256,192,28762,1,0,0:0:0:0:
256,192,28962,1,8,0:0:0:0:
256,192,29162,1,8,0:0:0:0:
256,192,29262,1,8,0:0:0:0:
256,192,29362,1,0,0:0:0:0:
256,192,29562,1,8,0:0:0:0:
256,192,29762,1,0,0:0:0:0:
256,192,29962,1,8,0:0:0:0:
256,192,30062,1,0,0:0:0:0:
256,192,30162,1,8,0:0:0:0:
384,64,30362,1,4,0:0:0:0:
256,192,30562,1,8,0:0:0:0:
256,192,30762,1,0,0:0:0:0:
256,192,30962,1,8,0:0:0:0:
256,192,31162,1,0,0:0:0:0:
256,192,31262,1,8,0:0:0:0:
256,192,31362,1,8,0:0:0:0:
256,192,31762,1,0,0:0:0:0:
256,192,31962,1,8,0:0:0:0:
256,192,32162,1,0,0:0:0:0:
256,192,32362,1,8,0:0:0:0:
256,192,32562,1,8,0:0:0:0:
256,192,32762,1,0,0:0:0:0:
256,192,32862,1,0,0:0:0:0:
256,192,32962,1,8,0:0:0:0:
256,192,33162,1,0,0:0:0:0:
256,192,33562,1,8,0:0:0:0:
256,192,33762,1,8,0:0:0:0:
256,192,33962,1,0,0:0:0:0:
256,192,34162,1,8,0:0:0:0:
256,192,34362,1,8,0:0:0:0:
256,192,34462,1,8,0:0:0:0:
256,192,34562,1,0,0:0:0:0:
256,192,34662,1,0,0:0:0:0:
256,192,34762,1,8,0:0:0:0:
256,192,34962,1,0,0:0:0:0:
416,64,35162,1,12,0:0:0:0:
416,64,35462,1,4,0:0:0:0:
416,64,35762,1,12,0:0:0:0:
256,192,36762,1,0,0:0:0:0:
256,192,37562,1,8,0:0:0:0:
256,192,37962,1,0,0:0:0:0:
256,192,38362,1,8,0:0:0:0:
256,192,39162,1,0,0:0:0:0:
256,192,39362,1,8,0:0:0:0:
256,192,39562,1,8,0:0:0:0:
256,192,39962,1,0,0:0:0:0:
224,192,40762,1,8,0:0:0:0:
256,192,41162,1,0,0:0:0:0:
256,192,41562,1,8,0:0:0:0:
256,192,41962,1,8,0:0:0:0:
256,192,42162,1,8,0:0:0:0:
256,192,42362,1,0,0:0:0:0:
256,192,42762,1,8,0:0:0:0:
256,192,43162,1,0,0:0:0:0:
256,192,43962,1,8,0:0:0:0:
256,192,44362,1,8,0:0:0:0:
256,192,44762,1,0,0:0:0:0:
256,192,45162,1,0,0:0:0:0:
256,192,45362,1,0,0:0:0:0:
256,192,45562,1,8,0:0:0:0:
256,192,45962,1,8,0:0:0:0:
256,192,46362,1,0,0:0:0:0:
256,192,47162,1,0,0:0:0:0:
256,192,47962,1,8,0:0:0:0:
384,96,49562,1,4,0:0:0:0:
256,192,50162,1,0,0:0:0:0:
256,192,50362,1,8,0:0:0:0:
256,192,50762,1,8,0:0:0:0:
256,192,51162,1,0,0:0:0:0:
256,192,51462,1,0,0:0:0:0:
256,192,51562,1,0,0:0:0:0:
256,192,51762,1,0,0:0:0:0:
256,192,51962,1,8,0:0:0:0:
256,192,52362,1,8,0:0:0:0:
256,192,52562,1,0,0:0:0:0:
256,192,52662,1,8,0:0:0:0:
256,192,52762,1,0,0:0:0:0:
256,192,53362,1,0,0:0:0:0:
256,192,53562,1,8,0:0:0:0:
256,192,53862,1,0,0:0:0:0:
256,192,53962,1,8,0:0:0:0:
256,192,54162,1,8,0:0:0:0:
256,192,54362,1,0,0:0:0:0:
256,192,54562,1,0,0:0:0:0:
256,192,54662,1,0,0:0:0:0:
256,192,54762,1,8,0:0:0:0:
256,192,54962,1,0,0:0:0:0:
256,192,55162,1,8,0:0:0:0:
256,192,55562,1,8,0:0:0:0:
256,192,55762,1,0,0:0:0:0:
256,192,55862,1,0,0:0:0:0:
256,192,55962,1,8,0:0:0:0:
256,192,56262,1,8,0:0:0:0:
256,192,56362,1,0,0:0:0:0:
256,192,56562,1,0,0:0:0:0:
256,192,56762,1,8,0:0:0:0:
256,192,57162,1,0,0:0:0:0:
256,192,57362,1,0,0:0:0:0:
256,192,57462,1,8,0:0:0:0:
256,192,57562,1,8,0:0:0:0:
256,192,57862,1,0,0:0:0:0:
256,192,57962,1,8,0:0:0:0:
256,192,58162,1,0,0:0:0:0:
256,192,58362,1,8,0:0:0:0:
256,192,58762,1,0,0:0:0:0:
256,192,58962,1,8,0:0:0:0:
256,192,59062,1,8,0:0:0:0:
256,192,59162,1,0,0:0:0:0:
256,192,59462,1,8,0:0:0:0:
256,192,59562,1,0,0:0:0:0:
256,192,59762,1,0,0:0:0:0:
256,192,59962,1,8,0:0:0:0:
256,192,60262,1,0,0:0:0:0:
256,192,60362,1,0,0:0:0:0:
256,192,60562,1,8,0:0:0:0:
256,192,60762,1,0,0:0:0:0:
256,192,61062,1,8,0:0:0:0:
256,192,61162,1,0,0:0:0:0:
256,192,61362,1,0,0:0:0:0:
256,192,61562,1,8,0:0:0:0:
256,192,61762,1,0,0:0:0:0:
256,192,61962,1,8,0:0:0:0:
256,192,62062,1,8,0:0:0:0:
256,192,62162,1,0,0:0:0:0:
416,96,62362,1,12,0:0:0:0:
256,192,62662,1,0,0:0:0:0:
256,192,62762,1,8,0:0:0:0:
256,192,62962,1,0,0:0:0:0:
256,192,63062,1,8,0:0:0:0:
256,192,63162,1,0,0:0:0:0:
256,192,63362,1,0,0:0:0:0:
256,192,63562,1,8,0:0:0:0:
256,192,63962,1,0,0:0:0:0:
256,192,64162,1,0,0:0:0:0:
256,192,64262,1,0,0:0:0:0:
256,192,64362,1,8,0:0:0:0:
256,192,64562,1,8,0:0:0:0:
256,192,64662,1,8,0:0:0:0:
256,192,64762,1,0,0:0:0:0:
256,192,64962,1,0,0:0:0:0:
256,192,65162,1,8,0:0:0:0:
256,192,65562,1,0,0:0:0:0:
256,192,65862,1,8,0:0:0:0:
256,192,65962,1,0,0:0:0:0:
256,192,66162,1,0,0:0:0:0:
256,192,66362,1,8,0:0:0:0:
256,192,66662,1,8,0:0:0:0:
256,192,66762,1,0,0:0:0:0:
256,192,66962,1,0,0:0:0:0:
256,192,67162,1,8,0:0:0:0:
256,192,67462,1,8,0:0:0:0:
256,192,67562,1,0,0:0:0:0:
256,192,67762,1,0,0:0:0:0:
256,192,67962,1,8,0:0:0:0:
256,192,68262,1,0,0:0:0:0:
256,192,68362,1,8,0:0:0:0:
256,192,68562,1,0,0:0:0:0:
384,96,68762,1,12,0:0:0:0:
256,192,69062,1,8,0:0:0:0:
256,192,69162,1,0,0:0:0:0:
256,192,69362,1,8,0:0:0:0:
256,192,69462,1,8,0:0:0:0:
256,192,69562,1,0,0:0:0:0:
256,192,69762,1,0,0:0:0:0:
256,192,69962,1,8,0:0:0:0:
256,192,70362,1,8,0:0:0:0:
256,192,70562,1,0,0:0:0:0:
256,192,70662,1,0,0:0:0:0:
256,192,70762,1,8,0:0:0:0:
256,192,70962,1,8,0:0:0:0:
256,192,71062,1,0,0:0:0:0:
256,192,71162,1,8,0:0:0:0:
256,192,71362,1,0,0:0:0:0:
256,192,71562,1,8,0:0:0:0:
256,192,71962,1,0,0:0:0:0:
256,192,72262,1,0,0:0:0:0:
256,192,72362,1,8,0:0:0:0:
256,192,72562,1,8,0:0:0:0:
256,192,72762,1,0,0:0:0:0:
256,192,73062,1,0,0:0:0:0:
256,192,73162,1,8,0:0:0:0:
256,192,73362,1,8,0:0:0:0:
256,192,73562,1,0,0:0:0:0:
256,192,73862,1,0,0:0:0:0:
256,192,73962,1,8,0:0:0:0:
256,192,74162,1,8,0:0:0:0:
256,192,74362,1,0,0:0:0:0:
256,192,74562,1,8,0:0:0:0:
256,192,74662,1,0,0:0:0:0:
256,192,74762,1,8,0:0:0:0:
256,192,74862,1,8,0:0:0:0:
256,192,74962,1,0,0:0:0:0:
416,64,75162,1,12,0:0:0:0:
256,192,75462,1,8,0:0:0:0:
256,192,75762,1,0,0:0:0:0:
256,192,75962,1,8,0:0:0:0:
256,192,76162,1,8,0:0:0:0:
256,192,76362,1,0,0:0:0:0:
256,192,76562,1,8,0:0:0:0:
256,192,76662,1,8,0:0:0:0:
256,192,76762,1,0,0:0:0:0:
256,192,77062,1,0,0:0:0:0:
256,192,77362,1,8,0:0:0:0:
256,192,77562,1,0,0:0:0:0:
256,192,77762,1,8,0:0:0:0:
256,192,77962,1,0,0:0:0:0:
256,192,78062,1,0,0:0:0:0:
256,192,78162,1,8,0:0:0:0:
384,64,78362,1,4,0:0:0:0:
256,192,78762,1,8,0:0:0:0:
256,192,78962,1,0,0:0:0:0:
256,192,79162,1,8,0:0:0:0:
256,192,79362,1,0,0:0:0:0:
256,192,79562,1,8,0:0:0:0:
256,192,79762,1,8,0:0:0:0:
352,96,79962,1,4,0:0:0:0:
256,192,80362,1,8,0:0:0:0:
256,192,80562,1,0,0:0:0:0:
256,192,80762,1,8,0:0:0:0:
256,192,80962,1,0,0:0:0:0:
256,192,81162,1,8,0:0:0:0:
256,192,81262,1,0,0:0:0:0:
256,192,81362,1,8,0:0:0:0:
352,96,81562,1,4,0:0:0:0:
256,192,81962,1,8,0:0:0:0:
256,192,82162,1,0,0:0:0:0:
256,192,82362,1,8,0:0:0:0:
256,192,82562,1,8,0:0:0:0:
256,192,82762,1,0,0:0:0:0:
256,192,82862,1,0,0:0:0:0:
256,192,82962,1,8,0:0:0:0:
256,192,83162,1,0,0:0:0:0:
256,192,83362,1,0,0:0:0:0:
256,192,83462,1,0,0:0:0:0:
256,192,83562,1,8,0:0:0:0:
256,192,83762,1,0,0:0:0:0:
256,192,83962,1,8,0:0:0:0:
256,192,84162,1,8,0:0:0:0:
256,192,84262,1,0,0:0:0:0:
256,192,84362,1,8,0:0:0:0:
256,192,84562,1,8,0:0:0:0:
416,64,84762,1,12,0:0:0:0:
256,192,85162,1,8,0:0:0:0:
256,192,85262,1,8,0:0:0:0:
256,192,85362,1,0,0:0:0:0:
256,192,85562,1,8,0:0:0:0:
256,192,85762,1,0,0:0:0:0:
256,192,85962,1,8,0:0:0:0:
256,192,86062,1,8,0:0:0:0:
256,192,86162,1,0,0:0:0:0:
256,192,86262,1,0,0:0:0:0:
256,192,86362,1,8,0:0:0:0:
384,64,86562,1,4,0:0:0:0:
384,64,86862,1,4,0:0:0:0:
384,64,87162,1,12,0:0:0:0:
352,96,87962,1,12,0:0:0:0:
256,192,88262,1,0,0:0:0:0:
256,192,88362,1,8,0:0:0:0:
256,192,88562,1,0,0:0:0:0:
256,192,88762,1,8,0:0:0:0:
256,192,88862,1,8,0:0:0:0:
256,192,88962,1,0,0:0:0:0:
256,192,89162,1,8,0:0:0:0:
256,192,89362,1,8,0:0:0:0:
256,192,89562,1,0,0:0:0:0:
256,192,89862,1,0,0:0:0:0:
256,192,89962,1,8,0:0:0:0:
256,192,90162,1,8,0:0:0:0:
256,192,90362,1,0,0:0:0:0:
256,192,90762,1,8,0:0:0:0:
256,192,90962,1,8,0:0:0:0:
256,192,91062,1,8,0:0:0:0:
256,192,91162,1,0,0:0:0:0:
256,192,91462,1,8,0:0:0:0:
256,192,91562,1,0,0:0:0:0:
256,192,91762,1,8,0:0:0:0:
256,192,91962,1,0,0:0:0:0:
256,192,92062,1,0,0:0:0:0:
256,192,92162,1,8,0:0:0:0:
256,192,92362,1,8,0:0:0:0:
256,192,92562,1,0,0:0:0:0:
256,192,92762,1,8,0:0:0:0:
256,192,92862,1,8,0:0:0:0:
256,192,92962,1,0,0:0:0:0:
256,192,93062,1,0,0:0:0:0:
256,192,93162,1,8,0:0:0:0:
256,192,93362,1,0,0:0:0:0:
256,192,93562,1,8,0:0:0:0:
256,192,93962,1,8,0:0:0:0:
256,192,94162,1,0,0:0:0:0:
384,64,94362,1,12,0:0:0:0:
256,192,94662,1,0,0:0:0:0:
256,192,94762,1,8,0:0:0:0:
256,192,94962,1,0,0:0:0:0:
256,192,95162,1,8,0:0:0:0:
256,192,95262,1,0,0:0:0:0:
256,192,95362,1,8,0:0:0:0:
256,192,95562,1,0,0:0:0:0:
256,192,95762,1,8,0:0:0:0:
256,192,95962,1,0,0:0:0:0:
256,192,96262,1,8,0:0:0:0:
256,192,96362,1,0,0:0:0:0:
256,192,96562,1,8,0:0:0:0:
256,192,96762,1,0,0:0:0:0:
256,192,97162,1,8,0:0:0:0:
256,192,97362,1,8,0:0:0:0:
256,192,97462,1,8,0:0:0:0:
256,192,97562,1,0,0:0:0:0:
256,192,97862,1,8,0:0:0:0:
256,192,97962,1,0,0:0:0:0:
256,192,98162,1,0,0:0:0:0:
256,192,98362,1,8,0:0:0:0:
256,192,98462,1,0,0:0:0:0:
256,192,98562,1,8,0:0:0:0:
256,192,98662,1,8,0:0:0:0:
256,192,98762,1,0,0:0:0:0:
256,192,98962,1,8,0:0:0:0:
256,192,99162,1,0,0:0:0:0:
256,192,99362,1,0,0:0:0:0:
256,192,99462,1,0,0:0:0:0:
256,192,99562,1,8,0:0:0:0:
256,192,99762,1,0,0:0:0:0:
256,192,99962,1,8,0:0:0:0:
256,192,100062,1,8,0:0:0:0:
256,192,100162,1,0,0:0:0:0:
256,192,100262,1,0,0:0:0:0:
256,192,100362,1,8,0:0:0:0:
256,192,100562,1,8,0:0:0:0:
416,64,100762,1,4,0:0:0:0:
256,192,100962,1,8,0:0:0:0:
256,192,101062,1,8,0:0:0:0:
256,192,101162,1,0,0:0:0:0:
256,192,101362,1,8,0:0:0:0:
256,192,101762,1,0,0:0:0:0:
256,192,101962,1,8,0:0:0:0:
256,192,102162,1,0,0:0:0:0:
256,192,102262,1,8,0:0:0:0:
256,192,102362,1,0,0:0:0:0:
256,192,102562,1,8,0:0:0:0:
256,192,102762,1,0,0:0:0:0:
256,192,102962,1,8,0:0:0:0:
256,192,103362,1,0,0:0:0:0:
256,192,103562,1,8,0:0:0:0:
256,192,103662,1,8,0:0:0:0:
256,192,103762,1,8,0:0:0:0:
352,96,103962,1,12,0:0:0:0:
352,96,104162,1,12,0:0:0:0:
352,96,104362,1,4,0:0:0:0:
352,96,104562,1,12,0:0:0:0:
352,96,104962,1,4,0:0:0:0:
384,32,105362,1,12,0:0:0:0:
256,192,105562,1,0,0:0:0:0:
256,192,105862,1,8,0:0:0:0:
256,192,105962,1,0,0:0:0:0:
256,192,106162,1,0,0:0:0:0:
256,192,106262,1,0,0:0:0:0:
256,192,106362,1,8,0:0:0:0:
256,192,106562,1,8,0:0:0:0:
256,192,106762,1,8,0:0:0:0:
256,192,106862,1,0,0:0:0:0:
256,192,106962,1,8,0:0:0:0:
384,96,107162,1,4,0:0:0:0:
256,192,107562,1,0,0:0:0:0:
256,192,107762,1,8,0:0:0:0:
256,192,107962,1,0,0:0:0:0:
256,192,108062,1,0,0:0:0:0:
256,192,108162,1,8,0:0:0:0:
256,192,108362,1,8,0:0:0:0:
384,96,108562,1,4,0:0:0:0:
384,96,108962,1,4,0:0:0:0:
384,96,109162,1,4,0:0:0:0:
384,96,110362,1,12,0:0:0:0:
256,192,110662,1,8,0:0:0:0:
256,192,110762,1,0,0:0:0:0:
256,192,110962,1,0,0:0:0:0:
256,192,111162,1,8,0:0:0:0:
256,192,111362,1,8,0:0:0:0:
256,192,111462,1,8,0:0:0:0:
256,192,111562,1,0,0:0:0:0:
256,192,111762,1,8,0:0:0:0:
256,192,111962,1,0,0:0:0:0:
256,192,112262,1,8,0:0:0:0:
256,192,112362,1,0,0:0:0:0:
256,192,112562,1,8,0:0:0:0:
256,192,112762,1,0,0:0:0:0:
256,192,112862,1,0,0:0:0:0:
256,192,112962,1,8,0:0:0:0:
256,192,113162,1,0,0:0:0:0:
384,96,113562,1,12,0:0:0:0:
256,192,113762,1,0,0:0:0:0:
256,192,113862,1,0,0:0:0:0:
256,192,113962,1,0,0:0:0:0:
256,192,114162,1,8,0:0:0:0:
256,192,114362,1,0,0:0:0:0:
256,192,114462,1,0,0:0:0:0:
256,192,114562,1,8,0:0:0:0:
256,192,114762,1,0,0:0:0:0:
256,192,114862,1,0,0:0:0:0:
256,192,114962,1,8,0:0:0:0:
256,192,115062,1,8,0:0:0:0:
256,192,115162,1,8,0:0:0:0:
256,192,115362,1,0,0:0:0:0:
256,192,115562,1,0,0:0:0:0:
256,192,115662,1,0,0:0:0:0:
256,192,115762,1,8,0:0:0:0:
256,192,115962,1,0,0:0:0:0:
256,192,116162,1,0,0:0:0:0:
256,192,116362,1,8,0:0:0:0:
256,192,116462,1,8,0:0:0:0:
256,192,116562,1,8,0:0:0:0:
256,192,116662,1,8,0:0:0:0:
