osu file format v14

[General]
AudioFilename: 02 KITTY HAWK.mp3
AudioLeadIn: 0
PreviewTime: 10438
Countdown: 0
SampleSet: Soft
StackLeniency: 0.7
Mode: 0
LetterboxInBreaks: 0
WidescreenStoryboard: 0

[Editor]
Bookmarks: 11923,23784,47506,59367,83089,89020,91984
DistanceSpacing: 1.4
BeatDivisor: 4
GridSize: 4
TimelineZoom: 3.899998

[Metadata]
Title:KITTY HAWK
TitleUnicode:KITTY HAWK
Artist:Ki:Theory
ArtistUnicode:Ki:Theory
Creator:George
Version:Hard
Source:
Tags:counter-strike global offensive csgo music kit valve steam hidden path entertainment fps molotov kitheory
BeatmapID:801329
BeatmapSetID:365066

[Difficulty]
HPDrainRate:5
CircleSize:4
OverallDifficulty:6
ApproachRate:7
SliderMultiplier:1.3
SliderTickRate:1

[Events]
//Background and Video events
0,0,"Anime-Rain-Scenery-Wallpaper.jpg",0,0
//Break Periods
//Storyboard Layer 0 (Background)
//Storyboard Layer 1 (Fail)
//Storyboard Layer 2 (Pass)
//Storyboard Layer 3 (Foreground)
//Storyboard Sound Samples

[TimingPoints]
62,370.599135268684,4,2,0,80,1,0
11921,-76.9230769230769,4,1,0,80,0,1
23780,-100,4,2,0,80,0,0
47498,-76.9230769230769,4,1,0,80,0,1
59357,-100,4,2,0,80,0,0
83076,-76.9230769230769,4,1,0,80,0,1
89005,-100,4,2,0,80,0,0

[Colours]
Combo1 : 255,192,0
Combo2 : 0,191,191
Combo3 : 18,124,255
Combo4 : 255,198,170

[HitObjects]
88,340,5250,6,0,P|100:300|100:272,1,65
84,200,5620,1,0,0:0:0:0:
48,132,5806,1,0,0:0:0:0:
124,116,5991,6,0,L|280:112,1,130
356,220,6732,2,0,L|200:216,1,130
84,156,7473,2,0,P|72:120|116:32,2,130
212,244,8585,2,0,P|224:280|180:368,2,130
108,128,9697,2,0,B|172:136|172:136|264:124,1,130
392,104,10438,5,0,0:0:0:0:
368,292,11921,6,0,P|288:284|236:200,1,168.999992263794,4|0,0:0|0:0,0:0:0:0:
268,116,12477,1,0,0:0:0:0:
340,192,12662,2,0,L|224:360,1,168.999992263794,0|4,0:0|0:0,0:0:0:0:
196,140,13403,1,4,0:0:0:0:
400,124,13774,1,4,0:0:0:0:
260,272,14144,6,0,B|220:268|220:268|168:272,1,84.4999961318971
148,172,14515,2,0,B|108:176|108:176|56:172,1,84.4999961318971,4|0,0:0|0:0,0:0:0:0:
116,84,14885,6,0,P|204:100|240:184,1,168.999992263794,4|0,0:0|0:0,0:0:0:0:
204,252,15441,1,0,0:0:0:0:
148,172,15627,2,0,L|264:40,1,168.999992263794,0|4,0:0|0:0,0:0:0:0:
380,204,16368,1,4,0:0:0:0:
188,272,16738,1,4,0:0:0:0:
336,132,17109,6,0,P|380:124|424:132,1,84.4999961318971
364,48,17480,2,0,P|320:56|276:48,1,84.4999961318971
196,24,17850,6,0,P|160:104|224:192,1,168.999992263794,4|0,0:0|0:0,0:0:0:0:
292,192,18406,1,0,0:0:0:0:
256,96,18591,2,0,L|80:96,1,168.999992263794,0|4,0:0|0:0,0:0:0:0:
60,308,19333,1,4,0:0:0:0:
264,312,19703,1,4,0:0:0:0:
364,136,20074,6,0,L|368:232,1,84.4999961318971
276,176,20444,2,0,L|280:80,1,84.4999961318971,4|0,0:0|0:0,0:0:0:0:
192,40,20815,6,0,P|116:32|44:116,1,168.999992263794,4|0,0:0|0:0,0:0:0:0:
144,128,21371,1,0,0:0:0:0:
96,216,21556,2,0,P|172:224|244:140,1,168.999992263794,0|4,0:0|0:0,0:0:0:0:
320,56,22112,1,0,0:0:0:0:
396,112,22297,6,0,L|480:108,1,84.4999961318971,4|0,0:0|0:0,0:0:0:0:
508,204,22668,2,0,L|424:200,1,84.4999961318971
324,196,23039,2,0,P|312:244|324:288,1,84.4999961318971,4|4,0:0|0:0,0:0:0:0:
356,372,23409,2,4,L|264:368,1,84.4999961318971,4|0,0:0|0:0,0:0:0:0:
196,304,23780,5,0,2:0:0:0:
196,304,24150,2,0,P|200:256|180:164,1,130,0|8,0:0|0:0,0:0:0:0:
128,52,24892,1,0,0:0:0:0:
128,52,25262,2,0,P|176:56|268:36,1,130
324,4,25818,1,0,0:0:0:0:
376,60,26003,2,0,P|372:96|380:148,1,65,8|0,0:0|0:0,0:0:0:0:
408,196,26374,1,0,0:0:0:0:
340,232,26559,1,0,0:0:0:0:
276,184,26745,6,0,P|232:176|128:216,1,130
232,332,27486,1,8,0:0:0:0:
232,332,27856,2,0,P|276:340|380:300,1,130
404,256,28412,1,0,0:0:0:0:
372,184,28598,2,0,L|296:180,1,65
244,132,28968,2,8,L|168:128,1,65
100,136,29339,2,0,P|92:176|96:212,1,65
144,260,29709,5,0,0:0:0:0:
144,260,30080,2,0,P|196:264|288:292,1,130,0|8,0:0|0:0,0:0:0:0:
372,164,30821,1,0,0:0:0:0:
372,164,31192,2,0,L|228:160,1,130
168,140,31748,1,0,0:0:0:0:
216,80,31933,2,0,P|220:44|216:4,1,65,8|0,0:0|0:0,0:0:0:0:
140,4,32304,2,0,L|60:8,1,65
24,68,32674,5,0,0:0:0:0:
24,68,33045,2,0,P|36:124|36:220,1,130,0|8,0:0|0:0,0:0:0:0:
56,340,33786,1,0,0:0:0:0:
56,340,34157,2,0,P|108:336|204:356,1,130
260,332,34713,1,0,0:0:0:0:
336,312,34898,2,0,L|332:240,1,65,8|8,0:0|0:0,0:0:0:0:
324,168,35268,2,0,P|288:164|248:172,1,65
192,208,35639,5,0,0:0:0:0:
192,208,36010,2,0,P|184:168|216:80,1,130,0|8,0:0|0:0,0:0:0:0:
364,44,36751,1,0,0:0:0:0:
364,44,37121,2,0,L|360:188,1,130
336,248,37677,1,0,0:0:0:0:
268,208,37863,2,0,P|232:208|200:216,1,65,8|0,0:0|0:0,0:0:0:0:
160,280,38233,2,0,P|124:280|92:272,1,65
40,220,38604,5,0,0:0:0:0:
40,220,38974,2,0,P|28:172|52:88,1,130,0|8,0:0|0:0,0:0:0:0:
96,32,39530,1,0,0:0:0:0:
156,84,39716,2,0,L|224:80,1,65
292,44,40086,2,0,P|300:80|296:112,1,65
256,172,40457,1,0,0:0:0:0:
312,224,40642,1,0,0:0:0:0:
388,236,40827,1,8,0:0:0:0:
468,232,41013,2,0,P|472:264|464:312,2,65,8|0|0,0:0|0:0|0:0,0:0:0:0:
444,152,41569,6,0,P|404:136|312:168,1,130
292,228,42125,1,0,0:0:0:0:
260,300,42310,2,0,P|220:316|128:284,1,130,8|0,0:0|0:0,0:0:0:0:
96,228,42866,1,0,0:0:0:0:
64,156,43051,2,0,L|0:152,1,65
16,76,43422,2,0,L|80:80,1,65
152,112,43792,1,8,0:0:0:0:
152,112,44163,6,0,P|164:152|164:184,1,65
128,244,44533,1,0,0:0:0:0:
144,320,44719,1,0,0:0:0:0:
212,284,44904,2,0,L|300:280,1,65
356,288,45275,2,0,L|444:284,1,65,8|0,0:0|0:0,0:0:0:0:
492,252,45645,2,0,P|492:212|484:176,1,65
460,112,46016,1,0,0:0:0:0:
404,60,46201,1,0,0:0:0:0:
332,96,46386,1,0,0:0:0:0:
272,44,46572,1,8,0:0:0:0:
220,104,46757,6,0,P|176:124|80:80,1,130,0|8,0:0|0:0,0:0:0:0:
236,252,47498,6,0,P|288:280|400:256,1,168.999992263794,4|0,0:0|0:0,0:0:0:0:
320,192,48054,1,0,0:0:0:0:
404,132,48239,2,0,P|352:104|240:128,2,168.999992263794,4|0|0,0:0|0:0|0:0,0:0:0:0:
208,184,49351,1,0,0:0:0:0:
356,48,49722,6,0,L|456:44,1,84.4999961318971
464,144,50092,2,0,L|364:140,1,84.4999961318971,4|0,0:0|0:0,0:0:0:0:
276,144,50463,6,0,P|240:220|296:300,1,168.999992263794,4|0,0:0|0:0,0:0:0:0:
380,288,51019,1,0,0:0:0:0:
332,216,51204,2,0,L|136:216,1,168.999992263794,0|4,0:0|0:0,0:0:0:0:
24,364,51945,1,4,0:0:0:0:
68,164,52316,1,4,0:0:0:0:
220,300,52687,6,0,P|256:304|308:296,1,84.4999961318971
368,220,53057,2,0,P|404:216|456:224,1,84.4999961318971
392,304,53428,6,0,P|336:300|284:204,1,168.999992263794,4|0,0:0|0:0,0:0:0:0:
332,120,53984,1,0,0:0:0:0:
368,220,54169,2,0,L|244:348,1,168.999992263794,0|4,0:0|0:0,0:0:0:0:
72,216,54910,1,4,0:0:0:0:
260,140,55281,1,4,0:0:0:0:
352,320,55651,6,0,B|356:280|356:280|352:228,1,84.4999961318971
444,196,56022,2,0,B|440:156|440:156|443:111,1,84.4999961318971,4|0,0:0|0:0,0:0:0:0:
392,24,56393,6,0,P|336:12|244:100,1,168.999992263794,4|0,0:0|0:0,0:0:0:0:
340,104,56948,1,0,0:0:0:0:
284,188,57134,2,0,P|340:200|432:112,2,168.999992263794,0|4|0,0:0|0:0|0:0,0:0:0:0:
192,136,58060,1,0,0:0:0:0:
104,184,58246,6,0,L|108:276,1,84.4999961318971,4|0,0:0|0:0,0:0:0:0:
196,316,58616,2,0,L|200:224,1,84.4999961318971,4|0,0:0|0:0,0:0:0:0:
168,136,58987,1,0,0:0:0:0:
112,48,59172,1,4,0:0:0:0:
112,48,59357,1,0,1:0:0:0:
112,48,60469,5,0,0:0:0:0:
200,68,60654,2,0,L|284:64,1,65
348,88,61025,1,0,0:0:0:0:
408,140,61210,2,0,P|412:184|408:212,1,65
356,260,61581,1,8,0:0:0:0:
288,224,61766,1,0,0:0:0:0:
228,272,61952,2,0,L|152:268,1,65
92,232,62322,5,0,0:0:0:0:
92,232,62693,2,0,P|104:184|96:92,1,130,0|8,0:0|0:0,0:0:0:0:
236,32,63434,1,0,0:0:0:0:
236,32,63805,2,0,L|232:176,1,130
272,228,64360,1,0,0:0:0:0:
336,184,64546,2,8,P|368:184|408:192,1,65
452,252,64916,2,8,L|448:328,1,65
384,364,65287,5,0,0:0:0:0:
384,364,65658,2,0,P|332:360|232:372,1,130,0|8,0:0|0:0,0:0:0:0:
164,240,66399,1,0,0:0:0:0:
164,240,66769,2,0,P|216:244|316:232,1,130
352,184,67325,1,0,0:0:0:0:
428,204,67511,2,0,L|424:288,2,65,8|0|0,0:0|0:0|0:0,0:0:0:0:
432,124,68066,1,0,0:0:0:0:
388,60,68252,6,0,P|352:56|236:96,1,130
212,228,68993,1,8,0:0:0:0:
212,228,69364,2,0,P|168:224|100:156,1,130
116,92,69919,1,0,0:0:0:0:
184,56,70105,2,0,L|264:60,1,65
320,96,70475,2,0,L|400:100,1,65,8|8,0:0|0:0,0:0:0:0:
460,80,70846,1,0,0:0:0:0:
480,156,71031,1,8,0:0:0:0:
444,224,71217,6,0,P|416:248|304:248,1,130
264,116,71958,2,0,P|229:103|124:141,1,130,8|0,0:0|0:0,0:0:0:0:
196,261,72699,2,0,L|344:257,1,130
393,112,73440,2,0,L|245:116,1,130,8|0,0:0|0:0,0:0:0:0:
188,140,73996,1,0,0:0:0:0:
112,120,74181,6,0,P|116:84|104:48,1,65
36,92,74552,2,0,P|36:160|84:200,1,130,0|8,0:0|0:0,0:0:0:0:
160,176,75108,1,0,0:0:0:0:
236,196,75293,2,0,L|232:276,1,65
284,320,75664,1,0,0:0:0:0:
368,188,76034,1,0,0:0:0:0:
452,320,76405,2,0,P|412:320|384:328,1,65
332,380,76776,1,0,0:0:0:0:
284,320,76961,1,0,0:0:0:0:
284,320,77146,6,0,P|280:276|296:184,1,130
336,124,77702,1,0,0:0:0:0:
380,60,77887,2,0,P|420:60|448:64,1,65,8|0,0:0|0:0,0:0:0:0:
492,128,78258,2,0,L|488:200,1,65
448,260,78629,6,0,P|408:272|312:232,1,130
296,176,79184,2,0,L|152:180,1,130
96,148,79740,2,0,P|88:104|132:16,2,130
166,179,80667,2,0,P|174:223|130:311,1,130
72,336,81223,1,0,0:0:0:0:
256,192,81593,12,0,82705,0:0:0:0:
144,92,83076,6,0,P|212:104|264:192,1,168.999992263794,4|0,0:0|0:0,0:0:0:0:
232,272,83632,1,0,0:0:0:0:
168,192,83817,2,0,L|280:16,1,168.999992263794,0|4,0:0|0:0,0:0:0:0:
316,244,84558,1,4,0:0:0:0:
112,260,84929,1,4,0:0:0:0:
252,112,85299,6,0,B|292:116|292:116|344:112,1,84.4999961318971
364,212,85670,2,0,B|404:208|404:208|456:212,1,84.4999961318971,4|0,0:0|0:0,0:0:0:0:
396,300,86040,6,0,P|344:304|268:200,1,168.999992263794,4|0,0:0|0:0,0:0:0:0:
308,132,86596,1,0,0:0:0:0:
364,212,86782,2,0,L|248:344,1,168.999992263794,0|4,0:0|0:0,0:0:0:0:
132,180,87523,1,4,0:0:0:0:
324,112,87893,1,0,0:0:0:0:
176,252,88264,6,4,P|120:260|88:248,1,84.4999961318971,4|0,0:0|0:0,0:0:0:0:
136,344,88635,2,4,P|192:336|224:348,1,84.4999961318971,4|0,0:0|0:0,0:0:0:0:
312,312,89005,1,4,0:0:0:0:
256,192,89191,12,0,91970,0:0:0:0:
