osu file format v14

[General]
AudioFilename: audio.mp3
AudioLeadIn: 0
PreviewTime: 231272
Countdown: 0
SampleSet: Soft
StackLeniency: 0.4
Mode: 0
LetterboxInBreaks: 0
WidescreenStoryboard: 0

[Editor]
DistanceSpacing: 1
BeatDivisor: 4
GridSize: 32
TimelineZoom: 2.2

[Metadata]
Title:OvertuRe:
TitleUnicode:OvertuRe:
Artist:KiRaRe
ArtistUnicode:KiRaRe
Creator:MiyohashiKoori
Version:It's KiRaRe!!!!
Source:Re:ステージ! ドリームデイズ♪
Tags:Re:ステージ!プリズムステップ re:stage! prism step restage dream days rst japanese video game anime キラリ 式宮舞菜 Shikimiya Mana 月坂紗由 Tsukisaka Sayu 市杵島瑞葉 Ichikishima Mizuha 柊かえ Hiiragi Kae 本城香澄 Honjou Kasumi 長谷川みい Hasegawa Mii 牧野天音 Makino Amane 鬼頭明里 Kitou Akari 田澤茉純 Tazawa Masumi 立花芽恵夢 Tachibana Meemu 岩橋由佳 Iwahashi Yuka 空見ゆき Sorami Yuki DRe:AMER Hey lululu ThoG11k pop j-pop jpop
BeatmapID:2823332
BeatmapSetID:1364768

[Difficulty]
HPDrainRate:5
CircleSize:4
OverallDifficulty:9.2
ApproachRate:9.5
SliderMultiplier:1.8
SliderTickRate:1

[Events]
//Background and Video events
0,0,"mana.jpg",0,0
//Break Periods
2,231483,237508
//Storyboard Layer 0 (Background)
//Storyboard Layer 1 (Fail)
//Storyboard Layer 2 (Pass)
//Storyboard Layer 3 (Foreground)
//Storyboard Layer 4 (Overlay)
//Storyboard Sound Samples

[TimingPoints]
-627,337.078651685393,4,2,1,40,1,0
721,-133.333333333333,4,2,1,40,0,0
2069,-133.333333333333,4,2,2,40,0,0
2153,-133.333333333333,4,2,1,40,0,0
3417,-133.333333333333,4,2,3,40,0,0
3502,-133.333333333333,4,2,1,40,0,0
3923,-133.333333333333,4,2,1,50,0,0
5608,-133.333333333333,4,2,1,40,0,0
6114,-133.333333333333,4,2,4,50,0,0
6199,-133.333333333333,4,2,1,50,0,0
7462,-133.333333333333,4,2,3,50,0,0
8811,-133.333333333333,4,2,3,30,0,0
9738,-133.333333333333,4,2,3,5,0,0
9822,-400,4,2,5,50,0,0
10075,-400,4,2,5,5,0,0
10159,-133.333333333333,4,2,5,60,0,0
11423,-133.333333333333,4,2,5,5,0,0
11507,-133.333333333333,4,2,5,60,0,0
28951,-133.333333333333,4,2,5,5,0,0
29035,-133.333333333333,4,2,6,60,0,0
29878,-133.333333333333,4,2,6,5,0,0
29962,-133.333333333333,4,2,6,60,0,0
31395,-100,4,2,6,70,0,0
41760,-100,4,2,6,5,0,0
41844,-100,4,2,6,70,0,0
45215,-100,4,2,6,60,0,0
50608,-90.9090909090909,4,2,6,70,0,0
52715,-90.9090909090909,4,2,6,5,0,0
52799,-90.9090909090909,4,2,6,70,0,0
53052,-90.9090909090909,4,2,6,5,0,0
53137,-90.9090909090909,4,2,6,70,0,0
55075,-90.9090909090909,4,2,6,5,0,0
55159,-90.9090909090909,4,2,6,70,0,0
55412,-90.9090909090909,4,2,6,5,0,0
55496,-90.9090909090909,4,2,6,70,0,0
56002,-100,4,2,6,80,0,1
56255,-100,4,2,6,5,0,1
56339,-100,4,2,6,80,0,1
56592,-100,4,2,6,5,0,1
56676,-100,4,2,6,80,0,1
56929,-100,4,2,6,5,0,1
57013,-100,4,2,6,80,0,1
57519,-100,4,2,6,5,0,1
57603,-100,4,2,6,80,0,1
57771,-100,4,2,6,5,0,1
57855,-100,4,2,6,80,0,1
57940,-100,4,2,6,5,0,1
58024,-100,4,2,6,80,0,1
58277,-100,4,2,6,5,0,1
58361,-100,4,2,6,80,0,1
58951,-100,4,2,6,5,0,1
59035,-100,4,2,6,80,0,1
59288,-100,4,2,6,5,0,1
59372,-100,4,2,6,80,0,1
59625,-100,4,2,6,5,0,1
59709,-100,4,2,6,80,0,1
59962,-100,4,2,6,5,0,1
60046,-100,4,2,6,80,0,1
60215,-100,4,2,6,5,0,1
60299,-100,4,2,6,80,0,1
60468,-100,4,2,6,5,0,1
60552,-100,4,2,6,80,0,1
60637,-100,4,2,6,5,0,1
60721,-100,4,2,6,80,0,1
60805,-100,4,2,6,5,0,1
60889,-100,4,2,6,80,0,1
61395,-90.9090909090909,4,2,6,80,0,1
61564,-90.9090909090909,4,2,6,5,0,1
61648,-90.9090909090909,4,2,6,80,0,1
61816,-90.9090909090909,4,2,6,5,0,1
61900,-90.9090909090909,4,2,6,80,0,1
61985,-90.9090909090909,4,2,6,5,0,1
62069,-90.9090909090909,4,2,6,80,0,1
62238,-90.9090909090909,4,2,6,5,0,1
62322,-90.9090909090909,4,2,6,80,0,1
62490,-90.9090909090909,4,2,6,5,0,1
62574,-90.9090909090909,4,2,6,80,0,1
62659,-90.9090909090909,4,2,6,5,0,1
62743,-90.9090909090909,4,2,6,80,0,1
62996,-90.9090909090909,4,2,6,5,0,1
63080,-90.9090909090909,4,2,6,80,0,1
66788,-100,4,2,6,80,0,1
67041,-100,4,2,6,5,0,1
67125,-100,4,2,6,80,0,1
67378,-100,4,2,6,5,0,1
67462,-100,4,2,6,80,0,1
67715,-100,4,2,6,5,0,1
67799,-100,4,2,6,80,0,1
68052,-100,4,2,6,5,0,1
68136,-100,4,2,6,80,0,1
68305,-100,4,2,6,5,0,1
68389,-100,4,2,6,80,0,1
68558,-100,4,2,6,5,0,1
68642,-100,4,2,6,80,0,1
68726,-100,4,2,6,5,0,1
68810,-100,4,2,6,80,0,1
69738,-100,4,2,6,5,0,1
69822,-100,4,2,6,80,0,1
70833,-66.6666666666667,4,2,6,80,0,1
70946,-66.6666666666667,4,2,6,5,0,1
71058,-66.6666666666667,4,2,6,80,0,1
71170,-66.6666666666667,4,2,6,5,0,1
71282,-66.6666666666667,4,2,6,80,0,1
71395,-66.6666666666667,4,2,6,5,0,1
71507,-66.6666666666667,4,2,6,80,0,1
71620,-66.6666666666667,4,2,6,5,0,1
71732,-66.6666666666667,4,2,6,80,0,1
71844,-66.6666666666667,4,2,6,5,0,1
71956,-66.6666666666667,4,2,6,80,0,1
72069,-66.6666666666667,4,2,6,5,0,1
72181,-111.111111111111,4,2,6,80,0,1
72434,-111.111111111111,4,2,6,5,0,1
72519,-111.111111111111,4,2,6,80,0,1
73530,-90.9090909090909,4,2,6,80,0,1
74457,-90.9090909090909,4,2,6,5,0,1
74541,-90.9090909090909,4,2,6,80,0,1
74794,-90.9090909090909,4,2,6,5,0,1
74878,-90.9090909090909,4,2,6,80,0,1
76479,-90.9090909090909,4,2,6,5,0,1
76563,-90.9090909090909,4,2,6,80,0,1
77153,-90.9090909090909,4,2,6,5,0,1
77237,-90.9090909090909,4,2,6,80,0,1
84064,-90.9090909090909,4,2,6,5,0,1
84148,-90.9090909090909,4,2,6,80,0,1
84232,-90.9090909090909,4,2,6,5,0,1
84316,-90.9090909090909,4,2,6,80,0,1
84822,-66.6666666666667,4,2,6,80,0,1
85075,-66.6666666666667,4,2,6,5,0,1
85159,-66.6666666666667,4,2,6,80,0,1
85412,-66.6666666666667,4,2,6,5,0,1
85496,-100,4,2,6,80,0,0
88614,-100,4,2,6,5,0,0
88698,-100,4,2,6,80,0,0
89625,-100,4,2,6,5,0,0
89710,-100,4,2,6,80,0,0
91058,-133.333333333333,4,2,5,60,0,0
112631,-100,4,2,6,70,0,0
114148,-66.6666666666667,4,2,6,70,0,0
114485,-100,4,2,6,70,0,0
114990,-200,4,2,6,70,0,0
115328,-100,4,2,6,70,0,0
118024,-66.6666666666667,4,2,6,70,0,0
118361,-100,4,2,6,70,0,0
118446,-100,4,2,6,5,0,0
118530,-100,4,2,6,70,0,0
120805,-100,4,2,6,5,0,0
120889,-100,4,2,6,70,0,0
120974,-100,4,2,6,5,0,0
121058,-100,4,2,6,70,0,0
122153,-100,4,2,6,5,0,0
122238,-100,4,2,6,70,0,0
122322,-100,4,2,6,5,0,0
122406,-90.9090909090909,4,2,6,70,0,0
122743,-83.3333333333333,4,2,6,70,0,0
123080,-76.9230769230769,4,2,6,70,0,0
123417,-100,4,2,6,70,0,0
131507,-90.9090909090909,4,2,6,70,0,0
133614,-90.9090909090909,4,2,6,5,0,0
133698,-90.9090909090909,4,2,6,70,0,0
133951,-90.9090909090909,4,2,6,5,0,0
134035,-90.9090909090909,4,2,6,70,0,0
135974,-90.9090909090909,4,2,6,5,0,0
136058,-90.9090909090909,4,2,6,70,0,0
136311,-90.9090909090909,4,2,6,5,0,0
136395,-90.9090909090909,4,2,6,70,0,0
136901,-100,4,2,7,80,0,1
137153,-100,4,2,7,5,0,1
137238,-100,4,2,7,80,0,1
142294,-90.9090909090909,4,2,7,80,0,1
146339,-90.9090909090909,4,2,6,80,0,1
147687,-100,4,2,6,80,0,1
148277,-100,4,2,6,5,0,1
148361,-100,4,2,6,80,0,1
148614,-100,4,2,6,5,0,1
148698,-100,4,2,6,80,0,1
149204,-100,4,2,6,5,0,1
149288,-100,4,2,6,80,0,1
149457,-100,4,2,6,5,0,1
149541,-100,4,2,6,80,0,1
149625,-100,4,2,6,5,0,1
149709,-100,4,2,6,80,0,1
150637,-100,4,2,6,5,0,1
150721,-100,4,2,6,80,0,1
151732,-66.6666666666667,4,2,6,80,0,1
151844,-66.6666666666667,4,2,6,5,0,1
151956,-66.6666666666667,4,2,6,80,0,1
152069,-66.6666666666667,4,2,6,5,0,1
152181,-66.6666666666667,4,2,6,80,0,1
152294,-66.6666666666667,4,2,6,5,0,1
152406,-66.6666666666667,4,2,6,80,0,1
152519,-66.6666666666667,4,2,6,5,0,1
152631,-66.6666666666667,4,2,6,80,0,1
152743,-66.6666666666667,4,2,6,5,0,1
152855,-66.6666666666667,4,2,6,80,0,1
152968,-66.6666666666667,4,2,6,5,0,1
153080,-111.111111111111,4,2,6,80,0,1
153333,-111.111111111111,4,2,6,5,0,1
153417,-111.111111111111,4,2,6,80,0,1
154429,-100,4,2,6,80,0,1
155356,-100,4,2,6,5,0,1
155440,-100,4,2,6,80,0,1
155693,-100,4,2,6,5,0,1
155777,-90.9090909090909,4,2,6,80,0,1
157378,-90.9090909090909,4,2,6,5,0,1
157462,-90.9090909090909,4,2,6,80,0,1
158052,-90.9090909090909,4,2,6,5,0,1
158136,-90.9090909090909,4,2,6,80,0,1
164625,-90.9090909090909,4,2,6,5,0,1
164709,-90.9090909090909,4,2,6,80,0,1
164794,-90.9090909090909,4,2,6,5,0,1
164878,-90.9090909090909,4,2,6,80,0,1
165721,-66.6666666666667,4,2,6,80,0,1
165974,-66.6666666666667,4,2,6,5,0,1
166058,-66.6666666666667,4,2,6,80,0,1
166395,-66.6666666666667,4,2,6,80,0,0
166564,-100,4,2,6,60,0,0
167912,-100,4,2,4,60,0,0
167996,-100,4,2,6,60,0,0
168755,-100,4,2,7,60,0,0
169176,-100,4,2,7,5,0,0
169260,-100,4,2,8,60,0,0
169344,-100,4,2,7,60,0,0
170440,-66.6666666666667,4,2,7,60,0,0
170777,-100,4,2,7,60,0,0
175328,-100,4,2,7,70,0,0
177687,-133.333333333333,4,2,6,80,0,0
179288,-133.333333333333,4,2,6,5,0,0
179372,-133.333333333333,4,2,6,80,0,0
179962,-133.333333333333,4,2,6,5,0,0
180047,-133.333333333333,4,2,6,80,0,0
185693,-133.333333333333,4,2,6,5,0,0
185777,-133.333333333333,4,2,6,80,0,0
186788,-133.333333333333,4,2,7,70,0,0
188137,-133.333333333333,4,2,6,60,0,0
193361,-133.333333333333,4,2,6,70,0,0
199260,-100,4,2,6,80,0,0
199344,-100,4,2,6,5,0,0
199429,-100,4,2,6,80,0,0
199681,-100,4,2,6,5,0,0
199766,-100,4,2,6,80,0,0
201620,-66.6666666666667,4,2,7,80,0,0
204316,-100,4,2,6,80,0,0
205580,-100,4,2,6,5,0,0
205665,-100,4,2,6,80,0,0
212322,-100,4,2,6,5,0,0
212406,-100,4,2,6,80,0,0
216367,-100,4,2,6,5,0,0
216451,-100,4,2,6,80,0,0
219064,-100,4,2,6,5,0,0
219148,-100,4,2,6,80,0,0
225889,-66.6666666666667,4,2,6,80,0,0
226395,-200,4,2,6,80,0,0
226901,-66.6666666666667,4,2,6,80,0,0
227406,-200,4,2,6,80,0,0
227912,-66.6666666666667,4,2,6,80,0,0
228165,-66.6666666666667,4,2,6,5,0,0
228249,-66.6666666666667,4,2,6,80,0,0
228333,-66.6666666666667,4,2,6,5,0,0
228417,-100,4,2,7,80,0,0
229513,-100,4,2,7,80,0,0
229597,-100,4,2,7,80,0,0
229934,-100,4,2,6,80,0,0
230440,-100,4,2,7,80,0,0
232264,365.853658536585,4,2,7,80,1,0
232631,337.078651685393,4,2,7,70,1,0
233285,346.820809248555,4,2,7,70,1,0
233785,389.61038961039,4,2,7,70,1,0
233979,337.078651685393,4,2,7,60,1,0
234653,306.122448979592,4,2,7,60,1,0
234960,344.827586206897,4,2,7,60,1,0
235305,333.333333333333,4,2,7,60,1,0
235328,-100,4,2,7,50,0,0
235971,324.324324324324,4,2,7,50,1,0
236296,337.078651685393,4,2,7,50,1,0
236653,337.078651685393,4,2,7,50,1,0
238033,337.078651685393,4,2,6,80,1,1
238033,-90.9090909090909,4,2,6,80,0,1
238285,-90.9090909090909,4,2,6,5,0,1
238370,-90.9090909090909,4,2,6,80,0,1
238622,-90.9090909090909,4,2,6,5,0,1
238707,-90.9090909090909,4,2,6,80,0,1
239382,-90.9090909090909,4,2,7,70,0,1
240731,-90.9090909090909,4,2,6,70,0,1
240982,-90.9090909090909,4,2,6,5,0,1
241066,-90.9090909090909,4,2,6,70,0,1
242077,-100,4,2,6,80,0,1
242079,-100,4,2,6,80,0,1
242667,-100,4,2,6,5,0,1
242752,-100,4,2,6,80,0,1
243004,-100,4,2,6,5,0,1
243089,-100,4,2,6,80,0,1
243594,-100,4,2,6,5,0,1
243679,-100,4,2,6,80,0,1
243847,-100,4,2,6,5,0,1
243932,-100,4,2,6,80,0,1
244016,-100,4,2,6,5,0,1
244101,-100,4,2,6,80,0,1
245027,-100,4,2,6,5,0,1
245112,-100,4,2,6,80,0,1
246122,-66.6666666666667,4,2,6,80,0,1
246235,-66.6666666666667,4,2,6,5,0,1
246347,-66.6666666666667,4,2,6,80,0,1
246459,-66.6666666666667,4,2,6,5,0,1
246571,-66.6666666666667,4,2,6,80,0,1
246684,-66.6666666666667,4,2,6,5,0,1
246796,-66.6666666666667,4,2,6,80,0,1
246909,-66.6666666666667,4,2,6,5,0,1
247021,-66.6666666666667,4,2,6,80,0,1
247134,-66.6666666666667,4,2,6,5,0,1
247246,-66.6666666666667,4,2,6,80,0,1
247358,-66.6666666666667,4,2,6,5,0,1
247471,-111.111111111111,4,2,6,80,0,1
247724,-111.111111111111,4,2,6,5,0,1
247808,-111.111111111111,4,2,6,80,0,1
248482,-100,4,2,6,80,0,1
250841,-66.6666666666667,4,2,6,80,0,1
251010,-66.6666666666667,4,2,6,5,0,1
251094,-66.6666666666667,4,2,6,80,0,1
251263,-66.6666666666667,4,2,6,5,0,1
251347,-66.6666666666667,4,2,6,80,0,1
251431,-66.6666666666667,4,2,6,5,0,1
251516,-66.6666666666667,4,2,6,80,0,1
252190,-90.9090909090909,4,2,6,80,0,1
252443,-90.9090909090909,4,2,6,5,0,1
252527,-90.9090909090909,4,2,6,80,0,1
262386,-90.9090909090909,4,2,6,5,0,1
262471,-90.9090909090909,4,2,6,80,0,1
263313,-100,4,2,6,80,0,0
263398,-100,4,2,6,5,0,0
263399,-100,4,2,6,5,0,0
265673,-100,4,2,6,80,0,0
265675,-100,4,2,6,80,0,0
270308,-100,4,2,6,5,0,0
270392,-100,4,2,6,80,0,0
274437,-80,4,2,6,80,0,0
274690,-80,4,2,6,5,0,0
274774,-100,4,2,6,80,0,0
275027,-100,4,2,6,5,0,0
275111,-133.333333333333,4,2,6,80,0,0
275113,413.793103448276,4,2,6,80,1,0
275319,309.278350515464,4,2,6,80,1,0
275473,291.26213592233,4,2,6,80,1,0
275618,337.078651685393,4,2,6,80,1,0
275618,-66.6666666666667,4,2,6,80,0,0
275787,337.078651685393,4,2,6,80,1,0
275871,-100,4,2,6,5,0,0
275955,-100,4,2,6,80,0,0
276124,-100,4,2,6,80,0,0
276461,-200,4,2,7,80,0,0
276966,-80,4,2,6,80,0,0
276967,-80,4,2,6,80,0,0
277809,-66.6666666666667,4,2,6,80,0,0
278652,-66.6666666666667,4,2,7,80,0,0
279157,-133.333333333333,4,2,6,80,0,0
279158,-133.333333333333,4,2,6,80,0,0
279410,-133.333333333333,4,2,6,5,0,0
279494,-66.6666666666667,4,2,6,80,0,0
279579,-66.6666666666667,4,2,6,5,0,0
279663,-200,4,2,6,80,0,0
281180,-200,4,2,6,70,0,0
282529,-200,4,2,6,60,0,0
283877,-200,4,2,6,50,0,0
285225,-200,4,2,6,40,0,0
285562,-200,4,2,6,20,0,0
285899,-200,4,2,6,10,0,0
286236,-200,4,2,6,5,0,0

[Colours]
Combo1 : 255,128,128
Combo2 : 255,255,128
Combo3 : 255,106,181
Combo4 : 255,128,0

[HitObjects]
89,289,552,5,2,0:3:0:0:
96,300,637,1,2,0:3:0:0:
103,312,721,6,0,L|176:306,2,67.5000025749208,4|0|2,0:0|0:0|0:0,0:0:0:0:
32,375,1226,1,2,0:0:0:0:
0,139,1564,2,0,B|38:115|86:118|62:132|104:141|152:109,1,135.000005149842,2|0,0:0|0:0,0:0:0:0:
212,16,2069,6,0,B|221:49|221:49|202:99,2,67.5000025749208,4|2|0,0:0|0:0|0:0,0:0:0:0:
132,47,2575,1,2,0:0:0:0:
327,159,3080,1,2,0:0:0:0:
247,213,3249,1,2,0:3:0:0:
253,232,3333,1,2,0:3:0:0:
259,251,3417,6,0,B|308:268|356:246|322:233|370:219|403:229|403:229|404:257|427:281,1,202.500007724762,4|2,0:0|0:0,0:0:0:0:
317,338,4260,1,2,0:0:0:0:
259,251,4429,1,2,0:0:0:0:
58,325,4766,6,0,B|112:317|133:336|133:336|153:313|191:299|191:299|157:316|124:296,1,202.500007724762,2|2,0:0|0:0,0:0:0:0:
31,225,5608,2,0,P|27:200|5:141,1,67.5000025749208,2|2,0:3|0:3,0:0:0:0:
114,195,5946,1,2,0:3:0:0:
135,192,6030,1,2,0:3:0:0:
150,179,6114,6,0,B|177:133|231:148|231:148|251:185|231:210,1,135.000005149842,4|0,0:0|0:0,0:0:0:0:
198,275,6620,2,0,L|207:351,1,67.5000025749208,2|0,0:0|0:0,0:0:0:0:
277,262,6957,1,2,0:0:0:0:
118,285,7125,1,2,0:0:0:0:
118,285,7462,6,0,B|146:316|154:369|108:391|57:396|31:361|24:318|46:257|65:296|104:239|123:181|121:142|53:113|-44:96|-47:184|-24:251|38:291|75:242|120:200,1,540.000020599366,4|4,0:0|0:0,0:0:0:0:
102,216,9653,2,0,L|106:169,1,33.7500012874604,2|0,0:0|0:0,0:0:0:0:
194,146,9822,6,0,L|191:183,1,33.75,2|0,3:2|0:0,0:0:0:0:
240,241,10159,6,0,L|252:324,2,67.5000025749208,0|0|8,3:0|0:0|0:0,0:0:0:0:
295,175,10665,2,0,P|336:177|369:155,1,67.5000025749208,2|8,0:0|0:0,0:0:0:0:
380,89,11002,1,0,0:0:0:0:
487,222,11170,2,0,P|473:161|429:122,1,101.250003862381,10|0,0:0|0:0,0:0:0:0:
380,89,11507,6,0,B|338:91|305:76|338:63|291:47|241:53,1,135.000005149842,2|8,0:0|0:0,0:0:0:0:
181,186,12013,2,0,P|263:167|256:121,1,135.000005149842,2|2,0:0|0:0,0:0:0:0:
121,133,12519,1,8,0:0:0:0:
101,206,12687,1,0,3:0:0:0:
23,73,12856,6,0,L|96:61,1,67.5000025749208,0|0,3:0|0:0,0:0:0:0:
287,26,13193,1,8,0:0:0:0:
287,26,13361,2,0,B|265:11|232:19|232:19|218:14|218:14|190:22|152:4,1,135.000005149842,2|0,0:0|0:0,0:0:0:0:
162,98,13867,2,0,P|172:134|177:176,1,67.5000025749208,10|0,0:0|0:0,0:0:0:0:
276,212,14204,6,0,P|282:171|296:142,1,67.5000025749208,2|0,0:0|0:0,0:0:0:0:
354,94,14541,1,8,0:0:0:0:
468,180,14710,2,0,P|481:208|478:246,1,67.5000025749208,2|8,3:2|0:0,0:0:0:0:
385,310,15047,2,0,L|397:379,2,67.5000025749208,2|8|0,3:2|0:0|3:0,0:0:0:0:
266,228,15552,6,0,B|331:223|331:223|351:229|351:229|409:226,1,135.000005149842,2|8,3:2|0:0,0:0:0:0:
360,152,16058,1,2,0:0:0:0:
202,179,16226,2,0,P|183:215|195:258,1,67.5000025749208,8|0,0:0|0:0,0:0:0:0:
276,149,16564,2,0,P|254:114|211:103,1,67.5000025749208,10|0,0:0|0:0,0:0:0:0:
266,228,16901,6,0,P|326:213|360:138,1,135.000005149842,2|0,0:0|0:0,0:0:0:0:
483,75,17406,2,0,B|450:112|450:112|462:154|445:199,1,135.000005149842,2|0,3:2|0:0,0:0:0:0:
495,289,17912,1,10,0:0:0:0:
446,195,18080,1,0,3:0:0:0:
512,363,18249,6,0,B|485:372|454:357|454:357|444:358|444:358|409:341|356:362,1,135.000005149842,2|8,3:2|0:0,0:0:0:0:
277,286,18755,2,0,L|265:359,2,67.5000025749208,2|8|0,0:0|0:0|0:0,0:0:0:0:
375,227,19260,1,10,0:0:0:0:
301,151,19429,1,0,0:0:0:0:
301,151,19513,1,0,0:0:0:0:
301,151,19597,6,0,B|265:163|228:149|250:140|207:126|167:142,1,135.000005149842,2|8,0:0|0:0,0:0:0:0:
148,225,20103,1,2,0:2:0:0:
101,76,20271,1,8,0:0:0:0:
79,165,20440,1,0,3:2:0:0:
170,140,20608,1,2,3:2:0:0:
12,106,20777,1,8,3:0:0:0:
241,194,20946,6,0,B|264:147|264:147|277:98|235:60,1,135.000005149842,4|8,3:2|0:0,0:0:0:0:
356,114,21451,1,0,0:0:0:0:
332,272,21620,2,0,B|302:253|255:265|284:276|236:291|196:263,2,135.000005149842,10|10|2,0:0|0:0|0:0,0:0:0:0:
444,366,22462,6,0,P|451:325|458:293,1,67.5000025749208,0|8,0:0|0:0,0:0:0:0:
407,181,22799,2,0,P|355:201|337:289,1,135.000005149842
174,248,23305,1,10,0:0:0:0:
268,317,23474,1,0,3:0:0:0:
236,171,23642,6,0,P|269:119|348:115,1,135.000005149842,2|8,3:2|0:0,0:0:0:0:
407,181,24148,1,2,0:0:0:0:
305,273,24316,2,0,B|250:259|250:259|236:261|236:261|159:244,1,135.000005149842,8|8,0:0|0:0,0:0:0:0:
29,206,24822,1,0,0:0:0:0:
64,320,24990,6,0,B|57:282|84:246|90:274|116:234|105:181,1,135.000005149842,2|8,0:0|0:0,0:0:0:0:
64,131,25496,1,2,0:0:0:0:
148,120,25665,1,8,0:0:0:0:
96,59,25833,1,0,3:0:0:0:
190,190,26002,1,2,3:2:0:0:
229,61,26170,1,0,3:0:0:0:
327,153,26339,6,0,B|355:146|384:160|384:160|401:157|401:157|435:174|482:159,1,135.000005149842,2|8,3:2|0:0,0:0:0:0:
504,79,26844,1,2,0:0:0:0:
442,23,27013,2,0,P|411:1|363:6,1,67.5000025749208,8|0,0:0|0:0,0:0:0:0:
327,153,27350,2,0,P|361:137|381:93,1,67.5000025749208,10|0,0:0|0:0,0:0:0:0:
217,15,27687,6,0,L|229:172,1,135.000005149842,2|8,0:2|0:0,0:0:0:0:
197,229,28193,1,2,0:0:0:0:
14,36,28361,2,0,L|95:11,1,67.5000025749208,8|0,0:0|0:0,0:0:0:0:
227,149,28698,2,0,L|105:111,1,101.250003862381,10|0,0:0|0:0,0:0:0:0:
59,153,29035,6,0,B|15:195|15:195|-7:239|34:281,1,135.000005149842,4|0,3:2|0:0,0:0:0:0:
114,359,29541,1,2,3:2:0:0:
194,225,29710,2,0,L|117:204,1,67.5000025749208,8|0,3:2|0:0,0:0:0:0:
132,186,29962,2,0,L|171:195,1,33.7500012874604,8|0,3:2|0:0,0:0:0:0:
293,274,30215,1,8,3:2:0:0:
292,164,30384,1,0,0:0:0:0:
391,288,30552,5,2,3:2:0:0:
361,125,30721,1,0,0:0:0:0:
448,205,30890,2,0,B|477:208|477:208|512:194,1,67.5000025749208,10|2,3:2|0:0,0:0:0:0:
427,82,31226,1,0,0:0:0:0:
292,164,31395,1,2,3:2:0:0:
258,177,31479,1,0,3:2:0:0:
221,172,31564,1,0,3:2:0:0:
192,149,31648,1,0,3:2:0:0:
181,114,31732,5,4,3:2:0:0:
283,262,31901,1,0,3:2:0:0:
347,93,32069,1,0,3:2:0:0:
157,233,32238,5,10,3:2:0:0:
393,213,32406,1,0,3:2:0:0:
241,28,32575,1,0,3:2:0:0:
206,315,32743,1,12,3:2:0:0:
277,139,32912,6,0,L|178:133,1,90,0|0,3:2|3:2,0:0:0:0:
65,192,33249,1,8,3:2:0:0:
346,92,33417,1,8,3:2:0:0:
93,311,33586,1,0,3:2:0:0:
72,30,33755,5,8,3:2:0:0:
315,167,33923,2,0,P|286:170|270:167,1,45,8|8,3:2|3:2,0:0:0:0:
165,242,34092,2,0,P|175:209|186:202,1,45,0|0,3:2|3:2,0:0:0:0:
171,77,34260,2,0,P|192:99|194:115,1,45,8|8,3:3|3:3,0:0:0:0:
363,236,34429,6,0,P|399:181|346:92,1,180,4|0,3:2|3:2,0:0:0:0:
165,242,34934,1,10,3:2:0:0:
257,304,35103,2,0,B|289:315|316:302|316:302|343:331|393:326|393:326|408:303|432:294,1,180,0|14,3:2|3:2,0:0:0:0:
316,146,35608,6,0,P|279:171|272:230,1,90,0|0,0:0|3:2,0:0:0:0:
512,218,35946,2,0,B|475:177|428:197|428:197|386:234|332:210,1,180,10|10,3:2|3:2,0:0:0:0:
437,111,36451,1,2,3:2:0:0:
267,213,36620,1,2,0:0:0:0:
440,308,36788,1,2,3:2:0:0:
354,62,36957,1,0,3:2:0:0:
340,73,37041,1,0,3:2:0:0:
334,90,37125,6,0,B|296:73|254:89|254:89|236:82|236:82|194:97|143:79,1,180,4|0,3:2|3:2,0:0:0:0:
42,4,37631,1,10,3:2:0:0:
130,165,37799,2,0,P|138:109|168:76,1,90,0|0,3:2|0:0,0:0:0:0:
250,131,38137,1,14,3:2:0:0:
99,255,38305,2,0,P|46:276|2:266,1,90,0|0,0:0|3:2,0:0:0:0:
130,165,38642,5,10,3:2:0:0:
254,349,38811,1,0,3:2:0:0:
330,106,38979,1,10,3:2:0:0:
99,255,39148,2,0,L|189:264,1,90,2|2,3:2|0:0,0:0:0:0:
417,139,39485,1,6,3:2:0:0:
254,349,39653,1,2,0:0:0:0:
217,29,39822,5,4,3:2:0:0:
210,38,40159,1,0,3:2:0:0:
242,188,40328,1,10,3:2:0:0:
303,10,40496,1,0,3:2:0:0:
175,129,40665,1,0,0:0:0:0:
329,203,40833,2,0,P|329:155|285:111,1,90,14|0,3:2|0:0,0:0:0:0:
242,188,41086,1,0,0:0:0:0:
242,188,41170,5,0,3:2:0:0:
440,31,41339,1,10,3:2:0:0:
432,160,41507,2,0,B|338:153|388:122|290:121,1,135,0|0,3:2|0:0,0:0:0:0:
303,35,41844,2,0,P|315:75|303:123,1,90,4|0,3:2|3:0,0:0:0:0:
223,77,42097,1,0,3:2:0:0:
187,79,42181,1,8,3:3:0:0:
151,73,42266,1,8,3:3:0:0:
118,60,42350,1,8,3:3:0:0:
88,40,42434,1,8,3:3:0:0:
63,14,42519,6,0,B|25:31|28:85|28:85|35:92|35:92|45:137|16:182,1,180,4|0,3:2|0:0,0:0:0:0:
201,239,43024,2,0,P|161:217|131:165,1,90,10|0,3:2|3:2,0:0:0:0:
20,174,43361,1,0,0:0:0:0:
13,378,43530,2,0,P|91:330|211:330,1,180,14|0,3:2|0:0,0:0:0:0:
344,237,44035,1,10,3:2:0:0:
295,349,44204,1,0,3:2:0:0:
271,176,44373,1,10,3:2:0:0:
413,341,44541,5,10,3:2:0:0:
160,265,44710,1,8,3:2:0:0:
317,101,44878,1,10,3:2:0:0:
295,349,45047,1,8,3:2:0:0:
448,219,45215,6,0,B|424:217|398:222|398:222|381:199|337:193|337:193|309:222|257:209,1,180,4|2,3:2|3:2,0:0:0:0:
136,181,45721,1,8,3:2:0:0:
294,41,45889,2,0,L|284:151,1,90,10|0,3:2|0:0,0:0:0:0:
285,130,46142,1,0,0:0:0:0:
285,130,46226,1,2,0:0:0:0:
131,45,46395,6,0,B|147:19|188:2|223:11|223:11|310:47,1,180,0|2,3:2|3:2,0:0:0:0:
482,124,46901,2,0,P|438:120|392:135,1,90,0|0,3:2|0:0,0:0:0:0:
311,221,47238,1,8,3:2:0:0:
311,221,47406,1,2,3:2:0:0:
429,51,47575,1,2,0:0:0:0:
396,220,47743,1,2,3:2:0:0:
261,78,47912,6,0,P|288:75|354:65,2,90,4|2|2,3:2|0:0|3:2,0:0:0:0:
161,196,48417,1,10,3:2:0:0:
165,65,48586,2,0,L|185:127,1,45,8|0,3:2|0:0,0:0:0:0:
245,165,48755,1,8,3:2:0:0:
70,217,48923,1,2,0:0:0:0:
128,369,49092,6,0,B|136:294|136:294|155:270|155:270|164:173,1,180,0|10,3:2|3:2,0:0:0:0:
318,373,49597,2,0,L|217:353,1,90,0|2,0:0|3:2,0:0:0:0:
413,293,49934,1,0,3:2:0:0:
437,254,50019,1,0,3:2:0:0:
437,209,50103,1,8,3:3:0:0:
412,171,50187,1,8,3:3:0:0:
369,157,50271,1,4,3:2:0:0:
268,255,50440,1,0,3:2:0:0:
236,62,50608,5,14,3:2:0:0:
355,237,50777,1,0,3:2:0:0:
127,133,50946,5,10,3:2:0:0:
383,69,51114,1,0,3:2:0:0:
158,300,51283,5,10,3:2:0:0:
157,23,51451,1,0,3:2:0:0:
152,42,51535,1,0,3:2:0:0:
147,61,51620,1,10,3:2:0:0:
310,10,51788,1,0,3:2:0:0:
203,216,51957,6,0,L|222:100,1,99.0000030212403,10|0,3:2|3:2,0:0:0:0:
304,102,52210,1,0,3:2:0:0:
304,102,52294,2,0,L|294:161,1,49.5000015106202,8|8,3:2|3:2,0:0:0:0:
129,245,52462,6,0,P|189:296|265:268,1,148.50000453186,2|0,3:2|0:0,0:0:0:0:
304,220,52799,2,0,B|350:209|391:224|357:234|401:261|464:242,1,148.50000453186,2|0,3:2|0:0,0:0:0:0:
488,155,53137,6,0,B|525:129|514:66|442:61|408:106|430:166,1,198.000006042481,6|10,3:2|3:2,0:0:0:0:
378,326,53642,1,2,3:2:0:0:
304,102,53811,1,2,3:2:0:0:
181,282,53979,1,0,3:2:0:0:
219,290,54064,1,0,0:0:0:0:
256,282,54148,1,0,3:2:0:0:
288,258,54232,1,0,0:0:0:0:
304,220,54316,1,8,3:2:0:0:
110,84,54485,6,0,L|113:182,1,99.0000030212403,2|0,3:1|0:0,0:0:0:0:
267,86,54822,1,0,3:2:0:0:
284,98,54906,1,0,0:0:0:0:
304,102,54990,2,0,P|314:73|301:43,1,49.5000015106202,2|0,3:1|0:0,0:0:0:0:
25,34,55159,6,0,L|29:189,1,148.50000453186,12|0,3:2|0:0,0:0:0:0:
34,263,55496,1,2,3:3:0:0:
48,304,55580,1,2,0:0:0:0:
83,322,55665,1,2,3:3:0:0:
117,320,55749,1,2,0:0:0:0:
138,300,55833,1,2,3:2:0:0:
146,276,55917,1,2,3:2:0:0:
142,258,56002,6,0,B|164:215|209:220|209:220|223:248|256:261,1,135,4|0,3:2|0:0,0:0:0:0:
270,133,56339,2,0,P|295:105|247:127,1,135,2|0,3:2|0:0,0:0:0:0:
245,256,56676,2,0,B|281:244|321:266|294:273|345:296|393:271,1,135,2|0,3:2|0:0,0:0:0:0:
395,194,57013,2,0,P|408:149|419:188,1,90,2|8,3:2|3:2,0:0:0:0:
506,96,57266,1,8,3:2:0:0:
506,96,57350,6,0,B|511:119|496:143|496:143|493:117|470:93,1,90,2|0,3:2|0:0,0:0:0:0:
395,194,57603,2,0,P|349:194|317:149,1,90,2|0,0:0|0:0,0:0:0:0:
269,27,57856,2,0,P|265:49|266:72,1,45,2|0,0:0|0:0,0:0:0:0:
136,207,58024,6,0,P|146:191|136:220,1,135,2|0,3:2|0:0,0:0:0:0:
265,370,58361,1,0,3:3:0:0:
277,317,58446,1,0,3:3:0:0:
319,284,58530,1,8,3:3:0:0:
373,279,58614,1,8,3:3:0:0:
421,304,58698,6,0,B|410:265|440:235|440:235|483:231|518:272,1,135,4|0,3:2|0:0,0:0:0:0:
467,78,59035,2,0,B|438:107|397:96|397:96|372:60|390:10,1,135,2|0,3:2|0:0,0:0:0:0:
239,176,59373,2,0,B|182:168|182:168|170:160|170:160|97:148,1,135,2|0,3:2|0:0,0:0:0:0:
251,66,59710,2,0,B|308:58|308:58|320:50|320:50|393:38,1,135,2|8,3:2|3:2,0:0:0:0:
472,105,60047,6,0,P|439:102|471:80,1,90,2|0,3:2|0:0,0:0:0:0:
404,207,60299,2,0,P|446:224|491:221,1,90,2|0,0:0|0:0,0:0:0:0:
512,353,60552,2,0,P|495:336|455:330,1,45,2|0,0:0|0:0,0:0:0:0:
395,315,60721,2,0,P|371:317|340:343,1,45,2|0,3:2|0:0,0:0:0:0:
296,380,60889,1,0,3:3:0:0:
153,203,61058,2,0,B|205:213|205:213|250:189,1,90,0|0,3:3|0:0,0:0:0:0:
274,120,61311,1,8,3:3:0:0:
274,120,61395,6,0,B|295:100|281:67|281:67|256:75|251:103,1,99.0000030212403,4|0,3:2|0:0,0:0:0:0:
138,190,61648,2,0,B|110:181|88:210|88:210|108:228|134:218,1,99.0000030212403,2|0,0:0|0:0,0:0:0:0:
274,286,61901,2,0,B|277:300|295:302|295:302|297:289|287:280,1,49.5000015106202,2|0,0:0|0:0,0:0:0:0:
398,96,62069,6,0,B|378:109|359:76|374:53|374:53|378:66|395:74,1,99.0000030212403,2|8,3:2|3:2,0:0:0:0:
237,195,62322,2,0,B|257:204|238:237|203:241|203:241|219:222|218:207,1,99.0000030212403,2|0,0:0|0:0,0:0:0:0:
435,307,62575,2,0,B|445:289|464:291|464:291|450:299|445:309,1,49.5000015106202,2|0,0:0|0:0,0:0:0:0:
267,369,62743,6,0,L|119:356,1,148.50000453186,4|0,3:2|0:0,0:0:0:0:
97,337,63080,1,2,3:2:0:0:
237,195,63249,1,8,3:2:0:0:
31,130,63417,1,2,3:2:0:0:
175,278,63586,1,0,3:2:0:0:
250,62,63755,2,0,P|200:57|130:50,1,99.0000030212403,12|0,3:2|0:0,0:0:0:0:
344,13,64092,5,2,3:2:0:0:
322,212,64260,1,0,3:2:0:0:
434,75,64429,1,10,3:2:0:0:
210,150,64597,1,0,3:2:0:0:
486,235,64766,1,2,3:2:0:0:
250,62,64934,1,8,3:3:0:0:
250,62,65019,1,8,3:3:0:0:
250,62,65103,2,0,L|253:6,1,49.5000015106202,0|2,3:2|0:0,0:0:0:0:
434,75,65271,2,0,L|431:131,1,49.5000015106202,2|2,0:0|0:0,0:0:0:0:
200,286,65440,6,0,B|164:279|129:288|129:288|59:247|98:165,1,198.000006042481,4|0,3:2|3:2,0:0:0:0:
250,62,65946,1,8,3:2:0:0:
203,46,66030,1,8,3:2:0:0:
154,54,66114,2,0,P|141:75|141:109,1,49.5000015106202,0|0,3:2|0:0,0:0:0:0:
212,277,66283,1,8,3:2:0:0:
260,287,66367,1,8,3:2:0:0:
306,271,66451,1,0,3:2:0:0:
330,227,66535,1,0,0:0:0:0:
370,197,66620,1,8,3:3:0:0:
419,198,66704,1,8,3:3:0:0:
460,224,66788,6,0,B|462:257|480:275|480:275|497:312|474:355,1,135,4|0,3:2|0:0,0:0:0:0:
323,356,67125,2,0,P|272:365|311:329,1,135,10|0,3:2|0:0,0:0:0:0:
303,161,67462,2,0,B|270:181|239:159|234:159|239:154|234:154|197:130|148:159,1,135,2|0,0:0|0:0,0:0:0:0:
78,230,67799,2,0,B|49:238|47:272|47:272|57:285|67:313|67:313|60:285|75:254,1,135,10|0,3:2|0:0,0:0:0:0:
228,275,68137,6,0,P|233:239|188:253,1,90,2|0,3:2|0:0,0:0:0:0:
183,101,68389,2,0,P|149:114|183:146,1,90,2|0,3:2|0:0,0:0:0:0:
78,230,68642,2,0,P|92:241|97:218,1,45,2|0,3:2|0:0,0:0:0:0:
67,123,68811,1,2,0:0:0:0:
228,275,68979,2,0,P|224:319|221:364,1,90,0|8,3:2|3:2,0:0:0:0:
331,186,69316,1,2,0:0:0:0:
165,90,69485,6,0,P|199:30|280:40,1,135,4|0,3:2|0:0,0:0:0:0:
349,36,69822,2,0,L|244:25,1,90,10|0,3:2|3:2,0:0:0:0:
212,214,70159,2,0,L|274:128,1,90,2|0,0:0|3:2,0:0:0:0:
125,25,70496,2,0,L|167:121,1,90,10|2,3:2|3:2,0:0:0:0:
133,273,70749,1,0,3:2:0:0:
133,273,70833,6,0,B|99:329|99:329|96:252,1,90.0000034332277,2|0,3:2|0:0,0:0:0:0:
9,152,71058,6,0,B|-22:94|-22:94|45:130,1,90.0000034332277,2|0,3:2|0:0,0:0:0:0:
161,107,71283,6,0,B|226:108|226:108|161:149,1,90.0000034332277,2|0,3:2|0:0,0:0:0:0:
229,321,71507,6,0,B|236:337|232:355|232:355|259:336|248:306,1,90.0000034332277,10|0,3:2|0:0,0:0:0:0:
374,183,71732,6,0,B|384:168|402:163|402:163|372:148|352:172,1,90.0000034332277,2|0,3:2|0:0,0:0:0:0:
161,107,71957,6,0,B|143:105|129:92|129:92|132:125|163:131,1,90.0000034332277,2|0,3:2|0:0,0:0:0:0:
445,39,72181,6,0,L|306:31,1,121.499996292114,4|0,3:2|0:0,0:0:0:0:
251,17,72519,1,0,3:2:0:0:
374,183,72687,1,8,3:2:0:0:
292,214,72856,2,0,P|286:174|314:129,1,80.9999975280763,2|0,0:0|3:2,0:0:0:0:
145,196,73193,1,0,0:0:0:0:
149,200,73361,1,0,3:2:0:0:
134,14,73530,6,0,L|139:120,1,99.0000030212403,6|0,3:2|0:0,0:0:0:0:
66,209,73867,1,2,3:2:0:0:
219,118,74035,1,0,3:2:0:0:
274,283,74204,2,0,P|212:305|158:243,1,148.50000453186,2|0,0:0|0:0,0:0:0:0:
174,179,74541,2,0,P|239:153|288:220,1,148.50000453186,14|0,3:2|0:0,0:0:0:0:
350,256,74878,6,0,L|460:249,1,99.0000030212403,2|2,3:2|0:0,0:0:0:0:
334,123,75215,1,2,3:2:0:0:
274,283,75384,1,10,3:2:0:0:
179,189,75552,2,0,B|148:165|105:169|123:185|69:190|33:155,2,148.50000453186,0|2|8,0:0|0:0|3:3,0:0:0:0:
293,372,76226,6,0,P|357:370|368:296,1,148.50000453186,4|0,3:2|0:0,0:0:0:0:
320,241,76564,1,10,3:2:0:0:
488,183,76732,2,0,L|481:289,1,99.0000030212403,2|0,0:0|3:2,0:0:0:0:
361,118,77069,2,0,L|414:123,1,49.5000015106202,8|0,3:2|0:0,0:0:0:0:
333,230,77238,2,0,L|225:216,1,99.0000030212403,12|0,3:2|0:0,0:0:0:0:
137,135,77490,1,0,0:0:0:0:
137,135,77575,6,0,P|160:94|223:93,1,99.0000030212403,10|0,3:2|3:2,0:0:0:0:
244,307,77912,1,10,3:2:0:0:
59,181,78080,1,0,3:2:0:0:
285,121,78249,5,10,3:2:0:0:
54,265,78417,1,0,3:2:0:0:
240,57,78586,5,10,3:2:0:0:
110,332,78755,1,0,3:2:0:0:
163,55,78923,5,10,3:2:0:0:
208,334,79092,1,0,3:2:0:0:
322,56,79260,5,10,3:2:0:0:
286,335,79429,1,0,3:2:0:0:
410,57,79597,5,10,3:2:0:0:
463,296,79766,1,0,3:2:0:0:
467,276,79850,1,10,3:2:0:0:
470,256,79934,5,10,3:2:0:0:
252,208,80103,1,0,3:2:0:0:
419,47,80271,5,14,3:2:0:0:
369,313,80440,1,0,3:2:0:0:
293,72,80608,6,0,L|284:130,1,49.5000015106202,10|0,3:2|0:0,0:0:0:0:
264,300,80777,1,0,3:2:0:0:
205,48,80946,5,10,3:2:0:0:
156,299,81114,1,0,3:2:0:0:
122,22,81283,5,10,3:2:0:0:
55,281,81451,1,0,3:2:0:0:
294,72,81620,5,10,3:2:0:0:
19,163,81788,1,0,3:2:0:0:
321,215,81957,5,10,3:2:0:0:
41,72,82125,1,0,3:2:0:0:
156,299,82294,5,10,3:2:0:0:
122,22,82462,1,0,3:2:0:0:
235,260,82631,5,10,3:2:0:0:
372,70,82799,1,2,3:2:0:0:
368,86,82884,1,2,0:0:0:0:
362,107,82968,5,14,3:2:0:0:
260,359,83137,1,0,0:0:0:0:
205,19,83305,5,10,3:2:0:0:
366,323,83474,1,0,3:0:0:0:
324,10,83642,5,10,3:2:0:0:
141,262,83811,1,0,3:2:0:0:
441,183,83979,6,0,L|447:251,1,49.5000015106202,10|0,3:3|0:0,0:0:0:0:
214,150,84148,2,0,L|212:88,1,49.5000015106202,8|0,3:3|0:0,0:0:0:0:
384,79,84316,5,2,3:2:0:0:
141,262,84485,1,10,0:2:0:0:
141,262,84569,1,0,3:0:0:0:
141,262,84653,2,0,L|156:325,1,49.5000015106202,8|0,0:0|0:0,0:0:0:0:
80,91,84822,6,0,P|66:16|144:54,1,202.500007724762,2|0,3:2|0:0,0:0:0:0:
255,134,85159,6,0,B|270:176|248:206|219:199|210:220|210:220|203:198|165:200|159:158|177:126,1,202.500007724762,2|0,3:2|0:0,0:0:0:0:
334,126,85496,6,0,B|380:124|420:107|420:107|376:139|389:190,1,180,6|0,3:2|3:2,0:0:0:0:
353,307,86002,2,0,P|303:341|339:283,1,180,8|0,3:2|3:2,0:0:0:0:
436,349,86507,1,2,3:2:0:0:
235,219,86676,2,0,L|247:121,1,90,8|0,3:2|0:0,0:0:0:0:
91,275,87013,6,0,B|148:246|195:282|174:288|222:316|266:290,1,180,2|8,3:2|3:2,0:0:0:0:
400,203,87519,1,2,3:2:0:0:
305,364,87687,1,2,0:0:0:0:
293,134,87856,1,2,3:2:0:0:
490,249,88024,1,10,3:2:0:0:
235,219,88193,1,8,3:2:0:0:
219,209,88277,1,8,3:2:0:0:
203,199,88361,6,0,B|189:117|189:117|219:49,1,135,6|0,3:2|0:0,0:0:0:0:
329,17,88698,2,0,L|327:125,1,90,8|2,3:2|3:2,0:0:0:0:
327,187,88951,1,8,3:2:0:0:
327,187,89035,1,8,3:2:0:0:
176,9,89204,1,0,3:2:0:0:
100,229,89373,2,0,L|256:217,1,135,10|0,3:2|0:0,0:0:0:0:
327,187,89710,6,0,L|312:294,1,90,2|8,3:2|3:2,0:0:0:0:
309,354,89962,1,8,3:2:0:0:
309,354,90047,1,0,3:2:0:0:
256,130,90215,1,8,3:3:0:0:
265,115,90299,1,8,3:3:0:0:
275,100,90384,2,0,L|271:55,1,45,2|0,3:2|0:0,0:0:0:0:
327,187,90552,1,0,0:0:0:0:
192,20,90721,1,0,3:2:0:0:
149,35,90805,1,0,3:2:0:0:
132,76,90889,1,0,3:2:0:0:
143,120,90974,1,0,3:2:0:0:
180,148,91058,6,0,L|185:220,2,67.5000025749208,4|2|2,3:2|0:0|3:2,0:0:0:0:
275,100,91564,1,8,0:3:0:0:
292,244,91732,2,0,L|285:171,1,67.5000025749208,2|2,3:2|0:0,0:0:0:0:
184,215,92069,2,0,L|177:288,1,67.5000025749208,0|2,3:2|0:0,0:0:0:0:
301,330,92406,5,0,3:2:0:0:
301,330,92575,1,8,0:3:0:0:
349,186,92743,2,0,P|320:173|274:182,1,67.5000025749208,0|0,3:2|0:0,0:0:0:0:
393,319,93080,5,0,3:2:0:0:
393,319,93249,1,2,0:0:0:0:
427,168,93417,2,0,P|412:136|377:112,1,67.5000025749208,0|2,3:2|0:0,0:0:0:0:
184,215,93755,6,0,L|189:291,1,67.5000025749208,0|2,3:2|0:0,0:0:0:0:
259,159,94092,1,0,3:2:0:0:
96,207,94260,1,8,0:3:0:0:
295,283,94429,2,0,P|312:242|297:198,1,67.5000025749208,0|0,3:2|0:0,0:0:0:0:
211,115,94766,2,0,P|238:150|283:159,1,67.5000025749208,0|0,3:2|0:0,0:0:0:0:
388,94,95103,5,0,3:2:0:0:
335,153,95271,1,8,0:3:0:0:
397,205,95440,1,0,3:2:0:0:
450,146,95608,1,0,3:2:0:0:
327,43,95777,5,0,3:2:0:0:
397,205,95946,1,8,0:3:0:0:
396,218,96030,1,8,0:3:0:0:
396,231,96114,1,0,3:2:0:0:
388,94,96283,1,8,0:3:0:0:
299,257,96451,6,0,L|302:183,1,67.5000025749208,4|0,3:2|0:0,0:0:0:0:
230,97,96788,1,0,3:2:0:0:
176,161,96957,1,8,0:3:0:0:
312,122,97125,1,2,3:2:0:0:
212,21,97294,1,0,0:0:0:0:
372,0,97462,2,0,P|364:31|359:73,1,67.5000025749208,2|2,3:2|0:0,0:0:0:0:
469,187,97799,5,2,3:2:0:0:
448,44,97968,1,8,0:3:0:0:
312,122,98137,2,0,P|341:138|375:137,1,67.5000025749208,2|0,3:2|0:0,0:0:0:0:
228,135,98474,2,0,P|199:152|185:182,1,67.5000025749208,0|2,3:2|0:0,0:0:0:0:
233,0,98811,2,0,P|250:28|251:61,1,67.5000025749208,2|2,3:2|0:0,0:0:0:0:
64,190,99148,6,0,B|82:156|67:125|67:125|52:88|83:46,1,135.000005149842,0|2,3:2|3:2,0:0:0:0:
150,103,99653,1,8,0:3:0:0:
150,103,99822,2,0,L|240:112,1,67.5000025749208,0|0,3:2|0:0,0:0:0:0:
130,187,100159,2,0,L|40:178,1,67.5000025749208,0|0,3:2|0:0,0:0:0:0:
198,318,100496,5,0,3:2:0:0:
295,119,100665,1,8,0:3:0:0:
394,287,100833,1,0,3:2:0:0:
213,209,101002,1,0,3:2:0:0:
402,163,101170,1,0,3:2:0:0:
280,317,101339,1,8,0:3:0:0:
295,119,101507,1,0,3:2:0:0:
394,276,101676,1,8,0:3:0:0:
471,42,101844,6,0,L|322:38,1,135.000005149842,4|0,3:2|3:2,0:0:0:0:
295,119,102350,1,2,0:0:0:0:
295,119,102519,2,0,L|441:124,1,135.000005149842,0|0,3:2|3:2,0:0:0:0:
396,362,103193,6,0,P|362:303|379:235,1,135.000005149842,2|0,0:0|0:0,0:0:0:0:
464,224,103698,1,2,0:0:0:0:
464,224,103867,2,0,P|498:283|481:351,1,135.000005149842
174,276,104541,6,0,B|235:311|235:311|300:306,1,135.000005149842,2|0,0:0|0:0,0:0:0:0:
322,225,105047,1,2,0:0:0:0:
322,225,105215,2,0,B|262:191|262:191|197:196,1,135.000005149842
388,287,105721,1,0,0:0:0:0:
388,287,105889,6,0,P|418:231|385:157,1,135.000005149842,2|0,0:0|0:0,0:0:0:0:
330,105,106395,1,2,0:0:0:0:
330,105,106564,2,0,P|300:161|333:235,1,135.000005149842
412,74,107069,1,0,0:0:0:0:
224,134,107238,6,0,L|80:108,1,135.000005149842,6|0,0:0|0:0,0:0:0:0:
174,42,107743,2,0,P|198:11|232:3,1,67.5000025749208,8|0,0:3|0:0,0:0:0:0:
282,157,108080,2,0,P|243:151|219:126,1,67.5000025749208,2|0,0:0|0:0,0:0:0:0:
307,32,108417,1,0,0:0:0:0:
375,145,108586,6,0,L|369:212,1,67.5000025749208,2|8,0:0|0:3,0:0:0:0:
466,104,108923,2,0,L|460:37,1,67.5000025749208,0|2,0:0|0:0,0:0:0:0:
511,202,109260,2,0,P|466:194|439:173,1,67.5000025749208,2|2,0:0|0:0,0:0:0:0:
387,68,109597,1,2,0:0:0:0:
466,104,109766,1,0,0:0:0:0:
317,162,109934,6,0,P|324:105|396:68,1,135.000005149842,6|0,0:0|0:0,0:0:0:0:
396,150,110440,1,2,0:0:0:0:
212,104,110608,1,0,0:0:0:0:
200,113,110946,6,0,B|185:148|206:177|206:177|227:210|212:260,1,135.000005149842,0|2,0:0|0:0,0:0:0:0:
137,225,111451,1,2,0:0:0:0:
202,14,111620,1,0,0:0:0:0:
358,165,111957,5,2,0:0:0:0:
358,165,112125,1,0,3:0:0:0:
254,89,112294,1,2,0:0:0:0:
234,215,112462,1,0,3:0:0:0:
127,131,112631,5,4,3:2:0:0:
311,290,112799,1,0,3:2:0:0:
379,47,112968,1,0,3:2:0:0:
154,296,113137,5,10,3:2:0:0:
410,200,113305,1,0,3:2:0:0:
229,11,113474,1,0,3:2:0:0:
235,365,113642,5,10,3:2:0:0:
392,123,113811,1,0,3:2:0:0:
107,86,113979,1,0,3:2:0:0:
404,291,114148,6,0,B|410:199|410:199|386:254,1,135.000005149842,10|2,3:2|3:2,0:0:0:0:
235,365,114485,1,0,3:2:0:0:
107,86,114653,1,10,3:2:0:0:
129,47,114738,1,0,0:0:0:0:
168,27,114822,1,0,3:2:0:0:
212,28,114906,1,0,3:2:0:0:
244,63,114990,6,0,L|240:115,1,45,0|0,3:2|3:2,0:0:0:0:
240,107,115243,1,0,3:2:0:0:
240,107,115328,5,4,3:2:0:0:
103,261,115496,1,0,3:2:0:0:
30,66,115665,1,0,3:2:0:0:
234,215,115833,1,10,3:2:0:0:
0,175,116002,1,0,3:2:0:0:
168,27,116170,2,0,L|152:131,1,90,0|10,3:2|3:2,0:0:0:0:
251,292,116507,5,0,3:2:0:0:
362,73,116676,1,0,3:2:0:0:
234,215,116844,2,0,L|184:164,1,45,10|0,3:2|0:0,0:0:0:0:
251,292,117013,2,0,L|195:295,1,45,2|0,3:2|0:0,0:0:0:0:
333,314,117181,2,0,L|324:354,4,22.5,2|0|0|0|0,3:2|0:0|3:2|0:0|3:2,0:0:0:0:
419,175,117519,1,8,3:2:0:0:
256,99,117687,2,0,P|242:59|263:7,1,90,4|0,3:2|3:2,0:0:0:0:
126,215,118024,6,0,B|37:207|37:207|102:190,1,135.000005149842,2|2,3:2|3:2,0:0:0:0:
245,178,118361,2,0,L|230:236,1,45,0|0,3:2|0:0,0:0:0:0:
153,325,118530,1,12,3:2:0:0:
104,115,118698,1,0,3:2:0:0:
316,233,118867,1,0,3:2:0:0:
27,171,119035,1,10,3:2:0:0:
255,85,119204,1,0,3:2:0:0:
62,353,119373,5,0,3:2:0:0:
104,115,119541,1,10,3:2:0:0:
107,137,119625,1,0,0:0:0:0:
110,159,119710,1,2,3:2:0:0:
225,271,119878,1,2,3:2:0:0:
172,66,120047,1,10,3:2:0:0:
322,237,120215,1,0,3:2:0:0:
469,27,120384,1,10,3:2:0:0:
450,67,120468,1,0,0:0:0:0:
412,92,120552,1,2,3:2:0:0:
366,90,120637,1,0,0:0:0:0:
337,55,120721,6,0,L|327:2,1,45,4|0,3:2|0:0,0:0:0:0:
277,162,120889,2,0,L|287:109,1,45,0|0,3:2|0:0,0:0:0:0:
419,273,121058,1,0,3:2:0:0:
478,143,121226,1,10,3:2:0:0:
300,267,121395,1,2,3:2:0:0:
496,359,121564,1,2,3:2:0:0:
366,180,121732,1,10,3:2:0:0:
322,169,121816,1,0,0:0:0:0:
277,162,121901,1,2,3:2:0:0:
233,152,121985,1,2,0:2:0:0:
188,143,122069,6,0,L|182:91,1,45,2|0,3:2|0:0,0:0:0:0:
283,80,122238,2,0,L|289:28,1,45,10|0,3:2|0:0,0:0:0:0:
151,224,122406,6,0,L|139:281,1,49.5000015106202,2|2,3:2|0:0,0:0:0:0:
300,267,122575,2,0,L|303:332,1,49.5000015106202,2|0,3:2|0:0,0:0:0:0:
57,341,122743,1,10,3:2:0:0:
55,286,122828,1,2,0:0:0:0:
56,232,122912,1,2,3:2:0:0:
57,178,122996,1,2,0:0:0:0:
46,120,123080,5,2,3:2:0:0:
64,64,123165,1,2,3:2:0:0:
116,37,123249,1,2,3:2:0:0:
173,45,123333,1,2,3:2:0:0:
208,88,123417,6,0,L|195:183,1,90,4|0,3:2|3:2,0:0:0:0:
374,59,123755,1,0,3:2:0:0:
265,250,123923,2,0,L|256:339,1,90,10|0,3:2|3:2,0:0:0:0:
483,168,124260,1,0,3:2:0:0:
483,168,124344,1,0,0:0:0:0:
483,168,124429,2,0,P|430:161|396:126,1,90,10|0,3:2|0:0,0:0:0:0:
359,65,124681,1,0,3:2:0:0:
346,71,124766,5,0,3:2:0:0:
299,43,124850,1,0,0:0:0:0:
248,61,124934,1,8,3:2:0:0:
228,111,125019,1,0,0:0:0:0:
252,159,125103,1,8,3:2:0:0:
303,174,125187,1,8,3:2:0:0:
354,189,125271,5,8,3:2:0:0:
375,218,125356,1,8,3:2:0:0:
380,253,125440,1,2,3:2:0:0:
366,286,125524,1,0,3:2:0:0:
339,309,125608,1,0,3:2:0:0:
303,313,125693,6,0,L|284:252,2,45,2|0|0,3:2|3:2|0:0,0:0:0:0:
162,324,125946,2,0,L|155:369,1,45,2|0,3:2|3:2,0:0:0:0:
80,204,126114,5,4,3:2:0:0:
89,216,126451,1,10,3:2:0:0:
162,324,126620,1,0,3:2:0:0:
242,168,126788,2,0,L|126:156,1,90,2|0,0:0|3:2,0:0:0:0:
152,158,127041,1,0,0:0:0:0:
152,158,127125,1,10,3:2:0:0:
55,36,127294,2,0,L|66:99,2,45,2|0|0,3:2|0:0|0:0,0:0:0:0:
258,85,127631,5,2,3:2:0:0:
119,250,127799,2,0,B|160:269|201:247|201:247|209:251|209:251|260:224|311:264,1,180,8|2,3:2|0:0,0:0:0:0:
433,194,128305,1,2,3:2:0:0:
308,365,128474,1,10,3:2:0:0:
273,170,128642,1,2,3:2:0:0:
279,191,128726,1,0,3:2:0:0:
284,212,128811,5,2,3:2:0:0:
373,85,128979,1,2,3:2:0:0:
241,0,129148,1,8,3:2:0:0:
353,181,129316,1,2,3:2:0:0:
475,6,129485,2,0,L|373:-1,1,90,2|0,0:0|3:2,0:0:0:0:
205,120,129822,6,0,B|267:94|267:94|311:109|311:109|376:83,1,180,4|2,3:2|0:0,0:0:0:0:
191,254,130328,1,2,3:2:0:0:
117,58,130496,1,8,3:2:0:0:
268,178,130665,1,0,3:2:0:0:
68,307,130833,1,0,3:2:0:0:
26,290,130917,1,0,3:2:0:0:
10,247,131002,1,0,3:2:0:0:
20,203,131086,1,0,3:2:0:0:
57,178,131170,1,4,3:2:0:0:
221,319,131339,2,0,L|161:313,1,45,0|0,3:2|3:2,0:0:0:0:
68,307,131507,5,14,3:2:0:0:
138,145,131676,1,0,3:2:0:0:
128,384,131844,5,10,3:2:0:0:
57,178,132013,1,0,3:2:0:0:
265,251,132181,5,10,3:2:0:0:
10,247,132350,1,0,3:2:0:0:
15,265,132434,1,0,3:2:0:0:
20,284,132519,1,10,3:2:0:0:
138,145,132687,1,0,3:2:0:0:
109,341,132856,6,0,L|113:234,1,99.0000030212403,10|0,3:2|3:2,0:0:0:0:
112,242,133108,1,0,3:2:0:0:
112,242,133193,1,8,3:2:0:0:
75,105,133361,6,0,B|90:67|144:51|144:51|170:84|211:82,1,148.50000453186,6|0,3:2|0:0,0:0:0:0:
206,3,133698,2,0,L|262:3,1,49.5000015106202,2|2,3:2|0:0,0:0:0:0:
307,77,133867,2,0,L|367:75,1,49.5000015106202,2|0,0:0|0:0,0:0:0:0:
428,217,134035,6,0,B|468:160|423:113|423:113|356:112|353:173,1,198.000006042481,6|10,3:2|3:2,0:0:0:0:
241,141,134457,1,0,0:0:0:0:
241,141,134541,2,0,L|181:137,1,49.5000015106202,2|0,3:2|0:0,0:0:0:0:
296,267,134710,1,2,3:2:0:0:
311,83,134878,1,0,3:2:0:0:
334,50,134962,1,0,0:0:0:0:
371,37,135047,1,0,3:2:0:0:
410,41,135131,1,0,0:0:0:0:
441,65,135215,1,8,3:2:0:0:
394,277,135384,6,0,L|285:265,1,99.0000030212403,2|0,3:1|0:0,0:0:0:0:
178,191,135721,1,0,3:2:0:0:
189,175,135805,1,0,0:0:0:0:
199,158,135889,2,0,L|187:102,1,49.5000015106202,0|0,3:2|0:0,0:0:0:0:
7,309,136058,6,0,B|77:296|77:296|101:302|101:302|160:291,1,148.50000453186,12|0,3:2|0:0,0:0:0:0:
224,255,136395,1,2,3:3:0:0:
264,236,136479,1,2,0:0:0:0:
303,239,136564,1,2,3:3:0:0:
332,256,136648,1,2,0:0:0:0:
359,266,136732,1,2,3:2:0:0:
382,259,136816,1,2,3:2:0:0:
395,246,136901,6,0,B|386:165|386:165|412:112,1,135,4|0,3:2|0:0,0:0:0:0:
358,0,137238,2,0,P|336:3|297:64,1,90,0|8,3:2|3:2,0:0:0:0:
210,116,137490,1,8,3:2:0:0:
210,116,137575,2,0,L|110:111,1,90,10|8,3:2|3:2,0:0:0:0:
50,175,137828,1,8,3:2:0:0:
50,175,137912,2,0,L|41:219,1,45,8|0,3:2|0:0,0:0:0:0:
152,277,138080,2,0,L|143:232,1,45,8|8,3:2|3:2,0:0:0:0:
0,371,138249,6,0,L|126:355,1,90,10|8,3:2|3:2,0:0:0:0:
215,365,138502,2,0,L|226:322,1,45,8|8,3:2|3:2,0:0:0:0:
356,198,138755,1,8,3:2:0:0:
351,215,138839,1,8,3:2:0:0:
345,232,138923,2,0,L|349:296,1,45,10|0,3:2|0:0,0:0:0:0:
483,331,139092,5,8,3:2:0:0:
499,289,139176,1,8,3:2:0:0:
498,244,139260,1,2,3:2:0:0:
478,203,139344,1,2,3:2:0:0:
471,158,139429,1,2,3:2:0:0:
477,113,139513,1,2,3:2:0:0:
508,80,139597,6,0,B|488:43|433:31|433:31|410:49|369:57,1,135,4|8,3:2|3:2,0:0:0:0:
259,20,139934,2,0,P|226:11|259:8,1,90,0|8,3:2|3:2,0:0:0:0:
349,138,140187,1,8,3:2:0:0:
349,138,140271,2,0,L|357:190,1,45,10|0,3:2|0:0,0:0:0:0:
179,246,140440,2,0,L|188:201,1,45,8|0,3:2|0:0,0:0:0:0:
336,325,140608,1,8,3:2:0:0:
205,95,140777,1,8,3:2:0:0:
193,108,140861,1,8,3:2:0:0:
182,122,140946,6,0,L|161:224,1,90,10|0,3:2|0:0,0:0:0:0:
125,306,141198,2,0,L|132:362,1,45,8|8,3:2|3:2,0:0:0:0:
48,184,141451,1,8,3:2:0:0:
60,170,141535,1,8,3:2:0:0:
71,156,141620,2,0,P|62:113|45:136,1,90,10|8,3:2|3:2,0:0:0:0:
9,315,141957,1,0,3:2:0:0:
46,339,142041,1,0,3:2:0:0:
91,335,142125,1,0,3:2:0:0:
125,306,142210,1,0,3:2:0:0:
136,264,142294,6,0,B|131:239|156:222|188:233|170:243|191:252|231:241,1,99.0000030212403,4|8,3:2|3:2,0:0:0:0:
403,332,142547,2,0,B|394:307|364:305|342:331|363:330|349:349|309:359,1,99.0000030212403,8|0,3:2|0:0,0:0:0:0:
200,167,142799,2,0,L|200:117,1,49.5000015106202,8|8,3:2|3:2,0:0:0:0:
282,25,142968,6,0,B|306:3|346:16|346:16|364:48|342:79,1,99.0000030212403,10|8,3:2|3:2,0:0:0:0:
339,224,143221,2,0,B|307:214|299:173|299:173|317:141|355:145,1,99.0000030212403,8|0,3:2|0:0,0:0:0:0:
503,84,143474,2,0,B|506:99|490:113|490:113|472:113|464:96,1,49.5000015106202,8|0,3:2|0:0,0:0:0:0:
404,270,143642,6,0,B|490:239|490:239|442:289,1,148.50000453186,10|8,3:2|3:2,0:0:0:0:
349,356,143979,1,8,3:2:0:0:
331,357,144064,1,0,0:0:0:0:
311,352,144148,2,0,L|291:302,1,49.5000015106202,8|8,3:2|3:2,0:0:0:0:
140,182,144316,5,10,3:2:0:0:
90,175,144401,1,0,0:0:0:0:
52,207,144485,1,8,3:2:0:0:
46,256,144569,1,8,3:2:0:0:
78,293,144653,2,0,P|131:284|186:275,1,99.0000030212403,0|8,3:2|3:2,0:0:0:0:
245,223,144906,1,8,3:2:0:0:
245,223,144990,5,4,3:2:0:0:
454,343,145159,1,10,3:2:0:0:
460,324,145243,1,8,3:2:0:0:
466,305,145328,1,0,3:2:0:0:
245,223,145496,1,10,3:2:0:0:
477,163,145665,5,0,3:2:0:0:
246,84,145833,1,10,3:2:0:0:
246,84,145917,1,8,3:2:0:0:
246,84,146002,2,0,L|297:61,1,49.5000015106202,0|0,3:2|0:0,0:0:0:0:
383,225,146170,2,0,L|337:204,1,49.5000015106202,10|2,3:2|3:2,0:0:0:0:
164,275,146339,6,0,B|144:303|104:303|81:275|81:275|74:274|74:274|80:226|114:213|140:222,1,198.000006042481,4|0,3:2|3:2,0:0:0:0:
264,265,146760,1,0,3:2:0:0:
264,265,146844,2,0,L|252:326,1,49.5000015106202,8|8,3:2|3:2,0:0:0:0:
383,225,147013,5,0,3:2:0:0:
367,175,147097,1,0,3:2:0:0:
378,127,147181,1,8,3:2:0:0:
415,93,147266,1,8,3:2:0:0:
489,109,147350,5,0,3:2:0:0:
504,157,147434,1,0,3:2:0:0:
492,206,147519,1,8,3:3:0:0:
455,240,147603,1,8,3:3:0:0:
383,225,147687,6,0,L|280:220,1,90,4|0,3:2|3:2,0:0:0:0:
145,96,148024,2,0,P|150:27|209:10,1,135,10|0,3:2|0:0,0:0:0:0:
271,97,148361,2,0,B|309:81|352:97|336:103|371:122|406:107,1,135,2|0,3:0|3:0,3:0:0:0:
508,0,148698,2,0,L|498:94,1,90,10|2,3:2|0:0,0:0:0:0:
455,176,148951,1,0,3:2:0:0:
455,176,149035,6,0,B|458:229|458:229|483:188,1,90,2|0,3:2|0:0,0:0:0:0:
359,239,149288,2,0,B|334:287|334:287|377:263,1,90,2|0,3:2|0:0,0:0:0:0:
252,181,149541,2,0,B|229:195|229:195|253:196,1,45,2|0,3:2|0:0,0:0:0:0:
292,71,149710,1,2,0:0:0:0:
151,238,149878,2,0,B|140:191|140:191|151:146,1,90,0|8,3:2|3:2,0:0:0:0:
356,227,150215,1,2,0:0:0:0:
357,244,150299,1,2,0:0:0:0:
358,262,150384,6,0,B|299:268|299:268|293:272|293:272|220:277,1,135,4|0,3:2|0:0,0:0:0:0:
151,238,150721,2,0,P|146:194|169:215,1,90,10|0,3:2|3:2,0:0:0:0:
242,1,151058,2,0,P|206:27|213:-3,1,90,2|0,0:0|3:2,0:0:0:0:
397,139,151395,2,0,P|437:156|407:166,1,90,10|2,3:2|3:2,0:0:0:0:
402,253,151648,1,0,3:2:0:0:
402,253,151732,6,0,B|459:241|438:276|512:263,1,90.0000034332277,6|0,3:2|0:0,0:0:0:0:
290,199,151957,6,0,B|271:254|252:218|219:298,1,90.0000034332277,2|0,3:2|0:0,0:0:0:0:
397,139,152181,6,0,B|358:95|398:96|350:38,1,90.0000034332277,2|0,3:2|0:0,0:0:0:0:
216,7,152406,6,0,B|209:31|167:30|167:30|152:5|107:9,1,90.0000034332277,10|0,3:2|0:0,0:0:0:0:
156,235,152631,6,0,B|138:216|160:181|160:181|189:180|208:139,1,90.0000034332277,2|0,3:2|0:0,0:0:0:0:
4,70,152856,6,0,B|28:64|48:100|48:100|34:126|60:163,1,90.0000034332277,2|0,3:2|0:0,0:0:0:0:
0,348,153080,6,0,B|34:353|60:339|60:339|72:340|72:340|97:327|127:338,1,121.499996292114,4|0,3:2|0:0,0:0:0:0:
192,351,153417,1,0,3:2:0:0:
218,180,153586,1,8,3:2:0:0:
139,160,153755,2,0,P|140:213|175:248,1,80.9999975280763,2|0,0:0|3:2,0:0:0:0:
300,197,154092,1,2,3:2:0:0:
300,197,154260,1,0,3:2:0:0:
289,366,154429,6,0,L|294:264,1,90,6|0,3:2|0:0,0:0:0:0:
300,197,154681,1,0,0:0:0:0:
300,197,154766,1,2,3:2:0:0:
461,265,154934,1,0,3:2:0:0:
480,86,155103,2,0,B|477:55|448:35|448:35|402:26|370:63,1,135,2|0,0:0|0:0,0:0:0:0:
364,132,155440,2,0,B|366:161|395:181|395:181|441:190|463:164,1,135,14|0,3:2|0:0,0:0:0:0:
501,236,155777,6,0,B|486:266|489:294|495:282|502:309|483:343,1,99.0000030212403,2|2,3:2|0:0,0:0:0:0:
364,132,156114,1,2,3:2:0:0:
411,266,156283,1,10,3:2:0:0:
501,52,156451,2,0,B|471:69|429:63|429:63|402:32|355:38,2,148.50000453186,0|2|8,3:0|0:0|3:3,0:0:0:0:
424,257,157125,6,0,B|384:254|363:214|363:214|334:240|291:234,1,148.50000453186,4|0,3:2|0:0,0:0:0:0:
228,206,157462,1,10,3:2:0:0:
186,378,157631,2,0,L|285:360,1,99.0000030212403,2|0,0:0|3:2,0:0:0:0:
351,204,157968,2,0,L|358:147,1,49.5000015106202,8|0,3:2|0:0,0:0:0:0:
241,107,158137,2,0,L|227:208,1,99.0000030212403,12|0,3:2|3:0,0:0:0:0:
84,190,158389,1,0,0:0:0:0:
84,190,158474,6,0,B|32:197|32:197|-14:148,1,99.0000030212403,10|0,3:2|3:2,0:0:0:0:
159,21,158811,1,10,3:2:0:0:
196,268,158979,1,0,3:2:0:0:
259,3,159148,5,10,3:2:0:0:
114,268,159316,1,0,3:2:0:0:
340,63,159485,5,10,3:2:0:0:
65,207,159653,1,0,3:2:0:0:
373,172,159822,5,10,3:2:0:0:
65,129,159990,1,0,3:2:0:0:
76,112,160075,1,0,3:0:0:0:
92,101,160159,5,10,3:2:0:0:
45,330,160328,1,0,3:2:0:0:
262,91,160496,5,10,3:2:0:0:
213,358,160665,1,0,3:2:0:0:
179,98,160833,5,10,3:2:0:0:
277,242,161002,2,0,L|212:231,1,49.5000015106202,0|0,3:2|0:0,0:0:0:0:
92,101,161170,5,14,3:2:0:0:
129,343,161339,1,0,3:2:0:0:
179,98,161507,6,0,L|186:155,1,49.5000015106202,10|0,3:2|0:0,0:0:0:0:
213,358,161676,1,0,3:2:0:0:
262,91,161844,5,10,3:2:0:0:
298,369,162013,1,0,3:2:0:0:
349,77,162181,5,10,3:2:0:0:
386,377,162350,1,0,3:2:0:0:
196,184,162519,5,10,3:2:0:0:
438,96,162687,1,0,3:2:0:0:
189,262,162856,5,10,3:2:0:0:
467,290,163024,1,0,3:2:0:0:
179,340,163193,5,10,3:2:0:0:
466,190,163361,1,0,3:2:0:0:
243,57,163530,5,10,3:2:0:0:
368,299,163698,1,2,3:2:0:0:
363,279,163783,1,2,0:0:0:0:
350,263,163867,5,14,3:2:0:0:
51,144,164035,1,0,0:0:0:0:
284,314,164204,5,10,3:2:0:0:
92,61,164373,1,0,3:0:0:0:
139,341,164541,6,0,L|135:271,1,49.5000015106202,10|0,3:2|0:0,0:0:0:0:
277,161,164710,2,0,L|273:231,1,49.5000015106202,0|0,3:2|0:0,0:0:0:0:
155,114,164878,5,10,3:3:0:0:
368,299,165047,1,8,3:3:0:0:
27,233,165215,5,2,3:2:0:0:
264,114,165384,1,10,0:2:0:0:
264,114,165468,1,0,3:0:0:0:
264,114,165552,2,0,P|275:137|271:182,1,49.5000015106202,8|0,0:0|0:0,0:0:0:0:
167,343,165721,6,0,B|145:363|104:355|104:355|66:313|120:270|120:270|101:294|111:319,1,202.500007724762,2|0,3:2|0:0,0:0:0:0:
200,330,166058,6,0,B|240:335|268:313|268:313|302:320|302:320|334:301|360:303|360:303|337:316|334:343,1,202.500007724762,2|0,3:2|0:0,0:0:0:0:
449,346,166395,6,0,B|438:300|457:248|465:287|487:232|470:194|470:194|435:202|415:229|415:229|434:251|428:280,1,270.000010299683,6|0,3:2|3:2,0:0:0:0:
299,331,166901,1,2,3:2:0:0:
311,186,167069,1,0,3:2:0:0:
429,269,167238,1,0,3:2:0:0:
202,323,167406,5,0,3:2:0:0:
304,176,167575,1,2,3:2:0:0:
380,336,167743,1,0,3:2:0:0:
117,249,167912,5,4,3:2:0:0:
285,364,168080,1,0,3:2:0:0:
296,166,168249,1,0,3:2:0:0:
182,373,168417,5,0,3:2:0:0:
159,157,168586,1,0,3:2:0:0:
368,212,168755,1,8,3:2:0:0:
287,300,168923,2,0,L|296:149,1,135,2|0,3:2|0:0,0:0:0:0:
243,99,169260,6,0,B|264:41|339:42|339:42|334:81|355:106,1,180,4|0,3:2|3:2,0:0:0:0:
511,144,169766,1,0,3:2:0:0:
368,212,169934,1,2,3:2:0:0:
351,44,170103,2,0,L|461:43,1,90,2|0,3:2|0:0,0:0:0:0:
152,13,170440,6,0,B|121:21|83:-7|83:-7|116:20|115:55,1,135.000005149842,2|0,3:2|3:2,0:0:0:0:
146,201,170777,1,2,3:2:0:0:
220,55,170946,5,2,3:2:0:0:
70,154,171114,1,2,3:2:0:0:
253,123,171283,1,0,3:2:0:0:
57,148,171451,1,2,3:2:0:0:
174,282,171620,5,2,3:2:0:0:
152,13,171788,1,0,3:2:0:0:
143,28,171873,1,0,3:2:0:0:
135,44,171957,6,0,B|224:52|224:52|240:43|240:43|332:53,1,180,4|0,3:2|3:2,0:0:0:0:
430,162,172462,1,2,3:2:0:0:
251,279,172631,2,0,P|248:234|288:195,1,90,0|0,3:2|3:2,0:0:0:0:
275,200,172884,1,0,3:2:0:0:
275,200,172968,5,2,3:2:0:0:
374,342,173137,1,0,3:2:0:0:
430,162,173305,1,0,3:2:0:0:
251,279,173474,5,2,3:2:0:0:
474,244,173642,1,0,3:2:0:0:
261,198,173811,1,2,3:2:0:0:
374,342,173979,5,8,3:2:0:0:
268,120,174148,1,0,3:2:0:0:
112,272,174316,5,10,3:2:0:0:
426,260,174485,2,0,B|302:246|375:292|239:277,1,180,4|2,3:2|0:0,0:0:0:0:
121,137,174990,5,10,3:2:0:0:
187,230,175159,1,10,3:2:0:0:
202,93,175328,5,10,3:2:0:0:
112,272,175496,1,10,3:2:0:0:
130,31,175665,5,10,3:2:0:0:
188,349,175833,1,10,3:2:0:0:
365,123,176002,6,0,L|257:105,1,90,4|8,3:2|3:2,0:0:0:0:
19,258,176339,5,8,3:2:0:0:
55,297,176423,1,8,3:2:0:0:
108,291,176507,1,8,3:2:0:0:
150,256,176592,1,8,3:2:0:0:
174,208,176676,1,10,3:2:0:0:
221,183,176760,1,8,3:2:0:0:
274,179,176844,1,8,3:2:0:0:
319,208,176929,1,8,3:2:0:0:
328,261,177013,5,8,3:3:0:0:
324,278,177097,1,8,3:3:0:0:
320,295,177181,1,8,3:3:0:0:
316,312,177266,1,8,3:3:0:0:
313,329,177350,5,4,3:2:0:0:
121,85,177687,1,2,3:2:0:0:
196,133,177856,2,0,L|273:109,2,67.5000025749208,10|2|0,3:2|3:2|0:0,0:0:0:0:
41,115,178361,2,0,P|34:76|59:30,1,67.5000025749208,10|0,3:2|0:0,0:0:0:0:
201,6,178698,5,0,3:2:0:0:
134,206,178867,1,10,3:2:0:0:
260,112,179035,2,0,B|325:105|292:130|358:126,1,101.250003862381,2|0,3:2|0:0,0:0:0:0:
352,49,179373,2,0,P|345:23|339:41,1,67.5000025749208,8|0,3:2|3:2,0:0:0:0:
432,101,179625,2,0,P|445:91|455:77,1,33.7500012874604,8|0,3:2|0:0,0:0:0:0:
294,235,179878,2,0,L|289:186,1,33.7500012874604,8|0,3:2|0:0,0:0:0:0:
256,22,180047,5,4,3:2:0:0:
418,204,180384,1,2,3:2:0:0:
229,142,180552,1,10,3:2:0:0:
352,49,180721,2,0,B|368:92|368:92|339:194,1,135.000005149842,2|10,3:2|3:2,0:0:0:0:
257,310,181226,5,0,3:0:0:0:
266,319,181311,2,0,B|296:313|328:320|305:326|341:336|377:322,1,101.250003862381,2|10,3:2|3:2,0:0:0:0:
221,228,181732,2,0,P|172:272|177:352,1,135.000005149842,2|8,3:2|3:2,0:0:0:0:
77,219,182238,1,0,3:2:0:0:
74,205,182322,1,8,3:2:0:0:
71,191,182406,2,0,L|85:148,1,33.7500012874604,0|0,3:2|3:2,0:0:0:0:
175,104,182575,2,0,L|185:136,1,33.7500012874604,8|0,3:2|3:2,0:0:0:0:
45,43,182743,6,0,B|107:28|107:28|129:30|129:30|182:16,1,135.000005149842,4|2,3:2|3:2,0:0:0:0:
287,79,183249,1,10,3:2:0:0:
149,164,183417,2,0,P|156:129|183:97,1,67.5000025749208,2|0,3:2|0:0,0:0:0:0:
341,141,183755,1,12,3:2:0:0:
245,259,183923,6,0,B|172:235|201:277|111:255,1,135.000005149842,2|10,0:0|3:2,0:0:0:0:
211,339,184429,1,2,3:2:0:0:
149,164,184597,1,0,3:2:0:0:
315,223,184766,2,0,P|324:256|305:307,1,67.5000025749208,8|0,3:2|3:2,0:0:0:0:
245,259,185019,1,8,3:2:0:0:
233,268,185103,2,0,L|158:254,1,67.5000025749208,0|8,0:0|3:2,0:0:0:0:
141,153,185356,1,0,3:2:0:0:
131,137,185440,6,0,P|185:134|234:103,1,101.250003862381,4|0,3:2|0:0,0:0:0:0:
235,97,185777,1,2,3:2:0:0:
103,7,185946,2,0,B|65:2|34:46|34:46|60:63|59:106,1,135.000005149842,10|2,3:2|3:2,0:0:0:0:
22,222,186451,2,0,L|103:217,1,67.5000025749208,10|0,3:2|0:0,0:0:0:0:
243,89,186788,5,0,3:2:0:0:
148,295,186957,1,10,3:2:0:0:
58,89,187125,1,0,3:2:0:0:
252,219,187294,1,10,3:2:0:0:
223,0,187462,5,0,3:2:0:0:
89,217,187631,1,2,3:2:0:0:
369,176,187799,2,0,L|311:165,1,33.7500012874604,2|2,3:2|0:0,0:0:0:0:
181,67,187968,1,2,3:2:0:0:
174,78,188052,1,2,3:2:0:0:
175,91,188137,6,0,B|226:106|260:84|260:84|289:82|317:98,2,135.000005149842,4|2|8,3:2|0:0|3:2,0:0:0:0:
77,181,188979,1,0,3:2:0:0:
234,287,189148,2,0,B|269:276|297:292|297:292|312:247|349:239,1,135.000005149842,4|0,3:2|0:0,0:0:0:0:
219,291,189653,1,8,3:2:0:0:
385,308,189822,2,0,P|392:320|382:307,1,67.5000025749208,2|2,0:0|3:2,0:0:0:0:
402,174,190159,1,8,3:2:0:0:
243,142,190328,2,0,B|202:145|193:193|193:193|220:216|232:254,1,135.000005149842,2|2,3:2|3:2,0:0:0:0:
351,45,190833,6,0,L|264:32,1,67.5000025749208,4|0,3:2|0:0,0:0:0:0:
201,65,191170,1,2,0:0:0:0:
249,242,191339,1,0,3:2:0:0:
259,233,191423,1,0,0:0:0:0:
270,225,191507,2,0,P|275:185|257:153,1,67.5000025749208,10|0,3:2|3:2,0:0:0:0:
73,28,191844,6,0,B|45:77|45:77|81:172,1,135.000005149842,4|0,3:2|3:2,0:0:0:0:
157,265,192350,2,0,L|74:259,1,67.5000025749208,8|0,3:2|0:0,0:0:0:0:
206,339,192687,1,0,3:2:0:0:
213,351,192771,1,0,3:2:0:0:
220,363,192856,1,8,3:2:0:0:
184,176,193024,1,0,3:2:0:0:
47,348,193193,1,2,0:0:0:0:
12,94,193361,6,0,B|52:107|83:97|83:97|93:99|93:99|122:89|155:100,1,135.000005149842,4|0,3:2|3:2,0:0:0:0:
249,194,193867,2,0,P|216:191|177:171,1,67.5000025749208,10|0,3:2|0:0,0:0:0:0:
225,26,194204,2,0,P|238:56|241:99,1,67.5000025749208,10|0,3:2|0:0,0:0:0:0:
329,176,194541,1,10,3:2:0:0:
459,29,194710,6,0,B|401:21|401:21|390:15|390:15|326:8,1,135.000005149842,4|0,3:2|3:2,0:0:0:0:
242,89,195215,1,2,3:2:0:0:
450,130,195384,1,0,3:2:0:0:
326,8,195552,1,2,3:2:0:0:
329,176,195721,1,0,3:2:0:0:
373,91,195889,1,0,3:2:0:0:
161,81,196058,6,0,P|180:143|239:170,1,135.000005149842,4|0,3:2|3:2,0:0:0:0:
239,170,196479,1,0,3:2:0:0:
239,170,196564,1,10,3:2:0:0:
71,114,196732,1,0,3:2:0:0:
286,82,196901,1,10,3:2:0:0:
58,222,197069,1,0,3:2:0:0:
150,1,197238,1,10,3:2:0:0:
272,269,197406,6,0,P|214:299|153:276,1,135.000005149842,4|0,3:2|3:2,0:0:0:0:
334,156,197912,1,8,3:3:0:0:
351,325,198080,1,8,3:3:0:0:
211,215,198249,1,0,3:2:0:0:
417,94,198417,1,0,3:2:0:0:
425,68,198502,1,0,3:2:0:0:
410,45,198586,2,0,L|365:36,1,33.7500012874604,0|0,3:2|3:2,0:0:0:0:
151,127,198755,6,0,P|166:73|251:69,1,135.000005149842,4|0,3:2|3:2,0:0:0:0:
293,123,199176,1,0,3:2:0:0:
293,123,199260,6,0,L|280:181,1,45,10|0,3:2|0:0,0:0:0:0:
220,250,199429,1,0,3:2:0:0:
228,15,199597,2,0,L|237:66,1,45,10|0,3:2|0:0,0:0:0:0:
348,236,199766,1,0,3:2:0:0:
309,45,199934,1,10,3:2:0:0:
247,336,200103,6,0,P|186:350|119:252,1,180,4|0,3:2|3:2,0:0:0:0:
334,156,200608,2,0,L|235:138,1,90,10|0,3:2|3:2,0:0:0:0:
84,0,200946,1,10,3:2:0:0:
31,10,201030,1,0,3:2:0:0:
0,54,201114,1,0,3:2:0:0:
3,107,201198,1,0,3:2:0:0:
41,145,201283,2,0,L|86:134,1,45,10|0,3:2|0:0,0:0:0:0:
190,222,201451,2,0,L|145:211,1,45,4|0,3:2|0:0,0:0:0:0:
210,46,201620,5,0,0:0:0:0:
56,267,201788,1,10,3:2:0:0:
79,308,201873,1,8,3:2:0:0:
124,321,201957,2,0,P|159:316|196:306,1,67.5000025749208,2|0,3:2|3:2,0:0:0:0:
408,166,202125,1,8,3:2:0:0:
408,166,202210,1,8,3:2:0:0:
408,166,202294,2,0,L|385:247,1,67.5000025749208,10|8,3:2|3:2,0:0:0:0:
190,222,202462,2,0,L|257:215,1,67.5000025749208,2|0,3:2|0:0,0:0:0:0:
341,378,202631,2,0,L|300:324,1,67.5000025749208,0|0,3:2|0:0,0:0:0:0:
281,106,202799,6,0,P|252:65|147:77,1,135.000005149842,4|8,3:2|3:2,0:0:0:0:
94,140,203052,1,8,3:2:0:0:
94,140,203137,2,0,L|104:209,1,67.5000025749208,8|0,3:2|0:0,0:0:0:0:
341,378,203305,1,8,3:2:0:0:
383,334,203389,1,8,3:2:0:0:
396,274,203474,1,8,3:2:0:0:
361,224,203558,1,0,0:0:0:0:
305,200,203642,2,0,P|264:198|220:179,1,67.5000025749208,8|8,3:2|3:2,0:0:0:0:
131,36,203811,5,8,3:2:0:0:
89,89,203895,1,8,3:2:0:0:
91,156,203979,1,10,3:2:0:0:
144,198,204064,1,10,3:2:0:0:
180,254,204148,1,10,3:2:0:0:
163,319,204232,1,10,3:2:0:0:
105,337,204316,6,0,P|83:333|17:320,1,90,2|0,3:2|3:2,0:0:0:0:
105,99,204653,2,0,B|195:82|195:82|216:87|216:87|294:73,1,180,8|0,3:2|3:2,0:0:0:0:
426,104,205159,1,0,3:2:0:0:
350,226,205328,2,0,B|322:208|285:220|285:220|243:232|204:196,1,135,8|0,3:2|0:0,0:0:0:0:
270,145,205665,6,0,P|354:133|341:200,1,180,0|8,3:2|3:2,0:0:0:0:
226,320,206170,1,0,3:2:0:0:
121,210,206339,2,0,L|25:189,1,90,10|2,3:2|3:2,0:0:0:0:
138,339,206592,1,0,0:0:0:0:
138,339,206676,2,0,L|225:319,1,90,10|2,3:2|3:2,0:0:0:0:
306,165,207013,5,0,3:2:0:0:
414,287,207181,1,0,3:2:0:0:
491,108,207350,2,0,P|461:75|398:86,1,90,8|0,3:2|3:2,0:0:0:0:
381,142,207603,1,0,3:2:0:0:
381,142,207687,1,2,3:2:0:0:
250,254,207856,1,2,3:2:0:0:
235,37,208024,1,10,3:2:0:0:
88,174,208193,2,0,L|-5:157,1,90,2|0,0:0|3:2,0:0:0:0:
306,165,208530,5,2,3:2:0:0:
236,326,208698,2,0,B|202:308|168:327|168:327|140:319|140:319|96:339|37:301,1,180,12|0,3:2|3:2,0:0:0:0:
206,185,209204,1,0,3:2:0:0:
316,377,209373,2,0,P|316:350|318:330,1,45,12|0,3:2|0:0,0:0:0:0:
402,239,209541,1,0,3:2:0:0:
390,225,209625,1,0,3:2:0:0:
379,210,209710,6,0,B|412:180|413:129|413:129|446:174|503:160,1,180,2|10,3:2|3:2,0:0:0:0:
376,61,210215,1,2,3:2:0:0:
372,43,210299,1,0,3:2:0:0:
360,29,210384,1,0,3:2:0:0:
296,227,210552,1,2,0:0:0:0:
196,90,210721,2,0,L|300:82,1,90,10|2,3:2|0:0,0:0:0:0:
350,136,210974,1,0,3:2:0:0:
350,136,211058,5,0,3:2:0:0:
194,235,211226,1,0,3:2:0:0:
408,384,211395,2,0,B|405:312|405:312|385:288|385:288|381:196,1,180,8|2,3:2|3:2,0:0:0:0:
381,211,211816,1,0,0:0:0:0:
381,211,211901,1,0,3:2:0:0:
116,275,212069,2,0,P|106:235|161:159,1,135,10|0,3:2|0:0,0:0:0:0:
194,235,212406,6,0,B|237:219|277:234|277:234|298:229|298:229|340:243|378:224,1,180,4|10,3:2|3:2,0:0:0:0:
455,42,212912,1,2,3:2:0:0:
458,59,212996,1,0,3:2:0:0:
455,76,213080,1,0,3:2:0:0:
369,227,213249,1,2,3:2:0:0:
248,16,213417,2,0,L|354:-4,1,90,10|0,3:2|3:2,0:0:0:0:
382,66,213670,1,0,3:2:0:0:
382,66,213755,5,0,3:2:0:0:
271,223,213923,1,0,3:2:0:0:
166,0,214092,2,0,B|119:10|99:49|99:49|109:91|140:118,1,135,12|0,3:2|0:0,0:0:0:0:
200,190,214429,5,8,3:2:0:0:
194,236,214513,1,0,3:2:0:0:
212,278,214597,1,8,3:2:0:0:
254,296,214681,1,0,3:2:0:0:
300,296,214766,6,0,L|309:249,1,45,0|0,3:2|3:2,0:0:0:0:
429,208,214934,2,0,L|436:163,1,45,0|0,3:2|3:2,0:0:0:0:
451,362,215103,6,0,B|379:372|379:372|352:363|352:363|271:373,1,180,4|8,3:2|3:2,0:0:0:0:
88,231,215693,1,0,3:2:0:0:
96,247,215777,1,2,3:2:0:0:
259,161,215946,1,0,3:2:0:0:
118,126,216114,2,0,B|29:130|89:95|-13:105,1,135,8|0,3:2|0:0,0:0:0:0:
11,183,216451,5,2,3:2:0:0:
213,32,216620,1,0,3:2:0:0:
256,282,216788,2,0,P|310:284|341:255,1,90,8|0,3:2|0:0,0:0:0:0:
357,179,217041,1,0,0:0:0:0:
357,179,217125,1,2,3:2:0:0:
229,367,217294,1,0,3:2:0:0:
130,140,217462,2,0,L|241:127,1,90,10|0,3:2|3:2,0:0:0:0:
290,71,217715,1,0,3:2:0:0:
290,71,217799,6,0,L|296:19,1,45,4|0,3:2|0:0,0:0:0:0:
366,110,217968,1,2,0:0:0:0:
381,119,218052,1,2,0:0:0:0:
396,127,218137,2,0,L|401:82,1,45,8|0,3:2|0:0,0:0:0:0:
512,138,218305,1,0,3:2:0:0:
509,155,218389,1,0,3:2:0:0:
506,173,218474,1,2,3:2:0:0:
307,173,218642,1,0,3:2:0:0:
341,380,218811,2,0,B|401:361|401:361|430:367|430:367|485:350,1,135,10|0,3:2|3:2,0:0:0:0:
512,298,219148,5,0,3:2:0:0:
261,382,219316,1,0,3:2:0:0:
383,181,219485,1,10,3:2:0:0:
341,380,219653,1,0,3:2:0:0:
334,363,219738,1,0,3:2:0:0:
327,346,219822,2,0,L|331:283,1,45,2|0,3:2|3:2,0:0:0:0:
218,198,219990,2,0,L|212:258,1,45,0|0,3:2|3:2,0:0:0:0:
98,358,220159,1,2,3:2:0:0:
54,369,220243,1,0,3:2:0:0:
14,346,220328,1,0,3:2:0:0:
2,302,220412,1,0,3:2:0:0:
24,262,220496,5,4,3:2:0:0:
133,198,220665,1,2,3:2:0:0:
16,138,220833,2,0,L|26:236,1,90,2|0,3:2|0:0,0:0:0:0:
220,52,221170,1,2,3:2:0:0:
131,209,221339,1,8,3:2:0:0:
88,28,221507,1,2,3:2:0:0:
285,121,221676,6,0,B|362:109|362:109|389:116|389:116|472:105,1,180,8|2,3:2|0:0,0:0:0:0:
319,249,222181,1,0,3:2:0:0:
400,24,222350,2,0,L|310:37,1,90,10|0,3:2|3:2,0:0:0:0:
505,201,222687,1,0,3:2:0:0:
226,51,222856,1,2,3:2:0:0:
219,95,222940,1,2,3:2:0:0:
210,139,223024,1,2,3:2:0:0:
203,183,223108,1,2,3:2:0:0:
196,227,223193,5,4,3:2:0:0:
343,124,223361,1,0,0:0:0:0:
373,302,223530,2,0,L|318:284,1,45,0|0,3:2|0:0,0:0:0:0:
179,325,223698,1,8,3:2:0:0:
377,219,223867,1,2,3:2:0:0:
129,158,224035,1,2,3:2:0:0:
256,363,224204,1,2,3:2:0:0:
361,103,224373,6,0,B|344:74|299:71|299:71|228:102|179:28,1,180,2|8,3:2|3:2,0:0:0:0:
200,207,224878,1,0,3:2:0:0:
262,1,225047,1,0,3:2:0:0:
83,84,225215,1,8,3:2:0:0:
314,199,225384,1,2,3:2:0:0:
362,222,225468,1,2,3:2:0:0:
410,197,225552,1,4,3:2:0:0:
424,144,225637,1,0,0:0:0:0:
395,98,225721,1,2,3:2:0:0:
341,89,225805,1,0,0:0:0:0:
300,122,225889,6,0,B|270:110|233:128|233:128|179:108|179:108|156:120|92:114|92:114|134:114|156:154,1,270.000010299683,4|0,3:2|3:2,0:0:0:0:
43,276,226395,6,0,P|54:243|25:262,1,90,2|0,3:2|3:2,0:0:0:0:
120,349,226816,1,0,3:2:0:0:
120,349,226901,6,0,B|158:366|195:360|195:360|215:316|261:309|261:309|294:335|334:323|334:323|310:314|299:296,1,270.000010299683,2|0,3:2|3:2,0:0:0:0:
264,117,227406,6,0,B|262:157|262:157|257:168|257:168|254:205,1,90,2|0,3:2|3:2,0:0:0:0:
340,15,227912,6,0,P|427:14|406:115,1,202.500007724762,10|0,3:2|0:0,0:0:0:0:
171,120,228249,2,0,L|176:38,1,67.5000025749208,10|0,3:2|0:0,0:0:0:0:
336,195,228417,6,0,B|370:199|390:176|390:176|439:196|484:169|491:125,1,180,4|10,3:2|0:0,0:0:0:0:
420,107,228839,1,8,0:0:0:0:
420,107,228923,2,0,L|421:56,1,45,10|8,0:0|0:0,0:0:0:0:
512,291,229092,1,0,3:0:0:0:
248,182,229260,1,2,0:0:0:0:
488,135,229429,2,0,L|476:189,1,45,4|0,3:2|0:0,0:0:0:0:
317,340,229597,5,2,3:2:0:0:
219,90,229766,2,0,L|93:77,1,90,2|0,0:0|3:2,0:0:0:0:
336,195,230103,5,8,3:2:0:0:
116,341,230271,2,0,L|132:241,1,90,12|0,3:2|0:0,0:0:0:0:
19,156,230524,1,0,0:0:0:0:
14,135,230608,5,8,3:2:0:0:
21,90,230693,1,8,3:2:0:0:
59,66,230777,2,0,L|114:57,1,45,8|0,3:2|0:0,0:0:0:0:
241,206,230946,5,8,3:2:0:0:
205,177,231031,1,8,3:2:0:0:
203,132,231115,2,0,L|222:79,1,45,8|0,3:2|0:0,0:0:0:0:
392,85,231283,5,4,3:2:0:0:
325,140,238033,6,0,B|355:113|409:114|409:114|376:128|363:159,1,148.50000453186,4|0,3:2|0:0,0:0:0:0:
243,229,238370,6,0,B|213:202|159:203|159:203|192:217|205:248,1,148.50000453186,4|0,3:2|0:0,0:0:0:0:
445,384,238707,6,0,B|449:294|449:294|439:264|439:264|445:167,1,198.000006042481,4|8,3:2|3:3,0:0:0:0:
303,321,239212,1,0,0:0:0:0:
229,87,239381,5,4,3:2:0:0:
369,281,239549,1,0,3:2:0:0:
112,168,239718,1,8,3:2:0:0:
388,76,239887,1,0,3:2:0:0:
380,103,239971,1,0,3:2:0:0:
377,132,240055,5,2,3:2:0:0:
141,11,240224,1,8,3:2:0:0:
157,277,240392,1,2,3:2:0:0:
185,284,240476,1,0,3:2:0:0:
213,275,240561,1,0,3:2:0:0:
0,85,240729,6,0,B|-14:141|-14:141|7:258,1,148.50000453186,10|0,3:2|0:0,0:0:0:0:
68,276,241065,5,0,3:2:0:0:
105,289,241150,1,0,3:2:0:0:
143,281,241234,1,0,3:2:0:0:
166,248,241318,1,0,3:2:0:0:
192,206,241402,6,0,L|184:182,1,24.7500007553101,10|0,3:2|0:0,0:0:0:0:
229,193,241488,2,0,L|229:167,1,24.7500007553101,8|0,3:2|0:0,0:0:0:0:
267,201,241572,2,0,L|288:177,1,24.7500007553101,0|0,3:2|0:0,0:0:0:0:
290,234,241656,2,0,L|328:231,1,24.7500007553101,0|0,3:2|0:0,0:0:0:0:
299,282,241739,5,8,3:2:0:0:
328,307,241824,1,8,3:2:0:0:
367,307,241908,1,8,3:2:0:0:
399,284,241993,1,0,3:2:0:0:
395,234,242077,6,0,L|395:135,1,90,4|0,3:2|3:2,0:0:0:0:
292,36,242415,2,0,B|260:26|229:49|229:49|212:6|144:-2,1,135,10|0,3:2|0:0,0:0:0:0:
76,177,242752,2,0,B|97:111|97:111|182:67,1,135,2|0,0:0|0:0,0:0:0:0:
303,131,243089,2,0,B|263:150|263:150|192:139,1,90,10|2,3:2|0:0,0:0:0:0:
155,266,243341,1,0,0:0:0:0:
155,266,243426,6,0,P|143:312|167:360,1,90,2|0,3:2|0:0,0:0:0:0:
306,321,243679,2,0,P|305:276|279:240,1,90,2|0,3:2|0:0,0:0:0:0:
223,167,243931,2,0,L|171:167,1,45,2|0,3:2|0:0,0:0:0:0:
336,38,244100,1,2,0:0:0:0:
433,230,244268,1,2,3:2:0:0:
443,195,244352,1,0,0:0:0:0:
467,167,244437,1,10,3:2:0:0:
207,0,244606,1,2,0:0:0:0:
233,24,244690,1,2,0:0:0:0:
234,60,244774,6,0,P|182:95|123:50,1,135,4|0,3:2|0:0,0:0:0:0:
0,119,245111,2,0,P|1:84|14:108,1,90,10|2,3:2|3:2,0:0:0:0:
143,168,245364,1,2,0:0:0:0:
143,168,245448,2,0,L|128:276,1,90,2|0,0:0|3:2,0:0:0:0:
17,368,245785,2,0,L|2:260,1,90,10|2,3:2|3:2,0:0:0:0:
228,217,246038,1,0,3:2:0:0:
228,217,246122,6,0,B|277:233|277:233|337:209,1,90.0000034332277,6|0,3:2|0:0,0:0:0:0:
320,70,246347,6,0,B|281:104|281:104|272:168,1,90.0000034332277,2|0,3:2|0:0,0:0:0:0:
405,222,246572,6,0,B|394:171|394:171|343:131,1,90.0000034332277,2|0,3:2|0:0,0:0:0:0:
283,331,246797,6,0,L|153:313,1,90.0000034332277,10|0,3:2|0:0,0:0:0:0:
194,133,247021,6,0,L|243:254,1,90.0000034332277,6|0,3:2|0:0,0:0:0:0:
64,315,247246,6,0,L|144:211,1,90.0000034332277,2|0,3:2|0:0,0:0:0:0:
276,41,247471,6,0,P|314:35|323:115,1,121.499996292114,4|0,3:2|0:0,0:0:0:0:
290,156,247808,1,0,3:2:0:0:
478,63,247976,1,8,3:2:0:0:
445,270,248145,2,0,L|442:207,1,40.4999987640381,2|0,0:0|0:0,0:0:0:0:
489,76,248313,2,0,L|482:122,1,40.4999987640381,0|0,3:2|0:0,0:0:0:0:
324,329,248482,5,0,3:2:0:0:
306,297,248566,1,0,3:2:0:0:
275,278,248651,1,0,3:2:0:0:
239,275,248735,1,0,3:2:0:0:
204,287,248819,5,2,3:2:0:0:
181,320,248903,1,0,3:2:0:0:
142,331,248988,1,0,3:2:0:0:
101,325,249072,1,0,3:2:0:0:
75,293,249156,5,2,3:2:0:0:
103,258,249240,1,0,3:2:0:0:
112,214,249325,1,0,3:2:0:0:
93,172,249409,1,0,3:2:0:0:
51,153,249493,5,2,3:2:0:0:
37,105,249578,1,0,3:2:0:0:
56,59,249662,1,0,3:2:0:0:
102,41,249746,1,0,3:2:0:0:
147,59,249830,5,10,3:2:0:0:
192,87,249915,1,0,3:2:0:0:
245,84,249999,1,0,3:2:0:0:
290,54,250083,1,0,3:2:0:0:
339,21,250167,5,2,3:2:0:0:
407,27,250252,1,0,3:2:0:0:
443,86,250336,1,2,0:0:0:0:
436,154,250420,1,0,3:2:0:0:
376,188,250504,1,2,3:2:0:0:
331,240,250589,1,0,3:2:0:0:
333,309,250673,1,10,3:2:0:0:
384,354,250757,1,0,3:2:0:0:
456,354,250841,6,0,B|482:284|482:284|435:187,1,135.000005149842,4|0,3:2|0:0,0:0:0:0:
230,139,251094,6,0,B|204:209|204:209|251:306,1,135.000005149842,4|0,3:2|0:0,0:0:0:0:
447,70,251347,6,0,L|361:75,1,67.5000025749208,4|0,3:2|0:0,0:0:0:0:
194,0,251516,5,4,3:2:0:0:
230,263,251684,1,0,3:2:0:0:
7,151,251853,1,10,3:2:0:0:
323,19,252021,2,0,L|308:155,1,135.000005149842,2|0,0:0|3:2,0:0:0:0:
103,93,252358,2,0,L|156:98,1,49.5000015106202,10|2,3:2|0:0,0:0:0:0:
230,263,252527,2,0,L|122:249,1,99.0000030212403,12|0,3:2|3:2,0:0:0:0:
396,150,252780,1,0,3:2:0:0:
396,150,252864,6,0,P|390:191|385:253,1,99.0000030212403,10|0,3:2|3:2,0:0:0:0:
188,90,253201,1,10,3:2:0:0:
298,344,253370,1,0,3:2:0:0:
268,79,253538,5,10,3:2:0:0:
180,341,253707,1,0,3:2:0:0:
353,68,253875,5,10,3:2:0:0:
85,279,254044,1,0,3:2:0:0:
70,253,254128,1,0,3:2:0:0:
70,223,254212,5,10,3:2:0:0:
391,232,254381,1,0,3:2:0:0:
88,72,254549,5,10,3:2:0:0:
391,151,254718,1,0,3:2:0:0:
178,324,254887,5,10,3:2:0:0:
178,324,254971,2,0,L|167:267,1,49.5000015106202,0|0,3:2|0:0,0:0:0:0:
283,136,255139,1,10,3:2:0:0:
283,136,255224,2,0,L|272:195,1,49.5000015106202,10|0,3:2|0:0,0:0:0:0:
401,307,255392,1,0,3:2:0:0:
439,316,255476,1,0,3:2:0:0:
469,289,255561,6,0,P|471:267|453:236,1,49.5000015106202,14|0,3:2|0:0,0:0:0:0:
283,136,255729,1,0,3:2:0:0:
304,359,255898,5,10,3:2:0:0:
378,113,256066,1,0,3:2:0:0:
206,345,256235,5,10,3:2:0:0:
184,68,256403,1,0,3:2:0:0:
16,328,256572,5,10,3:2:0:0:
93,22,256740,1,0,3:2:0:0:
387,228,256909,5,10,3:2:0:0:
27,118,257078,1,0,3:2:0:0:
381,123,257246,5,10,3:2:0:0:
22,203,257415,1,0,3:2:0:0:
223,348,257583,6,0,L|215:299,1,49.5000015106202,10|0,3:2|0:0,0:0:0:0:
304,104,257752,2,0,L|292:160,1,49.5000015106202,0|0,3:2|0:0,0:0:0:0:
131,239,257920,5,10,3:2:0:0:
376,217,258089,1,2,3:2:0:0:
152,346,258257,5,14,3:2:0:0:
96,67,258426,1,0,0:0:0:0:
244,353,258594,5,10,3:2:0:0:
213,16,258763,1,0,3:0:0:0:
333,361,258931,5,10,3:2:0:0:
347,14,259100,1,0,3:2:0:0:
423,371,259269,5,8,3:2:0:0:
493,54,259437,1,0,3:3:0:0:
197,191,259606,6,0,P|168:185|141:167,1,49.5000015106202,2|0,3:2|0:0,0:0:0:0:
346,151,259774,2,0,P|355:179|353:211,1,49.5000015106202,2|0,3:2|0:0,0:0:0:0:
221,54,259943,2,0,P|240:31|269:17,1,49.5000015106202,0|0,3:0|0:0,0:0:0:0:
382,300,260111,2,0,B|267:308|320:253|168:274,1,198.000006042481,6|2,3:2|3:2,0:0:0:0:
58,176,260617,1,2,0:0:0:0:
338,36,260785,5,6,3:2:0:0:
382,36,260870,1,2,0:0:0:0:
423,52,260954,1,2,0:0:0:0:
458,78,261038,1,2,0:0:0:0:
483,114,261122,1,2,3:2:0:0:
494,157,261207,1,2,3:2:0:0:
498,201,261291,6,0,L|504:258,1,49.5000015106202,8|0,3:2|0:0,0:0:0:0:
391,200,261460,2,0,L|397:257,1,49.5000015106202
278,197,261628,2,0,L|284:254,1,49.5000015106202,0|0,3:2|3:2,0:0:0:0:
168,200,261797,5,10,3:2:0:0:
170,219,261881,1,8,3:2:0:0:
172,238,261965,1,0,3:2:0:0:
338,36,262134,6,0,B|314:9|265:-2|265:-2|226:18|168:3,1,148.50000453186,4|0,3:2|0:0,0:0:0:0:
124,5,262471,1,2,3:2:0:0:
326,212,262639,1,10,3:2:0:0:
302,205,262724,1,0,0:0:0:0:
278,197,262808,2,0,B|326:157|326:157|399:182|399:182|445:136,1,198.000006042481,2|2,3:2|0:0,0:0:0:0:
224,323,263313,5,2,0:0:0:0:
256,192,263398,12,0,265589,0:0:0:0:
117,160,265673,5,8,3:3:0:0:
141,317,265842,1,0,3:2:0:0:
259,115,266010,1,8,3:3:0:0:
416,286,266179,6,0,B|340:278|340:278|319:262|319:262|219:251,1,180,4|0,3:2|0:0,0:0:0:0:
403,176,266684,1,8,3:2:0:0:
406,149,266769,1,0,0:0:0:0:
408,122,266853,2,0,L|415:62,1,45,0|0,0:0|3:2,0:0:0:0:
242,253,267021,1,2,3:2:0:0:
259,115,267189,1,0,0:0:0:0:
416,286,267358,2,0,L|423:185,1,90,10|0,3:2|3:2,0:0:0:0:
209,54,267695,6,0,P|178:127|264:195,1,180,2|10,3:2|3:2,0:0:0:0:
331,69,268201,1,2,0:0:0:0:
323,269,268370,1,2,3:2:0:0:
259,115,268538,1,0,3:2:0:0:
241,325,268706,2,0,L|183:318,1,45,10|2,3:2|0:0,0:0:0:0:
337,257,268874,2,0,L|386:264,1,45,0|2,0:0|0:0,0:0:0:0:
166,94,269043,6,0,B|121:104|121:149|121:149|147:277,1,180,2|8,3:2|3:2,0:0:0:0:
336,153,269548,1,0,0:0:0:0:
338,135,269633,1,0,0:0:0:0:
334,117,269717,1,2,3:2:0:0:
211,245,269886,1,0,3:2:0:0:
419,283,270055,2,0,P|422:236|360:174,1,135,8|0,3:2|3:2,0:0:0:0:
302,221,270392,5,2,3:2:0:0:
325,29,270561,1,0,3:2:0:0:
157,126,270729,2,0,L|58:118,1,90,8|2,3:2|0:0,0:0:0:0:
67,118,270981,1,2,0:0:0:0:
67,118,271065,1,2,3:2:0:0:
211,245,271234,1,0,3:2:0:0:
232,20,271402,1,8,3:2:0:0:
104,211,271571,1,0,3:2:0:0:
100,228,271655,1,0,3:2:0:0:
95,245,271739,6,0,B|87:357|87:357|97:314|133:301,1,180,4|8,3:2|3:2,0:0:0:0:
297,216,272245,1,2,3:2:0:0:
302,234,272329,1,0,0:0:0:0:
300,252,272414,1,0,0:0:0:0:
156,146,272582,1,2,3:2:0:0:
316,13,272752,2,0,L|308:116,1,90,8|0,0:2|0:0,0:0:0:0:
364,163,273003,1,8,0:2:0:0:
376,175,273089,5,2,0:3:0:0:
415,275,273256,1,2,3:2:0:0:
440,81,273426,1,8,0:0:0:0:
265,159,273593,1,2,0:0:0:0:
236,137,273678,1,0,0:0:0:0:
204,116,273763,2,0,L|198:62,1,45,2|0,3:2|3:2,0:0:0:0:
364,163,273931,2,0,L|358:217,1,45,2|0,3:2|3:2,0:0:0:0:
266,20,274100,1,12,3:2:0:0:
221,250,274268,1,0,3:2:0:0:
36,94,274437,6,0,B|102:77|102:77|146:87|146:87|210:69,1,168.75,2|0,3:2|0:0,0:0:0:0:
265,159,274774,6,0,P|335:158|361:81,1,135,2|0,3:2|0:0,0:0:0:0:
408,15,275113,5,2,3:2:0:0:
455,187,275319,2,0,L|465:141,2,45,0|0|0,3:2|0:0|3:2,0:0:0:0:
429,307,275618,6,0,B|399:295|370:305|370:305|358:294|336:288|336:288|311:316|264:310|264:310|290:299,1,202.500007724762,12|0,3:2|0:0,0:0:0:0:
277,227,275955,1,0,3:2:0:0:
63,230,276124,6,0,L|154:215,1,90,10|0,3:2|3:2,0:0:0:0:
123,99,276461,6,0,L|65:90,1,45,2|8,3:2|3:2,0:0:0:0:
17,36,276713,1,8,3:2:0:0:
17,36,276797,1,8,3:2:0:0:
224,52,276966,6,0,B|272:73|323:54|292:45|344:22|374:65|374:65|382:97|366:121|325:131,1,225,4|0,3:2|3:2,0:0:0:0:
326,201,277388,2,0,L|329:234,2,28.125,0|0|10,3:2|0:0|3:2,0:0:0:0:
247,144,277641,1,0,3:2:0:0:
434,291,277809,6,0,L|447:139,1,135.000005149842,2|0,3:2|3:2,0:0:0:0:
305,308,278146,1,0,3:2:0:0:
199,74,278315,6,0,P|162:110|172:194,1,135.000005149842,12|0,3:2|0:0,0:0:0:0:
31,336,278652,1,10,3:2:0:0:
14,306,278736,1,8,3:2:0:0:
19,272,278820,1,0,3:2:0:0:
44,250,278905,2,0,L|118:237,1,67.5000025749208,0|0,3:2|3:2,0:0:0:0:
305,308,279073,1,0,3:2:0:0:
271,240,279157,6,0,P|233:280|236:344,1,101.250003862381,10|0,3:2|0:0,0:0:0:0:
362,358,279494,6,0,P|378:335|375:281,1,67.5000025749208,2|0,3:2|0:0,0:0:0:0:
110,238,279663,6,0,B|81:255|26:236|29:175|29:175|69:135|126:141|150:189|150:189|152:175|152:175|193:212|257:211|282:158|282:158|292:145|305:138|319:135|319:135|271:131|231:87|231:87|282:100|330:85|330:85|319:39|348:-13|348:-13|351:39|380:80|380:80|421:55|479:67|479:67|430:86|401:126|401:126|437:158|444:217|444:217|411:176|363:160|363:160|344:205|290:229|290:229|324:177|311:138|311:138|303:126,1,1485,4|0,3:2|0:0,0:0:0:0:
256,192,285309,12,0,286236,0:0:0:0:
