osu file format v14

[General]
AudioFilename: audio.mp3
AudioLeadIn: 0
PreviewTime: 231272
Countdown: 0
SampleSet: Soft
StackLeniency: 0.4
Mode: 0
LetterboxInBreaks: 0
WidescreenStoryboard: 1

[Editor]
DistanceSpacing: 0.6
BeatDivisor: 4
GridSize: 8
TimelineZoom: 2.5

[Metadata]
Title:OvertuRe:
TitleUnicode:OvertuRe:
Artist:KiRaRe
ArtistUnicode:KiRaRe
Creator:MiyohashiKoori
Version:G11K's Insane
Source:Re:ステージ! ドリームデイズ♪
Tags:Re:ステージ!プリズムステップ re:stage! prism step restage dream days rst japanese video game anime キラリ 式宮舞菜 Shikimiya Mana 月坂紗由 Tsukisaka Sayu 市杵島瑞葉 Ichikishima Mizuha 柊かえ Hiiragi Kae 本城香澄 Honjou Kasumi 長谷川みい Hasegawa Mii 牧野天音 Makino Amane 鬼頭明里 Kitou Akari 田澤茉純 Tazawa Masumi 立花芽恵夢 Tachibana Meemu 岩橋由佳 Iwahashi Yuka 空見ゆき Sorami Yuki DRe:AMER Hey lululu ThoG11k pop j-pop jpop
BeatmapID:2985411
BeatmapSetID:1364768

[Difficulty]
HPDrainRate:5
CircleSize:4
OverallDifficulty:8.2
ApproachRate:9
SliderMultiplier:1.8
SliderTickRate:1

[Events]
//Background and Video events
0,0,"EoErhrDVcAEUsCF(UpPhoto)(auto_scale)(Level3)(1920x1080).jpg",0,0
//Break Periods
2,88561,90458
2,169460,171357
2,231483,236053
//Storyboard Layer 0 (Background)
//Storyboard Layer 1 (Fail)
//Storyboard Layer 2 (Pass)
//Storyboard Layer 3 (Foreground)
//Storyboard Layer 4 (Overlay)
//Storyboard Sound Samples

[TimingPoints]
-627,337.078651685393,4,2,1,40,1,0
-627,-100,4,2,1,40,0,0
721,-133.333333333333,4,2,1,40,0,0
889,-133.333333333333,4,2,1,40,0,0
1058,-133.333333333333,4,2,1,40,0,0
1901,-133.333333333333,4,2,1,40,0,0
2069,-133.333333333333,4,2,2,40,0,0
2153,-133.333333333333,4,2,1,40,0,0
2238,-133.333333333333,4,2,1,40,0,0
2406,-133.333333333333,4,2,1,40,0,0
2575,-133.333333333333,4,2,1,40,0,0
3417,-133.333333333333,4,2,3,40,0,0
3502,-133.333333333333,4,2,1,40,0,0
3754,-133.333333333333,4,2,1,40,0,0
3923,-133.333333333333,4,2,1,50,0,0
5103,-133.333333333333,4,2,1,50,0,0
5271,-133.333333333333,4,2,1,50,0,0
5608,-133.333333333333,4,2,1,40,0,0
6114,-133.333333333333,4,2,4,50,0,0
6199,-133.333333333333,4,2,1,50,0,0
6451,-133.333333333333,4,2,1,50,0,0
6620,-133.333333333333,4,2,1,50,0,0
7462,-133.333333333333,4,2,3,50,0,0
7518,-133.333333333333,4,2,3,50,0,0
8811,-133.333333333333,4,2,3,30,0,0
9822,-133.333333333333,4,2,5,50,0,0
10074,-133.333333333333,4,2,5,50,0,0
10159,-133.333333333333,4,2,5,60,0,0
10496,-133.333333333333,4,2,5,60,0,0
11002,-133.333333333333,4,2,5,60,0,0
11170,-133.333333333333,4,2,5,60,0,0
11339,-133.333333333333,4,2,5,60,0,0
11507,-133.333333333333,4,2,5,60,0,0
13024,-133.333333333333,4,2,5,60,0,0
13193,-133.333333333333,4,2,5,60,0,0
13698,-133.333333333333,4,2,5,60,0,0
13867,-133.333333333333,4,2,5,60,0,0
14372,-133.333333333333,4,2,5,60,0,0
14541,-133.333333333333,4,2,5,60,0,0
15720,-133.333333333333,4,2,5,60,0,0
15889,-133.333333333333,4,2,5,60,0,0
16394,-133.333333333333,4,2,5,60,0,0
16564,-133.333333333333,4,2,5,60,0,0
16732,-133.333333333333,4,2,5,60,0,0
16901,-133.333333333333,4,2,5,60,0,0
17069,-133.333333333333,4,2,5,60,0,0
17238,-133.333333333333,4,2,5,60,0,0
18417,-133.333333333333,4,2,5,60,0,0
18586,-133.333333333333,4,2,5,60,0,0
19092,-133.333333333333,4,2,5,60,0,0
19260,-133.333333333333,4,2,5,60,0,0
19428,-133.333333333333,4,2,5,60,0,0
19597,-133.333333333333,4,2,5,60,0,0
21114,-133.333333333333,4,2,5,60,0,0
21283,-133.333333333333,4,2,5,60,0,0
21451,-133.333333333333,4,2,5,60,0,0
21957,-133.333333333333,4,2,5,60,0,0
22125,-133.333333333333,4,2,5,60,0,0
22294,-133.333333333333,4,2,5,60,0,0
22462,-133.333333333333,4,2,5,60,0,0
22631,-133.333333333333,4,2,5,60,0,0
22799,-133.333333333333,4,2,5,60,0,0
22968,-133.333333333333,4,2,5,60,0,0
24485,-133.333333333333,4,2,5,60,0,0
24653,-133.333333333333,4,2,5,60,0,0
24822,-133.333333333333,4,2,5,60,0,0
24990,-133.333333333333,4,2,5,60,0,0
25159,-133.333333333333,4,2,5,60,0,0
25328,-133.333333333333,4,2,5,60,0,0
26507,-133.333333333333,4,2,5,60,0,0
26675,-133.333333333333,4,2,5,60,0,0
27181,-133.333333333333,4,2,5,60,0,0
27350,-133.333333333333,4,2,5,60,0,0
27519,-133.333333333333,4,2,5,60,0,0
27687,-133.333333333333,4,2,5,60,0,0
27855,-133.333333333333,4,2,5,60,0,0
28024,-133.333333333333,4,2,5,60,0,0
28530,-133.333333333333,4,2,5,60,0,0
28698,-133.333333333333,4,2,5,60,0,0
28867,-133.333333333333,4,2,5,60,0,0
29035,-133.333333333333,4,2,6,60,0,0
29372,-133.333333333333,4,2,6,60,0,0
29541,-133.333333333333,4,2,6,60,0,0
29878,-133.333333333333,4,2,6,60,0,0
29962,-133.333333333333,4,2,6,60,0,0
30047,-133.333333333333,4,2,6,60,0,0
30215,-133.333333333333,4,2,6,60,0,0
30384,-133.333333333333,4,2,6,60,0,0
30552,-133.333333333333,4,2,6,60,0,0
30721,-133.333333333333,4,2,6,60,0,0
30889,-133.333333333333,4,2,6,60,0,0
31226,-133.333333333333,4,2,6,60,0,0
31395,-133.333333333333,4,2,6,70,0,0
31732,-100,4,2,6,70,0,0
31985,-100,4,2,6,70,0,0
32069,-100,4,2,6,70,0,0
34429,-111.111111111111,4,2,6,70,0,0
34597,-111.111111111111,4,2,6,70,0,0
34766,-111.111111111111,4,2,6,70,0,0
35271,-111.111111111111,4,2,6,70,0,0
35440,-111.111111111111,4,2,6,70,0,0
35608,-111.111111111111,4,2,6,70,0,0
35776,-111.111111111111,4,2,6,70,0,0
37968,-111.111111111111,4,2,6,70,0,0
38137,-111.111111111111,4,2,6,70,0,0
38305,-111.111111111111,4,2,6,70,0,0
38473,-111.111111111111,4,2,6,70,0,0
39569,-111.111111111111,4,2,6,70,0,0
39653,-111.111111111111,4,2,6,70,0,0
39737,-111.111111111111,4,2,6,70,0,0
39822,-111.111111111111,4,2,6,70,0,0
40664,-111.111111111111,4,2,6,70,0,0
40833,-111.111111111111,4,2,6,70,0,0
41001,-111.111111111111,4,2,6,70,0,0
41170,-111.111111111111,4,2,6,70,0,0
42687,-111.111111111111,4,2,6,70,0,0
42856,-111.111111111111,4,2,6,70,0,0
43361,-111.111111111111,4,2,6,70,0,0
43530,-111.111111111111,4,2,6,70,0,0
45215,-111.111111111111,4,2,6,60,0,0
45467,-111.111111111111,4,2,6,60,0,0
45552,-111.111111111111,4,2,6,60,0,0
46057,-111.111111111111,4,2,6,60,0,0
46226,-111.111111111111,4,2,6,60,0,0
46563,-111.111111111111,4,2,6,60,0,0
46732,-111.111111111111,4,2,6,60,0,0
47069,-111.111111111111,4,2,6,60,0,0
47238,-111.111111111111,4,2,6,60,0,0
50608,-111.111111111111,4,2,6,70,0,0
56001,-111.111111111111,4,2,6,80,0,0
56002,-133.333333333333,4,2,6,80,0,1
64092,-117.647058823529,4,2,6,80,0,1
66788,-100,4,2,6,80,0,1
70833,-86.9565217391304,4,2,6,80,0,1
72181,-111.111111111111,4,2,6,80,0,1
73530,-100,4,2,6,80,0,1
84822,-66.6666666666667,4,2,6,80,0,1
85496,-100,4,2,6,80,0,0
91058,-125,4,2,5,60,0,0
92912,-125,4,2,5,60,0,0
93080,-125,4,2,5,60,0,0
94597,-125,4,2,5,60,0,0
94765,-125,4,2,5,60,0,0
94934,-125,4,2,5,60,0,0
95103,-125,4,2,5,60,0,0
96620,-125,4,2,5,60,0,0
96788,-125,4,2,5,60,0,0
97293,-125,4,2,5,60,0,0
97462,-125,4,2,5,60,0,0
98305,-125,4,2,5,60,0,0
98474,-125,4,2,5,60,0,0
99990,-125,4,2,5,60,0,0
100159,-125,4,2,5,60,0,0
100327,-125,4,2,5,60,0,0
100496,-125,4,2,5,60,0,0
103024,-125,4,2,5,60,0,0
103193,-125,4,2,5,60,0,0
103361,-125,4,2,5,60,0,0
103530,-125,4,2,5,60,0,0
104373,-125,4,2,5,60,0,0
104541,-125,4,2,5,60,0,0
105721,-125,4,2,5,60,0,0
105889,-125,4,2,5,60,0,0
106058,-125,4,2,5,60,0,0
106226,-125,4,2,5,60,0,0
107406,-125,4,2,5,60,0,0
107575,-125,4,2,5,60,0,0
108417,-125,4,2,5,60,0,0
108586,-125,4,2,5,60,0,0
109766,-125,4,2,5,60,0,0
109934,-125,4,2,5,60,0,0
110102,-125,4,2,5,60,0,0
110271,-125,4,2,5,60,0,0
111114,-125,4,2,5,60,0,0
111283,-125,4,2,5,60,0,0
112631,-100,4,2,6,70,0,0
115328,-100,4,2,6,70,0,0
118024,-66.6666666666667,4,2,6,70,0,0
118361,-100,4,2,6,70,0,0
123417,-100,4,2,6,70,0,0
131507,-100,4,2,6,70,0,0
136901,-125,4,2,7,80,0,1
146339,-125,4,2,6,80,0,1
147350,-111.111111111111,4,2,6,80,0,1
147687,-100,4,2,6,80,0,1
153080,-111.111111111111,4,2,6,80,0,1
158474,-100,4,2,6,80,0,1
165721,-66.6666666666667,4,2,6,80,0,1
166564,-111.111111111111,4,2,6,60,0,0
167912,-111.111111111111,4,2,4,60,0,0
167996,-111.111111111111,4,2,6,60,0,0
168755,-111.111111111111,4,2,7,60,0,0
169260,-111.111111111111,4,2,8,60,0,0
169344,-111.111111111111,4,2,7,60,0,0
171957,-111.111111111111,4,2,7,60,0,0
172125,-111.111111111111,4,2,7,60,0,0
172294,-111.111111111111,4,2,7,60,0,0
175328,-111.111111111111,4,2,7,70,0,0
176086,-111.111111111111,4,2,7,70,0,0
176170,-111.111111111111,4,2,7,70,0,0
177350,-133.333333333333,4,2,7,70,0,0
177518,-133.333333333333,4,2,7,70,0,0
177687,-133.333333333333,4,2,6,80,0,0
186788,-133.333333333333,4,2,7,70,0,0
188137,-133.333333333333,4,2,6,60,0,0
188305,-133.333333333333,4,2,6,60,0,0
188474,-133.333333333333,4,2,6,60,0,0
189485,-133.333333333333,4,2,6,60,0,0
189653,-133.333333333333,4,2,6,60,0,0
191001,-133.333333333333,4,2,6,60,0,0
191170,-133.333333333333,4,2,6,60,0,0
192519,-133.333333333333,4,2,6,60,0,0
192687,-133.333333333333,4,2,6,60,0,0
193361,-133.333333333333,4,2,6,70,0,0
194035,-133.333333333333,4,2,6,70,0,0
194204,-133.333333333333,4,2,6,70,0,0
194373,-133.333333333333,4,2,6,70,0,0
194541,-133.333333333333,4,2,6,70,0,0
196226,-133.333333333333,4,2,6,70,0,0
196395,-133.333333333333,4,2,6,70,0,0
199260,-111.111111111111,4,2,6,80,0,0
201620,-111.111111111111,4,2,7,80,0,0
201788,-111.111111111111,4,2,7,80,0,0
204316,-100,4,2,6,80,0,0
220496,-125,4,2,6,80,0,0
225889,-100,4,2,6,80,0,0
228417,-100,4,2,7,80,0,0
229934,-100,4,2,6,80,0,0
230103,-100,4,2,6,80,0,0
230440,-100,4,2,7,80,0,0
230608,-100,4,2,7,80,0,0
231283,-133.333333333333,4,2,7,80,0,0
232264,365.853658536585,4,2,7,80,1,0
232631,337.078651685393,4,2,7,70,1,0
233285,346.820809248555,4,2,7,70,1,0
233785,389.61038961039,4,2,7,70,1,0
233979,337.078651685393,4,2,7,60,1,0
234653,306.122448979592,4,2,7,60,1,0
234960,344.827586206897,4,2,7,60,1,0
235305,333.333333333333,4,2,7,60,1,0
235971,324.324324324324,4,2,7,50,1,0
236296,337.078651685393,4,2,7,50,1,0
236653,337.078651685393,4,2,7,50,1,0
236653,-133.333333333333,4,2,7,50,0,0
236905,-133.333333333333,4,2,7,50,0,0
238033,337.078651685393,4,2,6,80,1,1
238033,-125,4,2,6,80,0,1
238370,-111.111111111111,4,2,6,80,0,1
238707,-100,4,2,6,80,0,1
239381,-100,4,2,6,80,0,1
239382,-100,4,2,7,70,0,1
240645,-100,4,2,7,70,0,1
240729,-100,4,2,7,70,0,1
240731,-100,4,2,6,70,0,1
240981,-100,4,2,6,70,0,1
241066,-100,4,2,6,70,0,1
242077,-100,4,2,6,70,0,1
242079,-100,4,2,6,80,0,1
247471,-111.111111111111,4,2,6,80,0,1
250841,-100,4,2,6,80,0,1
263313,-100,4,2,6,80,0,0
263398,-100,4,2,6,80,0,0
263399,-100,4,2,6,5,0,0
263650,-100,4,2,6,5,0,0
265673,-100,4,2,6,5,0,0
265675,-100,4,2,6,80,0,0
275113,413.793103448276,4,2,6,80,1,0
275319,309.278350515464,4,2,6,80,1,0
275473,291.26213592233,4,2,6,80,1,0
275618,337.078651685393,4,2,6,80,1,0
275787,337.078651685393,4,2,6,80,1,0
275955,-100,4,2,6,80,0,0
276461,-100,4,2,7,80,0,0
276966,-100,4,2,7,80,0,0
276967,-100,4,2,6,80,0,0
278652,-100,4,2,7,80,0,0
279157,-100,4,2,7,80,0,0
279158,-100,4,2,6,80,0,0
279663,-133.333333333333,4,2,6,80,0,0
281180,-133.333333333333,4,2,6,70,0,0
282529,-133.333333333333,4,2,6,60,0,0
283877,-133.333333333333,4,2,6,50,0,0
285225,-133.333333333333,4,2,6,40,0,0
285562,-133.333333333333,4,2,6,20,0,0
285899,-133.333333333333,4,2,6,10,0,0
286236,-133.333333333333,4,2,6,5,0,0

[Colours]
Combo1 : 255,128,128
Combo2 : 255,255,128
Combo3 : 255,106,181
Combo4 : 255,128,0

[HitObjects]
98,274,721,5,4,0:0:0:0:
171,266,889,1,0,0:0:0:0:
98,274,1058,1,2,0:0:0:0:
141,333,1226,1,2,0:0:0:0:
141,333,1564,2,0,P|219:326|243:266,1,135,2|0,0:0|0:0,0:0:0:0:
324,226,2069,5,4,0:0:0:0:
397,234,2238,1,2,0:0:0:0:
324,226,2406,1,0,0:0:0:0:
367,167,2575,1,2,0:0:0:0:
354,293,3080,1,2,0:0:0:0:
445,131,3417,6,0,P|404:96|312:103,1,135,4|0,0:0|0:0,0:0:0:0:
253,146,3923,2,0,B|207:137|152:147|152:147|186:119,1,135,2|2,0:0|0:0,0:0:0:0:
253,146,4429,1,2,0:0:0:0:
253,146,4766,6,0,L|251:300,1,135,2|0,0:0|0:0,0:0:0:0:
363,336,5271,2,0,B|286:322|316:376|226:360,1,135,2|2,0:0|0:3,0:0:0:0:
235,361,5777,1,2,0:3:0:0:
96,204,5946,2,0,P|112:206|129:212,1,33.7500000000001,2|0,0:3|0:0,0:0:0:0:
22,211,6114,6,0,B|50:246|50:246|56:191|79:135,1,135,4|0,0:0|0:0,0:0:0:0:
144,73,6620,2,0,P|76:79|33:28,1,135,2|2,0:0|0:0,0:0:0:0:
220,16,7125,1,2,0:0:0:0:
194,190,7462,2,0,L|189:227,1,22.5000000000001,4|0,0:0|0:0,0:0:0:0:
181,196,9822,6,0,P|222:175|302:189,1,101.25,2|0,3:2|0:0,0:0:0:0:
305,199,10159,6,0,P|338:202|395:201,1,67.5000000000002,0|0,3:0|0:0,0:0:0:0:
258,328,10496,2,0,P|248:295|243:262,1,67.5000000000002,8|2,0:0|0:0,0:0:0:0:
359,358,10833,1,8,0:0:0:0:
359,358,11002,2,0,P|386:337|409:313,1,67.5000000000002,0|10,0:0|0:0,0:0:0:0:
438,226,11339,1,0,0:0:0:0:
343,106,11507,6,0,L|353:253,1,135,2|8,0:0|0:0,0:0:0:0:
359,358,12013,2,0,B|410:296|488:335,1,135,2|2,0:0|0:0,0:0:0:0:
480,331,12519,1,8,0:0:0:0:
357,258,12687,1,0,3:0:0:0:
442,144,12856,6,0,P|447:177|446:210,1,67.5000000000002,0|0,3:0|0:0,0:0:0:0:
354,89,13193,1,8,0:0:0:0:
354,89,13361,2,0,B|280:53|286:123|207:74,1,135,2|0,0:0|0:0,0:0:0:0:
132,42,13867,1,10,0:0:0:0:
132,42,14204,6,0,P|96:38|56:44,1,67.5000000000002,2|0,0:0|0:0,0:0:0:0:
85,131,14541,1,8,0:0:0:0:
28,165,14710,2,0,P|55:145|86:131,1,67.5000000000002,2|8,3:2|0:0,0:0:0:0:
182,146,15047,1,2,3:2:0:0:
203,304,15215,1,8,0:0:0:0:
257,237,15384,1,0,3:0:0:0:
89,237,15552,6,0,P|68:263|55:294,1,67.5000000000002,2|0,3:2|0:0,0:0:0:0:
177,232,15889,1,8,0:0:0:0:
177,232,16058,1,2,0:0:0:0:
207,384,16226,2,0,P|174:377|146:359,1,67.5000000000002,8|0,0:0|0:0,0:0:0:0:
308,277,16564,2,0,L|311:344,1,67.5000000000002,10|0,0:0|0:0,0:0:0:0:
422,248,16901,1,2,0:0:0:0:
287,201,17069,1,0,0:0:0:0:
375,123,17238,6,0,L|511:135,1,135,8|0,0:0|0:0,0:0:0:0:
383,37,17743,1,0,0:0:0:0:
295,63,17912,1,10,0:0:0:0:
414,216,18080,1,0,3:0:0:0:
298,169,18249,6,0,P|257:154|208:154,1,67.5000000000002,2|0,3:2|0:0,0:0:0:0:
145,185,18586,1,8,0:0:0:0:
153,51,18755,2,0,L|145:193,1,135,2|0,0:0|0:0,0:0:0:0:
211,300,19260,2,0,P|227:270|233:237,1,67.5000000000002,10|0,0:0|0:0,0:0:0:0:
89,347,19597,6,0,B|60:308|60:251|60:251|89:287,1,135,2|8,0:0|0:0,0:0:0:0:
80,276,20103,2,0,P|46:282|13:280,1,67.5000000000002,2|8,0:2|0:0,0:0:0:0:
205,205,20440,1,0,3:2:0:0:
163,274,20608,1,2,3:2:0:0:
124,203,20777,1,8,3:0:0:0:
202,347,20946,5,4,3:2:0:0:
244,276,21114,1,0,0:0:0:0:
117,345,21283,1,8,0:0:0:0:
294,350,21451,2,0,B|367:355|342:315|422:320,1,135,0|0,0:0|0:0,0:0:0:0:
422,320,21957,2,0,L|439:238,1,67.5000000000002,10|0,0:0|0:0,0:0:0:0:
455,168,22294,5,2,0:0:0:0:
373,198,22462,1,0,0:0:0:0:
490,190,22631,1,8,0:0:0:0:
340,171,22799,1,0,0:0:0:0:
406,39,22968,2,0,P|455:100|516:85,1,135,10|10,0:0|0:0,0:0:0:0:
504,93,23474,1,0,3:0:0:0:
286,64,23642,5,2,3:2:0:0:
286,64,23979,1,8,0:0:0:0:
276,151,24148,1,2,0:0:0:0:
196,186,24316,5,8,0:0:0:0:
356,116,24485,1,0,0:0:0:0:
215,12,24653,1,8,0:0:0:0:
277,218,24822,2,0,P|279:182|273:138,1,67.5000000000002,0|2,0:0|0:0,0:0:0:0:
205,99,25159,1,0,0:0:0:0:
123,131,25328,1,8,0:0:0:0:
50,57,25496,2,0,P|42:129|39:211,1,135,2|0,0:0|3:0,0:0:0:0:
38,279,26002,1,2,3:2:0:0:
38,279,26170,1,0,3:0:0:0:
166,235,26339,5,2,3:2:0:0:
153,318,26507,2,0,L|142:399,1,67.5000000000002,0|8,0:0|0:0,0:0:0:0:
260,203,26844,1,2,0:0:0:0:
282,352,27013,2,0,L|273:286,1,67.5000000000002,8|0,0:0|0:0,0:0:0:0:
408,318,27350,1,10,0:0:0:0:
408,318,27519,1,0,0:0:0:0:
324,204,27687,6,0,P|357:200|391:202,1,67.5000000000002,2|0,0:2|0:0,0:0:0:0:
472,249,28024,1,8,0:0:0:0:
472,249,28193,1,2,0:0:0:0:
484,78,28361,1,8,0:0:0:0:
408,179,28530,1,0,0:0:0:0:
386,24,28698,1,10,0:0:0:0:
430,157,28867,1,0,0:0:0:0:
315,115,29035,6,0,P|246:108|176:107,1,135,4|0,3:2|0:0,0:0:0:0:
125,180,29541,1,2,3:2:0:0:
63,117,29710,2,0,P|65:78|59:32,1,67.5000025749208,8|0,3:2|0:0,0:0:0:0:
51,14,29962,2,0,L|99:25,1,33.7500012874604,8|0,3:2|0:0,0:0:0:0:
180,106,30215,1,8,3:2:0:0:
107,264,30384,6,0,P|140:262|172:250,1,67.5000000000002,0|2,0:0|3:2,0:0:0:0:
258,276,30721,1,0,0:0:0:0:
50,196,30889,2,0,P|21:275|42:332,1,135,10|0,3:2|0:0,0:0:0:0:
119,384,31395,2,0,L|117:334,1,33.7500012874604,2|0,3:2|3:2,0:0:0:0:
189,283,31564,2,0,P|190:302|194:316,1,33.7500012874604,0|0,3:2|3:2,0:0:0:0:
264,359,31732,5,4,3:2:0:0:
261,246,31901,2,0,L|261:196,2,45,0|0|0,3:2|0:0|3:2,0:0:0:0:
359,295,32238,1,10,3:2:0:0:
162,304,32406,1,0,3:2:0:0:
261,201,32575,1,0,3:2:0:0:
264,384,32743,1,12,3:2:0:0:
419,171,32912,6,0,B|381:216|381:216|259:200,1,180,0|8,3:2|3:2,0:0:0:0:
169,119,33417,1,8,3:2:0:0:
282,301,33586,1,0,3:2:0:0:
105,270,33755,1,8,3:2:0:0:
260,200,33923,2,0,P|261:173|264:146,1,45,8|8,3:2|3:2,0:0:0:0:
297,78,34092,1,0,3:2:0:0:
323,52,34176,1,0,3:2:0:0:
358,41,34260,1,8,3:3:0:0:
394,42,34344,1,8,3:3:0:0:
425,52,34429,6,0,P|463:64|508:61,1,81.0000000000001,4|0,3:2|0:0,0:0:0:0:
390,177,34766,1,0,3:2:0:0:
477,163,34934,1,10,3:2:0:0:
334,108,35103,1,0,3:2:0:0:
446,246,35271,1,0,0:0:0:0:
421,94,35440,1,14,3:2:0:0:
357,259,35608,6,0,P|364:307|387:344,1,81.0000000000001,0|0,0:0|3:2,0:0:0:0:
270,273,35946,1,10,3:2:0:0:
390,177,36114,1,0,3:2:0:0:
327,349,36283,1,10,3:2:0:0:
212,202,36451,2,0,P|215:161|229:123,1,81.0000000000001,2|2,3:2|0:0,0:0:0:0:
270,273,36788,1,2,3:2:0:0:
66,246,36957,1,0,3:2:0:0:
66,246,37041,1,0,3:2:0:0:
66,246,37125,5,4,3:2:0:0:
66,246,37462,1,0,3:2:0:0:
97,329,37631,1,10,3:2:0:0:
122,177,37799,1,0,3:2:0:0:
10,315,37968,1,0,0:0:0:0:
184,343,38137,1,14,3:2:0:0:
122,177,38305,6,0,P|88:163|31:160,1,81.0000000000001,0|0,0:0|3:2,0:0:0:0:
269,65,38642,1,10,3:2:0:0:
199,120,38811,1,0,3:2:0:0:
282,153,38979,1,10,3:2:0:0:
186,32,39148,1,2,3:2:0:0:
212,208,39316,1,2,0:0:0:0:
108,89,39485,2,0,P|91:80|71:78,1,40.5,6|0,3:2|0:0,0:0:0:0:
199,119,39653,2,0,P|219:116|237:107,1,40.5,2|0,0:0|0:0,0:0:0:0:
351,69,39822,6,0,B|309:36|309:36|353:89|331:152,1,162,4|0,3:2|3:2,0:0:0:0:
362,263,40328,1,10,3:2:0:0:
212,208,40496,2,0,P|257:207|302:219,1,81.0000000000001,0|0,3:2|0:0,0:0:0:0:
412,329,40833,2,0,P|374:343|321:333,1,81.0000000000001,14|0,3:2|0:0,0:0:0:0:
334,338,41086,1,0,0:0:0:0:
334,338,41170,1,0,3:2:0:0:
494,252,41339,5,10,3:2:0:0:
475,384,41507,1,0,3:2:0:0:
362,263,41676,1,10,3:2:0:0:
417,125,41844,2,0,L|510:138,1,81.0000000000001,4|0,3:2|3:0,0:0:0:0:
337,180,42181,1,8,3:3:0:0:
320,178,42266,1,8,3:3:0:0:
303,176,42350,1,8,3:3:0:0:
286,174,42434,1,8,3:3:0:0:
269,172,42519,6,0,L|168:161,1,81.0000000000001,4|0,3:2|0:0,0:0:0:0:
98,212,42856,1,0,3:2:0:0:
187,32,43024,2,0,P|122:86|52:60,1,162,10|0,3:2|0:0,0:0:0:0:
249,126,43530,2,0,P|255:209|257:288,1,162,14|0,3:2|0:0,0:0:0:0:
203,359,44035,5,10,3:2:0:0:
341,301,44204,1,0,3:2:0:0:
291,381,44373,1,10,3:2:0:0:
186,249,44541,1,2,3:2:0:0:
186,249,44710,1,8,3:2:0:0:
341,301,44878,1,2,3:2:0:0:
341,301,45047,1,8,3:2:0:0:
129,322,45215,6,0,P|97:273|123:183,1,121.5,0|0,3:2|0:0,0:0:0:0:
117,165,45552,2,0,P|80:174|27:172,1,81.0000000000001,2|8,3:2|3:2,0:0:0:0:
185,249,45889,2,0,P|225:247|265:257,1,81.0000000000001,10|0,3:2|0:0,0:0:0:0:
311,343,46226,1,2,0:0:0:0:
375,269,46395,2,0,L|364:186,1,81.0000000000001,0|0,3:2|0:0,0:0:0:0:
441,122,46732,5,2,3:2:0:0:
430,41,46901,2,0,L|440:121,1,81.0000000000001,0|0,3:2|0:0,0:0:0:0:
445,145,47153,1,0,0:0:0:0:
447,165,47238,1,8,3:2:0:0:
476,253,47406,1,2,3:2:0:0:
450,346,47575,1,2,0:0:0:0:
450,346,47743,1,2,3:2:0:0:
331,294,47912,6,0,P|284:291|242:307,1,81.0000000000001,4|2,3:2|0:0,0:0:0:0:
192,381,48249,1,2,3:2:0:0:
192,381,48417,1,10,3:2:0:0:
128,231,48586,2,0,P|122:271|132:310,1,81.0000000000001,8|8,3:2|3:2,0:0:0:0:
215,200,48923,1,2,0:0:0:0:
80,153,49092,6,0,P|159:147|216:202,2,162,0|10|2,3:2|3:2|3:2,0:0:0:0:
18,233,49934,2,0,L|24:287,4,40.5,0|0|8|8|4,3:2|3:2|3:3|3:3|3:2,0:0:0:0:
31,354,50440,1,0,3:2:0:0:
134,272,50608,6,0,L|125:185,1,81.0000000000001,14|0,3:2|3:2,0:0:0:0:
228,203,50946,2,0,L|236:283,1,81.0000000000001,10|0,3:2|3:2,0:0:0:0:
190,113,51283,2,0,P|189:72|211:23,1,81.0000000000001,10|0,3:2|3:2,0:0:0:0:
309,51,51535,1,0,3:2:0:0:
309,51,51620,2,0,P|310:92|288:141,1,81.0000000000001,10|0,3:2|3:2,0:0:0:0:
228,203,51957,1,10,3:2:0:0:
292,277,52125,1,0,3:2:0:0:
316,280,52210,1,0,3:2:0:0:
339,283,52294,1,8,3:2:0:0:
362,286,52378,1,8,3:2:0:0:
385,289,52462,5,2,3:2:0:0:
327,100,52799,1,2,3:2:0:0:
193,245,53137,1,6,3:2:0:0:
193,245,53474,5,10,3:2:0:0:
301,211,53642,1,2,3:2:0:0:
276,321,53811,1,2,3:2:0:0:
219,151,53979,5,0,3:2:0:0:
57,100,54148,1,0,3:2:0:0:
94,265,54316,1,8,3:2:0:0:
288,200,54485,2,0,P|276:130|270:36,1,162,2|0,3:1|3:2,0:0:0:0:
219,266,54990,1,2,3:1:0:0:
439,216,55159,1,12,3:2:0:0:
439,216,55496,5,2,3:3:0:0:
442,239,55580,1,2,0:0:0:0:
445,263,55665,2,0,L|451:319,1,40.5,2|2,3:3|0:0,0:0:0:0:
377,343,55833,2,0,L|398:377,1,40.5,2|2,3:2|3:2,0:0:0:0:
299,295,56002,6,0,P|249:281|181:286,1,101.250003862381,4|0,3:2|0:0,0:0:0:0:
161,294,56339,2,0,P|121:300|76:292,1,67.5000025749208,2|2,3:2|0:0,0:0:0:0:
95,172,56676,2,0,P|128:169|161:175,1,67.5000025749208,2|0,3:2|0:0,0:0:0:0:
29,234,57013,1,2,3:2:0:0:
241,141,57181,1,8,3:2:0:0:
241,141,57266,1,8,3:2:0:0:
241,141,57350,6,0,P|249:199|222:238,2,101.250003862381,2|0|2,3:2|0:0|0:0,0:0:0:0:
331,103,58024,2,0,P|365:106|403:118,1,67.5000000000002,2|0,3:2|0:0,0:0:0:0:
258,30,58361,1,0,3:3:0:0:
238,35,58446,1,0,3:3:0:0:
218,40,58530,1,8,3:3:0:0:
198,45,58614,1,8,3:3:0:0:
175,51,58698,6,0,B|121:63|121:63|120:88|104:110,1,101.250003862381,4|0,3:2|0:0,0:0:0:0:
60,168,59035,2,0,P|83:182|132:177,1,67.5000025749208,2|2,3:2|0:0,0:0:0:0:
220,157,59372,2,0,L|213:236,1,67.5000025749208,2|0,3:2|0:0,0:0:0:0:
316,304,59710,2,0,P|314:269|310:237,1,67.5000025749208,2|0,3:2|0:0,0:0:0:0:
280,94,60047,6,0,P|235:73|172:85,2,101.250003862381,2|0|0,3:2|0:0|0:0,0:0:0:0:
271,223,60721,1,2,3:2:0:0:
202,284,60889,1,0,3:3:0:0:
271,223,61058,1,0,3:3:0:0:
346,294,61226,1,8,3:3:0:0:
346,294,61311,1,8,3:3:0:0:
346,294,61395,6,0,P|396:298|444:331,2,101.25,4|2|2,3:2|0:0|0:0,0:0:0:0:
271,223,62069,1,2,3:2:0:0:
372,191,62238,2,0,L|379:159,2,33.7500012874604,8|2|0,3:2|0:0|3:2,0:0:0:0:
346,294,62575,1,2,0:0:0:0:
432,338,62743,6,0,P|436:307|434:266,1,67.5000000000002,4|0,3:2|0:0,0:0:0:0:
348,85,63080,2,0,P|344:116|345:158,1,67.5000000000002,2|8,3:2|3:2,0:0:0:0:
271,383,63417,2,0,P|275:352|275:313,1,67.5000000000002,2|0,3:2|3:2,0:0:0:0:
272,287,63670,1,0,0:0:0:0:
265,260,63755,1,12,3:2:0:0:
156,328,63923,1,0,0:0:0:0:
199,178,64092,5,2,3:2:0:0:
199,178,64260,1,0,3:2:0:0:
159,354,64429,1,10,3:2:0:0:
53,250,64597,1,0,3:2:0:0:
214,156,64766,2,0,L|206:235,1,76.5000000000003,2|8,3:2|3:3,0:0:0:0:
278,96,65103,1,0,3:2:0:0:
256,79,65187,1,2,0:0:0:0:
231,68,65271,1,2,0:0:0:0:
203,68,65356,1,2,0:0:0:0:
177,76,65440,6,0,L|125:60,3,38.2500000000001,4|0|0|0,3:2|0:0|0:0|0:0,0:0:0:0:
70,105,65777,2,0,L|32:117,3,38.2500000000001,0|0|8|8,3:2|3:2|3:2|3:2,0:0:0:0:
144,65,66114,1,0,3:2:0:0:
152,97,66198,1,0,0:0:0:0:
147,130,66283,1,8,3:2:0:0:
130,159,66367,1,8,3:2:0:0:
102,178,66451,2,0,L|37:204,1,38.2500000000001,0|0,3:2|0:0,0:0:0:0:
135,255,66620,2,0,L|70:281,1,38.2500000000001,8|8,3:3|3:3,0:0:0:0:
30,330,66788,6,0,P|101:324|151:368,1,135,4|0,3:2|0:0,0:0:0:0:
189,381,67125,2,0,P|235:372|277:351,1,90,10|0,3:2|3:2,0:0:0:0:
358,291,67462,2,0,P|363:246|355:202,1,90,2|0,0:0|3:2,0:0:0:0:
269,153,67715,1,0,0:0:0:0:
269,153,67799,2,0,P|264:197|273:241,1,90,10|2,3:2|0:0,0:0:0:0:
461,171,68137,6,0,P|449:116|440:34,2,135,2|2|2,3:2|3:2|3:2,0:0:0:0:
312,190,68811,1,2,0:0:0:0:
403,79,68979,1,0,3:2:0:0:
260,24,69148,1,8,3:2:0:0:
418,115,69316,1,2,0:0:0:0:
291,204,69485,6,0,B|188:196|188:196|226:173,1,135,4|0,3:2|0:0,0:0:0:0:
181,147,69822,2,0,P|134:133|86:147,1,90,10|0,3:2|3:2,0:0:0:0:
9,285,70159,2,0,L|18:178,1,90,2|0,0:0|3:2,0:0:0:0:
19,168,70412,1,0,0:0:0:0:
21,141,70496,1,10,3:2:0:0:
131,225,70665,1,2,3:2:0:0:
195,137,70833,6,0,B|168:104|168:63|168:63|125:82|79:31,2,138.000002632141,2|2|2,3:2|3:2|3:2,0:0:0:0:
317,137,71507,2,0,B|344:104|344:63|344:63|387:82|433:31,2,138.000002632141,10|2|2,3:2|3:2|3:2,0:0:0:0:
256,224,72181,5,4,3:2:0:0:
256,72,72350,2,0,L|256:24,2,40.5,0|0|0,0:0|0:0|3:2,0:0:0:0:
281,249,72687,1,8,3:2:0:0:
198,175,72856,2,0,L|96:165,1,80.9999975280763,2|0,0:0|3:2,0:0:0:0:
303,270,73193,2,0,L|393:257,1,80.9999975280763,0|0,0:0|3:2,0:0:0:0:
181,348,73530,6,0,P|83:327|37:339,1,135,6|0,3:2|0:0,0:0:0:0:
23,357,73867,2,0,L|11:250,1,90,2|0,3:2|3:2,0:0:0:0:
0,167,74204,1,2,0:0:0:0:
97,230,74373,1,0,3:2:0:0:
138,55,74541,5,14,3:2:0:0:
138,55,74878,2,0,L|287:40,1,135,2|0,3:2|0:0,0:0:0:0:
308,36,75215,1,2,3:2:0:0:
197,162,75384,1,10,3:2:0:0:
279,192,75552,2,0,P|234:167|174:164,1,90,0|2,0:0|3:2,0:0:0:0:
197,162,75805,1,0,0:0:0:0:
197,162,75889,1,8,3:3:0:0:
367,143,76058,1,8,3:3:0:0:
245,274,76226,6,0,B|292:291|338:269|338:269|320:285|316:301,1,135,4|0,3:2|0:0,0:0:0:0:
245,274,76564,1,10,3:2:0:0:
415,255,76732,2,0,B|415:294|391:318|391:318|390:352,1,90,2|0,0:0|3:2,0:0:0:0:
501,141,77069,5,8,3:2:0:0:
501,141,77238,1,12,3:2:0:0:
407,56,77406,1,0,0:0:0:0:
407,56,77490,1,0,0:0:0:0:
407,56,77575,5,10,3:2:0:0:
426,199,77743,1,0,3:2:0:0:
314,84,77912,5,10,3:2:0:0:
329,198,78080,1,0,3:2:0:0:
210,53,78249,5,10,3:2:0:0:
236,252,78417,1,0,3:2:0:0:
223,151,78586,1,10,3:2:0:0:
109,109,78755,2,0,P|136:115|161:127,1,45,0|0,3:2|0:0,0:0:0:0:
223,151,78923,6,0,P|175:153|119:188,1,90,10|0,3:2|3:2,0:0:0:0:
112,336,79260,2,0,P|132:297|136:252,1,90,10|0,3:2|3:2,0:0:0:0:
5,146,79597,2,0,P|30:184|67:210,1,90,10|0,3:2|3:2,0:0:0:0:
65,209,79850,1,10,3:2:0:0:
65,209,79934,1,10,3:2:0:0:
230,206,80103,1,0,3:2:0:0:
147,64,80271,6,0,L|152:162,1,90,14|0,3:2|3:2,0:0:0:0:
159,337,80608,1,10,3:2:0:0:
230,206,80777,1,0,3:2:0:0:
162,367,80946,1,10,3:2:0:0:
80,248,81114,1,0,3:2:0:0:
253,314,81283,2,0,P|296:296|344:303,1,90,10|0,3:2|0:0,0:0:0:0:
455,325,81620,5,10,3:2:0:0:
309,382,81788,1,0,3:2:0:0:
485,358,81957,1,10,3:2:0:0:
323,191,82125,2,0,P|323:261|383:206,1,180,0|0,3:2|3:2,0:0:0:0:
376,104,82631,2,0,L|406:161,1,45,10|2,3:2|0:0,0:0:0:0:
464,80,82799,2,0,L|527:88,1,45,2|2,3:2|0:0,0:0:0:0:
406,11,82968,6,0,P|355:6|309:36,1,90,14|0,3:2|0:0,0:0:0:0:
288,192,83305,1,10,3:2:0:0:
128,128,83474,2,0,L|65:136,1,45,0|0,3:0|3:0,0:0:0:0:
208,104,83642,2,0,P|208:152|184:192,1,90,10|0,3:2|3:2,0:0:0:0:
272,216,83979,1,10,3:3:0:0:
245,66,84148,2,0,L|251:11,1,45,8|0,3:3|0:0,0:0:0:0:
112,144,84316,1,2,3:2:0:0:
264,248,84485,1,8,0:2:0:0:
264,248,84569,1,0,3:0:0:0:
264,248,84653,2,0,L|320:248,1,45,8|0,0:0|0:0,0:0:0:0:
188,307,84822,5,2,3:2:0:0:
435,332,85159,1,2,3:2:0:0:
333,110,85496,1,6,3:2:0:0:
256,192,85665,12,6,88361,3:2:0:0:
116,339,91058,6,0,L|259:324,1,144,4|2,3:2|3:2,0:0:0:0:
345,314,91564,1,8,0:3:0:0:
412,260,91732,2,0,P|418:227|411:180,1,72,2|2,3:2|0:0,0:0:0:0:
331,162,92069,2,0,P|325:195|332:242,1,72,0|2,3:2|0:0,0:0:0:0:
474,130,92406,6,0,L|468:45,2,72,0|8|0,3:2|0:3|3:2,0:0:0:0:
503,211,92912,1,0,0:0:0:0:
369,98,93080,2,0,L|375:13,2,72,0|2|0,3:2|0:0|3:2,0:0:0:0:
324,172,93586,1,2,0:0:0:0:
188,126,93755,6,0,P|153:122|87:131,1,72,0|2,3:2|0:0,0:0:0:0:
46,4,94092,2,0,P|42:39|51:105,1,72,0|8,3:2|0:3,0:0:0:0:
203,155,94429,1,0,3:2:0:0:
203,155,94597,2,0,P|168:151|102:160,2,72,0|0|0,0:0|3:2|0:0,0:0:0:0:
58,103,95103,6,0,P|55:68|59:32,1,72,0|8,3:2|0:3,0:0:0:0:
202,154,95440,1,0,3:2:0:0:
131,153,95608,2,0,P|167:150|203:155,1,72,0|0,3:2|3:2,0:0:0:0:
47,239,95946,2,0,L|52:296,2,36,8|8|0,0:3|0:3|3:2,0:0:0:0:
47,239,96283,1,8,0:3:0:0:
2,356,96451,5,4,3:2:0:0:
139,305,96620,1,0,0:0:0:0:
185,380,96788,1,0,3:2:0:0:
99,384,96957,1,8,0:3:0:0:
227,305,97125,2,0,P|248:278|262:235,1,72,2|0,3:2|0:0,0:0:0:0:
136,169,97462,2,0,P|146:201|168:233,1,72,2|2,3:2|0:0,0:0:0:0:
227,305,97799,5,2,3:2:0:0:
285,162,97968,1,8,0:3:0:0:
414,285,98137,2,0,P|411:322|402:357,1,72,2|0,3:2|0:0,0:0:0:0:
360,223,98474,1,0,3:2:0:0:
503,270,98642,1,2,0:0:0:0:
329,305,98811,1,2,3:2:0:0:
443,206,98979,1,2,0:0:0:0:
443,206,99148,6,0,P|450:164|445:111,1,72,0|2,3:2|0:0,0:0:0:0:
471,34,99485,1,2,3:2:0:0:
338,51,99653,2,0,P|405:65|478:26,1,144,8|0,0:3|0:0,0:0:0:0:
261,28,100159,2,0,P|259:63|275:111,1,72,0|0,3:2|0:0,0:0:0:0:
351,206,100496,5,0,3:2:0:0:
265,236,100665,1,8,0:3:0:0:
351,206,100833,2,0,P|352:170|337:123,1,72,0|0,3:2|3:2,0:0:0:0:
265,236,101170,2,0,P|263:271|279:319,1,72,0|8,3:2|0:3,0:0:0:0:
172,220,101507,2,0,P|173:184|158:137,1,72,0|8,3:2|0:3,0:0:0:0:
51,77,101844,6,0,P|50:151|58:239,1,144,4|0,3:2|3:2,0:0:0:0:
22,317,102350,1,2,0:0:0:0:
22,317,102519,2,0,P|90:300|180:324,1,144,0|0,3:2|3:2,0:0:0:0:
249,371,103024,1,0,0:0:0:0:
249,371,103193,6,0,L|324:362,1,72,2|0,0:0|0:0,0:0:0:0:
386,272,103530,2,0,L|311:263,1,72,0|2,0:0|0:0,0:0:0:0:
417,348,103867,2,0,P|466:290|449:221,1,144,0|0,0:0|0:0,0:0:0:0:
454,227,104373,1,0,0:0:0:0:
376,147,104541,5,2,0:0:0:0:
376,147,104878,2,0,P|344:157|299:153,1,72,0|2,0:0|0:0,0:0:0:0:
215,194,105215,1,0,0:0:0:0:
201,38,105384,1,2,0:0:0:0:
334,82,105552,1,0,0:0:0:0:
143,188,105721,6,0,L|230:195,1,72,0|2,0:0|0:0,0:0:0:0:
284,249,106058,1,0,0:0:0:0:
79,257,106226,1,0,0:0:0:0:
79,257,106395,2,0,P|52:190|80:121,1,144,2|0,0:0|0:0,0:0:0:0:
201,38,106901,5,2,0:0:0:0:
201,38,107238,2,0,L|191:129,1,72,6|0,0:0|0:0,0:0:0:0:
256,192,107575,1,0,0:0:0:0:
318,109,107743,2,0,L|311:38,1,72,8|0,0:3|0:0,0:0:0:0:
159,191,108080,2,0,P|131:170|115:138,2,72,2|0|0,0:0|0:0|0:0,0:0:0:0:
312,272,108586,6,0,P|312:307|302:342,1,72,2|8,0:0|0:3,0:0:0:0:
209,342,108923,2,0,P|199:307|200:272,1,72,0|2,0:0|0:0,0:0:0:0:
352,192,109260,2,0,P|383:216|398:252,2,72,2|2|2,0:0|0:0|0:0,0:0:0:0:
272,160,109766,1,0,0:0:0:0:
193,235,109934,6,0,L|201:323,1,72,6|0,0:0|0:0,0:0:0:0:
207,384,110271,1,0,0:0:0:0:
193,235,110440,2,0,P|149:231|100:241,2,72,2|0|0,0:0|0:0|0:0,0:0:0:0:
87,356,110946,2,0,P|118:340|146:317,1,72,0|0,0:0|0:0,0:0:0:0:
109,149,111283,1,2,0:0:0:0:
109,149,111451,6,0,P|69:169|34:204,2,72,2|0|2,0:0|0:0|0:0,0:0:0:0:
156,78,111957,2,0,P|148:44|132:12,1,72,2|0,0:0|3:0,0:0:0:0:
224,143,112294,1,2,0:0:0:0:
325,99,112462,1,0,3:0:0:0:
334,283,112631,5,4,3:2:0:0:
243,173,112799,1,0,3:2:0:0:
435,192,112968,1,0,3:2:0:0:
332,80,113137,5,10,3:2:0:0:
344,302,113305,1,0,3:2:0:0:
265,209,113474,1,0,3:2:0:0:
459,287,113642,2,0,B|467:224|467:224|457:246|439:256,1,90,10|0,3:2|3:2,0:0:0:0:
353,321,113979,1,0,3:2:0:0:
310,107,114148,6,0,P|391:84|356:156,1,180,10|0,3:2|3:2,0:0:0:0:
260,214,114653,2,0,P|210:217|152:201,1,90,10|0,3:2|3:2,0:0:0:0:
146,199,114906,1,0,3:2:0:0:
121,191,114990,2,0,L|69:204,1,45,0|0,3:2|3:2,0:0:0:0:
85,118,115159,2,0,L|129:108,1,45,0|0,3:2|3:2,0:0:0:0:
137,25,115328,6,0,B|91:37|91:37|38:33,1,90,4|0,3:2|3:2,0:0:0:0:
309,57,115665,1,0,3:2:0:0:
199,99,115833,1,10,3:2:0:0:
367,145,116002,1,0,3:2:0:0:
229,96,116170,1,0,3:2:0:0:
341,0,116339,1,10,3:2:0:0:
283,178,116507,2,0,P|281:227|291:272,1,90,0|0,3:2|3:2,0:0:0:0:
230,342,116844,5,10,3:2:0:0:
368,224,117013,1,2,3:2:0:0:
317,384,117181,1,2,3:2:0:0:
177,266,117350,2,0,P|129:266|78:271,2,90,0|8|4,3:2|3:2|3:2,0:0:0:0:
371,309,117856,2,0,L|366:256,1,45,0|0,3:2|0:0,0:0:0:0:
307,161,118024,5,2,3:2:0:0:
449,224,118193,1,2,3:2:0:0:
404,89,118361,1,0,3:2:0:0:
458,244,118530,1,12,3:2:0:0:
281,176,118698,1,0,3:2:0:0:
371,20,118867,1,0,3:2:0:0:
370,209,119035,1,10,3:2:0:0:
231,98,119204,6,0,P|278:88|339:103,1,90,0|0,3:2|3:2,0:0:0:0:
138,189,119541,2,0,L|145:-1,1,180,10|2,3:2|3:2,0:0:0:0:
48,146,120047,1,10,3:2:0:0:
225,233,120215,1,0,3:2:0:0:
60,287,120384,1,10,3:2:0:0:
150,351,120552,1,2,3:2:0:0:
150,351,120637,1,0,0:0:0:0:
150,351,120721,6,0,L|244:339,1,90,4|0,3:2|3:2,0:0:0:0:
360,357,121058,1,0,3:2:0:0:
295,191,121226,2,0,P|288:245|300:288,1,90,10|2,3:2|3:2,0:0:0:0:
373,369,121564,1,2,3:2:0:0:
473,289,121732,6,0,B|499:234|470:183|470:183|484:147|484:147|477:101,1,180,10|2,3:2|3:2,0:0:0:0:
377,237,122238,1,10,3:2:0:0:
295,191,122406,1,2,3:2:0:0:
377,237,122575,1,2,3:2:0:0:
400,77,122743,1,10,3:2:0:0:
400,77,122828,1,2,0:0:0:0:
400,77,122912,1,2,3:2:0:0:
400,77,122996,1,2,0:0:0:0:
400,77,123080,2,0,L|386:133,1,45,2|2,3:2|3:2,0:0:0:0:
315,43,123249,2,0,L|304:0,1,45,2|2,3:2|3:2,0:0:0:0:
232,67,123417,6,0,P|181:60|129:65,1,90,4|0,3:2|3:2,0:0:0:0:
166,219,123755,1,0,3:2:0:0:
0,165,123923,2,0,P|51:158|103:163,1,90,10|0,3:2|3:2,0:0:0:0:
250,279,124260,1,0,3:2:0:0:
276,121,124429,2,0,P|277:174|268:220,1,90,10|0,3:2|0:0,0:0:0:0:
259,244,124681,1,0,3:2:0:0:
250,279,124766,6,0,L|266:339,3,45,0|0|8|0,3:2|0:0|3:2|0:0,0:0:0:0:
341,307,125103,2,0,L|357:367,3,45,8|8|8|8,3:2|3:2|3:2|3:2,0:0:0:0:
436,331,125440,1,2,3:2:0:0:
463,307,125524,1,0,3:2:0:0:
476,273,125608,1,0,3:2:0:0:
476,236,125693,1,2,3:2:0:0:
465,201,125777,2,0,L|449:154,3,45,0|0|2|0,3:2|0:0|3:2|3:2,0:0:0:0:
423,85,126114,5,4,3:2:0:0:
423,85,126451,5,10,3:2:0:0:
334,117,126620,1,0,3:2:0:0:
351,24,126788,1,2,0:0:0:0:
317,210,126957,1,0,3:2:0:0:
407,179,127125,1,10,3:2:0:0:
238,152,127294,6,0,P|193:140|133:140,1,90,2|0,3:2|0:0,0:0:0:0:
2,59,127631,2,0,B|37:112|37:112|23:236,1,180,2|2,3:2|0:0,0:0:0:0:
23,227,128052,1,2,0:0:0:0:
23,227,128137,1,2,0:0:0:0:
87,317,128305,1,2,3:2:0:0:
0,360,128474,1,10,3:2:0:0:
192,379,128642,1,2,3:2:0:0:
192,379,128726,1,0,3:2:0:0:
192,379,128811,5,2,3:2:0:0:
267,250,128979,1,2,3:2:0:0:
335,384,129148,1,8,3:2:0:0:
266,221,129316,1,2,3:2:0:0:
382,289,129485,2,0,P|392:245|393:194,1,90,2|0,0:0|3:2,0:0:0:0:
206,96,129822,6,0,P|291:125|351:61,1,180,4|2,3:2|0:0,0:0:0:0:
272,46,130328,1,2,3:2:0:0:
302,209,130496,1,8,3:2:0:0:
272,46,130665,1,0,3:2:0:0:
427,114,130833,1,0,3:2:0:0:
424,140,130917,1,0,3:2:0:0:
421,166,131002,1,0,3:2:0:0:
418,192,131086,1,0,3:2:0:0:
415,218,131170,1,4,3:2:0:0:
467,290,131339,1,0,3:2:0:0:
302,343,131507,6,0,P|355:346|399:358,1,90,14|0,3:2|3:2,0:0:0:0:
198,322,131844,2,0,P|221:284|252:252,1,90,10|0,3:2|3:2,0:0:0:0:
350,163,132181,2,0,P|297:160|253:148,1,90,10|0,3:2|3:2,0:0:0:0:
204,72,132434,1,0,3:2:0:0:
204,72,132519,2,0,P|174:116|142:148,1,90,10|0,3:2|3:2,0:0:0:0:
59,35,132856,1,10,3:2:0:0:
11,136,133024,1,0,3:2:0:0:
18,171,133108,1,0,3:2:0:0:
25,206,133193,1,8,3:2:0:0:
32,240,133277,1,8,3:2:0:0:
40,274,133361,5,6,3:2:0:0:
285,350,133698,1,2,3:2:0:0:
229,100,134035,1,6,3:2:0:0:
196,242,134373,5,10,3:2:0:0:
196,242,134457,1,0,0:0:0:0:
196,242,134541,2,0,P|183:293|184:336,1,90,2|2,3:2|3:2,0:0:0:0:
333,295,134878,1,0,3:2:0:0:
347,383,135047,2,0,P|341:338|333:295,1,90,0|8,3:2|3:2,0:0:0:0:
231,132,135384,6,0,B|283:175|283:175|395:143,1,180,2|0,3:1|3:2,0:0:0:0:
493,177,135889,1,0,3:2:0:0:
375,22,136058,1,12,3:2:0:0:
375,22,136395,1,2,3:3:0:0:
361,54,136479,1,2,0:0:0:0:
347,87,136564,2,0,P|337:107|333:133,1,45,2|2,3:3|0:0,0:0:0:0:
346,215,136732,2,0,P|353:236|368:257,1,45,2|2,3:2|3:2,0:0:0:0:
429,346,136901,6,0,P|380:330|303:338,1,108,4|0,3:2|0:0,0:0:0:0:
292,349,137238,2,0,P|256:350|209:345,1,72,0|8,3:2|3:2,0:0:0:0:
138,376,137490,1,8,3:2:0:0:
138,376,137575,2,0,P|137:340|142:293,1,72,10|8,3:2|3:2,0:0:0:0:
166,221,137828,1,8,3:2:0:0:
166,221,137912,2,0,P|139:219|112:214,1,36,8|0,3:2|0:0,0:0:0:0:
20,276,138080,2,0,P|37:273|55:272,1,36,8|8,3:2|3:2,0:0:0:0:
227,277,138249,6,0,P|247:227|232:170,1,108,10|8,3:2|3:2,0:0:0:0:
212,150,138586,2,0,L|219:73,1,72,8|8,3:2|3:2,0:0:0:0:
157,12,138923,1,10,3:2:0:0:
114,2,139007,1,0,0:0:0:0:
71,11,139092,1,8,3:2:0:0:
41,42,139176,1,8,3:2:0:0:
27,83,139260,2,0,L|28:126,3,36,2|2|2|2,3:2|3:2|3:2|3:2,0:0:0:0:
4,198,139597,6,0,P|67:197|104:148,1,108,4|8,3:2|3:2,0:0:0:0:
122,131,139934,2,0,L|193:138,1,72,0|8,3:2|3:2,0:0:0:0:
247,208,140187,1,8,3:2:0:0:
247,208,140271,2,0,L|318:201,1,72,10|8,3:2|3:2,0:0:0:0:
409,197,140524,1,8,3:2:0:0:
409,197,140608,2,0,L|403:247,1,36,8|0,3:2|0:0,0:0:0:0:
455,304,140777,2,0,P|447:328|429:347,1,36,8|0,3:2|0:0,0:0:0:0:
340,384,140946,6,0,P|319:353|317:299,1,72,10|0,3:2|0:0,0:0:0:0:
327,241,141198,1,8,3:2:0:0:
327,241,141283,2,0,L|337:151,1,72,8|8,3:2|3:2,0:0:0:0:
415,105,141620,2,0,L|456:132,1,36,10|0,3:2|0:0,0:0:0:0:
462,40,141788,2,0,L|497:32,1,36,8|8,3:2|3:2,0:0:0:0:
364,19,141957,2,0,L|323:-8,1,36,0|0,3:2|0:0,0:0:0:0:
317,84,142125,2,0,L|281:91,1,36,0|0,3:2|3:2,0:0:0:0:
219,152,142294,6,0,P|167:157|122:143,1,72,4|8,3:2|3:2,0:0:0:0:
72,195,142547,1,8,3:2:0:0:
72,195,142631,2,0,P|36:189|0:193,1,72,0|8,3:2|3:2,0:0:0:0:
21,109,142968,2,0,P|15:74|23:36,1,72,10|8,3:2|3:2,0:0:0:0:
101,3,143221,1,8,3:2:0:0:
101,3,143305,2,0,P|107:38|99:76,1,72,8|8,3:2|3:2,0:0:0:0:
147,153,143642,6,0,L|151:203,3,36,10|0|8|8,3:2|0:0|3:2|3:2,0:0:0:0:
205,250,143979,2,0,L|201:300,3,36,8|0|8|8,3:2|0:0|3:2|3:2,0:0:0:0:
249,367,144316,1,10,3:2:0:0:
292,377,144401,1,0,0:0:0:0:
335,368,144485,1,8,3:2:0:0:
365,337,144569,1,8,3:2:0:0:
379,296,144653,2,0,L|378:253,3,36,0|0|8|8,3:2|0:0|3:2|3:2,0:0:0:0:
391,167,144990,5,4,3:2:0:0:
291,281,145159,1,10,3:2:0:0:
291,281,145243,1,8,3:2:0:0:
291,281,145328,1,0,3:2:0:0:
471,361,145496,1,10,3:2:0:0:
394,259,145665,1,0,3:2:0:0:
500,182,145833,2,0,L|496:143,1,36,10|8,3:2|3:2,0:0:0:0:
487,11,146002,1,0,3:2:0:0:
451,5,146086,1,0,0:0:0:0:
415,12,146170,1,10,3:2:0:0:
387,35,146255,1,2,3:2:0:0:
372,67,146339,6,0,L|363:120,3,36,4|0|0|0,3:2|0:0|0:0|0:0,0:0:0:0:
298,158,146676,2,0,L|307:211,3,36,0|0|8|8,3:2|3:2|3:2|3:2,0:0:0:0:
355,262,147013,2,0,L|350:320,1,36,0|0,3:2|3:2,0:0:0:0:
266,283,147181,2,0,L|261:341,1,36,8|8,3:2|3:2,0:0:0:0:
181,254,147350,2,0,L|185:192,1,40.5,0|0,3:2|3:2,0:0:0:0:
88,269,147519,2,0,L|92:207,1,40.5,8|8,3:3|3:3,0:0:0:0:
18,175,147687,6,0,B|11:105|46:38,1,135,4|0,3:2|0:0,0:0:0:0:
72,9,148024,2,0,P|114:3|169:12,1,90,10|0,3:2|3:2,0:0:0:0:
312,90,148361,1,2,0:0:0:0:
192,138,148530,1,0,3:2:0:0:
367,158,148698,2,0,P|394:122|390:57,1,90,10|2,3:2|0:0,0:0:0:0:
507,0,149035,6,0,P|489:50|504:140,1,135,2|2,3:2|3:2,0:0:0:0:
504,174,149373,2,0,L|490:277,1,90,8|2,3:2|3:2,0:0:0:0:
479,362,149710,1,2,0:0:0:0:
357,259,149878,1,0,3:2:0:0:
260,384,150047,1,8,3:2:0:0:
401,185,150215,1,2,0:0:0:0:
401,185,150299,1,2,0:0:0:0:
401,185,150384,6,0,P|357:175|313:185,1,90,4|0,3:2|0:0,0:0:0:0:
188,276,150721,2,0,L|196:186,1,90,10|0,3:2|3:2,0:0:0:0:
96,0,151058,2,0,P|99:45|113:91,1,90,2|0,0:0|3:2,0:0:0:0:
287,191,151395,1,10,3:2:0:0:
248,177,151479,1,0,0:0:0:0:
207,178,151564,1,2,3:2:0:0:
171,197,151648,1,0,3:2:0:0:
143,226,151732,6,0,B|106:295|25:300,2,120,6|2|2,3:2|3:2|3:2,0:0:0:0:
177,369,152406,2,0,P|227:366|315:378,2,120,10|2|2,3:2|3:2|3:2,0:0:0:0:
272,248,153080,5,4,3:2:0:0:
344,371,153249,1,0,0:0:0:0:
405,205,153417,1,0,3:2:0:0:
361,345,153586,1,8,3:2:0:0:
505,273,153755,2,0,P|513:233|499:186,1,81.0000000000001,2|0,0:0|3:2,0:0:0:0:
325,111,154092,2,0,L|326:206,1,81.0000000000001,2|0,3:2|3:2,0:0:0:0:
365,23,154429,6,0,B|278:-13|285:67|195:33,1,162,6|2,3:2|3:2,0:0:0:0:
136,84,154934,1,0,3:2:0:0:
61,135,155103,2,0,P|51:86|63:30,1,81.0000000000001,2|0,0:0|3:2,0:0:0:0:
210,37,155440,2,0,P|220:86|208:142,1,81.0000000000001,14|0,3:2|0:0,0:0:0:0:
116,246,155777,6,0,B|158:211|158:211|276:229,1,162,2|2,3:2|3:2,0:0:0:0:
50,311,156283,1,10,3:2:0:0:
50,311,156367,1,0,0:0:0:0:
50,311,156451,2,0,P|26:248|45:194,2,121.5,0|0|8,3:0|0:0|3:3,0:0:0:0:
147,366,157125,6,0,L|231:343,1,81.0000000000001,4|0,3:2|3:2,0:0:0:0:
338,364,157462,1,10,3:2:0:0:
289,188,157631,2,0,P|301:233|283:287,1,81.0000000000001,2|0,0:0|3:2,0:0:0:0:
387,114,157968,1,8,3:2:0:0:
387,114,158137,1,12,3:2:0:0:
286,15,158305,1,0,3:0:0:0:
286,15,158389,1,0,0:0:0:0:
286,15,158474,6,0,P|241:18|183:26,1,90,10|0,3:2|3:2,0:0:0:0:
94,75,158811,1,10,3:2:0:0:
209,105,158979,1,0,3:2:0:0:
21,219,159148,1,10,3:2:0:0:
153,182,159316,1,0,3:2:0:0:
40,10,159485,2,0,P|16:48|12:92,1,90,10|0,3:2|3:2,0:0:0:0:
20,243,159822,5,10,3:2:0:0:
153,182,159990,1,0,3:2:0:0:
153,182,160075,1,0,3:0:0:0:
153,182,160159,1,10,3:2:0:0:
94,309,160328,1,0,3:2:0:0:
213,367,160496,2,0,L|209:267,1,90,10|0,3:2|3:2,0:0:0:0:
323,172,160833,2,0,L|326:261,1,90,10|0,3:2|3:2,0:0:0:0:
485,305,161170,6,0,B|394:297|414:366|311:359,1,180,14|10,3:2|3:2,0:0:0:0:
319,359,161676,1,0,3:2:0:0:
255,229,161844,1,10,3:2:0:0:
183,363,162013,1,0,3:2:0:0:
72,263,162181,2,0,L|160:246,1,90,10|0,3:2|3:2,0:0:0:0:
255,229,162519,5,10,3:2:0:0:
324,128,162687,1,0,3:2:0:0:
170,87,162856,1,10,3:2:0:0:
380,29,163024,2,0,P|364:117|369:207,1,180,0|0,3:2|3:2,0:0:0:0:
447,331,163530,1,10,3:2:0:0:
417,310,163614,1,2,0:0:0:0:
382,300,163698,1,2,3:2:0:0:
346,305,163783,1,2,0:0:0:0:
315,324,163867,6,0,P|263:329|206:319,1,90,14|0,3:2|0:0,0:0:0:0:
116,339,164204,1,10,3:2:0:0:
190,184,164373,2,0,L|182:244,1,45,0|0,3:0|3:0,0:0:0:0:
244,109,164541,2,0,P|196:94|137:107,1,90,10|0,3:2|3:2,0:0:0:0:
14,222,164878,2,0,P|58:225|100:211,1,90,10|8,3:3|3:3,0:0:0:0:
157,98,165215,1,2,3:2:0:0:
225,187,165384,2,0,L|234:243,1,45,10|0,0:2|3:0,0:0:0:0:
309,199,165552,2,0,L|351:223,1,45,8|0,0:0|0:0,0:0:0:0:
386,150,165721,5,2,3:2:0:0:
227,325,166058,1,2,3:2:0:0:
154,100,166395,1,6,3:2:0:0:
256,192,166564,12,4,169260,3:2:0:0:
256,192,171957,6,0,P|257:237|272:280,1,81.0000000000001,4|0,3:2|0:0,0:0:0:0:
336,344,172294,1,0,3:2:0:0:
174,358,172462,2,0,L|358:342,1,162,2|0,3:2|3:2,0:0:0:0:
401,267,172968,2,0,P|402:224|393:175,1,81.0000000000001,2|0,3:2|3:2,0:0:0:0:
483,142,173305,1,0,3:2:0:0:
487,62,173474,2,0,P|491:102|482:142,1,81.0000000000001,2|0,3:2|3:2,0:0:0:0:
396,186,173811,1,2,3:2:0:0:
404,97,173979,1,8,3:2:0:0:
314,228,174148,1,0,3:2:0:0:
459,285,174316,1,10,3:2:0:0:
242,317,174485,6,0,P|257:244|257:143,1,162,4|2,3:2|0:0,0:0:0:0:
252,59,174990,1,10,3:2:0:0:
332,152,175159,1,10,3:2:0:0:
160,174,175328,1,10,3:2:0:0:
174,32,175496,1,10,3:2:0:0:
250,230,175665,1,10,3:2:0:0:
57,200,175833,1,10,3:2:0:0:
165,144,176002,6,0,L|163:218,6,40.5,4|0|8|8|8|8|8,3:2|0:0|3:2|3:2|3:2|3:2|3:2,0:0:0:0:
101,243,176592,1,8,3:2:0:0:
101,243,176676,2,0,L|103:317,3,40.5,10|8|8|8,3:2|3:2|3:2|3:2,0:0:0:0:
169,339,177013,2,0,P|167:358|158:393,1,40.5,8|8,3:3|3:3,0:0:0:0:
51,384,177181,2,0,P|68:373|84:361,1,40.5,8|8,3:3|3:3,0:0:0:0:
229,279,177350,6,0,P|265:275|300:283,1,67.5000000000002,4|0,3:2|0:0,0:0:0:0:
362,347,177687,1,2,3:2:0:0:
446,301,177856,1,10,3:2:0:0:
446,301,178024,2,0,L|439:157,1,135,2|10,3:2|3:2,0:0:0:0:
340,22,178530,2,0,L|344:113,1,67.5000000000002,0|0,0:0|3:2,0:0:0:0:
345,171,178867,1,10,3:2:0:0:
225,114,179035,2,0,B|213:166|215:211|215:211|176:162,1,135.000005149842,2|8,3:2|3:2,0:0:0:0:
0,79,179625,1,8,3:2:0:0:
0,79,179710,2,0,P|33:75|65:84,1,67.5000000000002,0|8,0:0|3:2,0:0:0:0:
132,208,180047,5,4,3:2:0:0:
132,208,180384,1,2,3:2:0:0:
48,304,180552,1,10,3:2:0:0:
173,329,180721,2,0,L|252:324,1,67.5000025749208,2|0,3:2|0:0,0:0:0:0:
375,267,181058,1,10,3:2:0:0:
398,350,181226,1,0,0:0:0:0:
398,350,181311,1,0,0:0:0:0:
398,350,181395,2,0,P|363:351|323:334,1,67.5000025749208,0|10,3:2|3:2,0:0:0:0:
256,192,181732,2,0,L|391:184,1,135,2|8,3:2|3:2,0:0:0:0:
474,76,182322,1,8,3:2:0:0:
474,76,182406,2,0,L|479:109,1,33.7500000000001,0|0,3:2|3:2,0:0:0:0:
390,36,182575,2,0,L|398:-12,1,33.7500000000001,8|0,3:2|3:2,0:0:0:0:
301,91,182743,6,0,L|222:82,1,67.5000000000002,4|0,3:2|0:0,0:0:0:0:
141,105,183080,1,2,3:2:0:0:
170,14,183249,1,10,3:2:0:0:
227,149,183417,2,0,P|235:114|228:63,1,67.5000000000002,2|0,3:2|0:0,0:0:0:0:
143,200,183755,1,12,3:2:0:0:
67,158,183923,2,0,P|29:158|-12:172,1,67.5000000000002,2|0,0:0|0:0,0:0:0:0:
63,248,184260,5,10,3:2:0:0:
206,265,184429,1,2,3:2:0:0:
150,133,184597,1,0,3:2:0:0:
126,315,184766,2,0,L|117:384,1,67.5000000000002,8|0,3:2|3:2,0:0:0:0:
218,361,185019,1,8,3:2:0:0:
218,361,185103,2,0,L|226:294,1,67.5000000000002,0|8,0:0|3:2,0:0:0:0:
297,218,185440,5,4,3:2:0:0:
416,293,185608,1,0,0:0:0:0:
318,342,185777,1,2,3:2:0:0:
467,222,185946,2,0,L|452:383,1,135,10|2,3:2|3:2,0:0:0:0:
359,155,186451,2,0,B|403:162|403:162|439:120|509:147,1,135,10|0,3:2|3:2,0:0:0:0:
356,245,186957,5,10,3:2:0:0:
270,122,187125,1,0,3:2:0:0:
419,109,187294,1,10,3:2:0:0:
323,196,187462,1,0,3:2:0:0:
402,26,187631,1,2,3:2:0:0:
509,179,187799,1,2,3:2:0:0:
303,100,187968,1,2,3:2:0:0:
303,100,188052,1,2,3:2:0:0:
303,100,188137,6,0,P|270:97|236:101,1,67.5000000000002,4|0,3:2|0:0,0:0:0:0:
69,184,188474,2,0,P|102:181|136:185,1,67.5000000000002,2|0,0:0|3:2,0:0:0:0:
205,304,188811,2,0,P|209:269|207:229,1,67.5000000000002,8|0,3:2|3:2,0:0:0:0:
27,111,189148,2,0,P|-12:174|10:242,1,135,4|0,3:2|0:0,0:0:0:0:
61,302,189653,1,8,3:2:0:0:
139,244,189822,1,2,0:0:0:0:
55,369,189990,2,0,P|60:335|61:302,1,67.5000000000002,2|8,3:2|3:2,0:0:0:0:
209,315,190328,2,0,B|273:299|281:357|349:340,1,135,2|2,3:2|3:2,0:0:0:0:
437,335,190833,6,0,L|435:258,1,67.5000000000002,4|0,3:2|0:0,0:0:0:0:
324,196,191170,2,0,L|325:263,1,67.5000000000002,2|0,0:0|3:2,0:0:0:0:
473,190,191507,2,0,P|435:182|383:196,1,67.5000000000002,10|0,3:2|3:2,0:0:0:0:
195,123,191844,2,0,B|253:141|253:141|279:104|333:109,1,135,4|0,3:2|3:2,0:0:0:0:
316,108,192350,1,8,3:2:0:0:
208,282,192519,2,0,P|201:258|203:214,1,67.5000000000002,0|0,0:0|3:2,0:0:0:0:
202,215,192771,1,0,3:2:0:0:
202,215,192856,1,8,3:2:0:0:
137,143,193024,1,0,3:2:0:0:
308,195,193193,1,2,0:0:0:0:
186,41,193361,6,0,L|38:66,1,135,4|0,3:2|3:2,0:0:0:0:
127,209,193867,2,0,P|138:171|134:125,1,67.5000000000002,10|0,3:2|0:0,0:0:0:0:
41,313,194204,1,10,3:2:0:0:
194,278,194373,1,0,0:0:0:0:
137,143,194541,1,10,3:2:0:0:
284,189,194710,6,0,L|273:336,1,135,4|0,3:2|3:2,0:0:0:0:
428,277,195215,2,0,P|398:246|354:231,1,67.5000000000002,2|0,3:2|3:2,0:0:0:0:
375,356,195552,1,2,3:2:0:0:
512,225,195721,1,0,3:2:0:0:
477,380,195889,1,0,3:2:0:0:
310,269,196058,6,0,P|307:236|310:201,1,67.5000000000002,4|0,3:2|0:0,0:0:0:0:
410,120,196395,1,0,3:2:0:0:
410,120,196479,1,0,3:2:0:0:
410,120,196564,1,10,3:2:0:0:
366,191,196732,1,0,3:2:0:0:
495,77,196901,1,10,3:2:0:0:
355,27,197069,1,0,3:2:0:0:
487,185,197238,1,10,3:2:0:0:
287,132,197406,6,0,B|208:108|229:161|140:134,1,135,4|0,3:2|3:2,0:0:0:0:
258,213,197912,1,8,3:3:0:0:
108,235,198080,1,8,3:3:0:0:
182,60,198249,1,0,3:2:0:0:
224,267,198417,1,0,3:2:0:0:
24,207,198586,1,0,3:2:0:0:
148,167,198755,5,4,3:2:0:0:
287,302,199092,1,0,3:2:0:0:
287,302,199176,1,0,3:2:0:0:
287,302,199260,2,0,P|283:356|285:393,1,81.0000000000001,10|0,3:2|3:2,0:0:0:0:
349,230,199597,2,0,P|304:199|271:182,1,81.0000000000001,10|0,3:2|3:2,0:0:0:0:
380,319,199934,1,10,3:2:0:0:
380,319,200103,6,0,P|428:295|459:275,1,81.0000000000001,4|0,3:2|0:0,0:0:0:0:
214,239,200440,1,0,3:2:0:0:
214,239,200608,2,0,P|210:293|198:329,1,81.0000000000001,10|0,3:2|3:2,0:0:0:0:
61,149,200946,2,0,L|161:157,1,81.0000000000001,10|0,3:2|3:2,0:0:0:0:
141,155,201198,1,0,3:2:0:0:
141,155,201283,1,10,3:2:0:0:
103,64,201451,1,4,3:2:0:0:
289,9,201620,5,0,0:0:0:0:
204,41,201788,2,0,P|215:69|244:92,1,40.5,10|8,3:2|3:2,0:0:0:0:
307,104,201957,2,0,P|335:93|358:64,3,40.5,2|0|8|8,3:2|3:2|3:2|3:2,0:0:0:0:
243,166,202294,6,0,P|242:191|250:220,1,40.5,10|8,3:2|3:2,0:0:0:0:
274,290,202462,2,0,L|262:349,3,40.5,2|0|0|0,3:2|0:0|3:2|0:0,0:0:0:0:
185,369,202799,2,0,L|176:329,3,40.5,4|0|8|8,3:2|0:0|3:2|3:2,0:0:0:0:
93,294,203137,2,0,L|114:239,1,40.5,8|0,3:2|0:0,0:0:0:0:
119,226,203305,1,8,3:2:0:0:
120,193,203389,1,8,3:2:0:0:
104,164,203474,1,8,3:2:0:0:
75,149,203558,1,0,0:0:0:0:
42,147,203642,6,0,L|-8:168,3,40.5,8|8|8|8,3:2|3:2|3:2|3:2,0:0:0:0:
103,71,203979,2,0,L|38:41,3,40.4999987640381,10|10|10|10,3:2|3:2|3:2|3:2,0:0:0:0:
184,109,204316,6,0,B|238:130|238:130|273:101|320:118,1,135,2|0,3:2|0:0,0:0:0:0:
369,174,204653,2,0,P|332:197|288:193,1,90,8|0,3:2|0:0,0:0:0:0:
449,153,204990,1,0,3:2:0:0:
428,234,205159,1,0,3:2:0:0:
310,114,205328,2,0,P|304:75|328:19,1,90,8|0,3:2|0:0,0:0:0:0:
287,192,205665,1,0,3:2:0:0:
449,153,205833,1,0,0:0:0:0:
334,356,206002,2,0,B|326:317|326:317|339:269,1,90,8|0,3:2|3:2,0:0:0:0:
157,213,206339,5,10,3:2:0:0:
196,353,206507,1,2,3:2:0:0:
29,384,206676,1,10,3:2:0:0:
66,262,206844,1,2,3:2:0:0:
106,348,207013,5,0,3:2:0:0:
106,348,207181,1,0,3:2:0:0:
106,348,207350,2,0,P|150:293|149:227,1,135,8|0,3:2|3:2,0:0:0:0:
150,230,207687,1,2,3:2:0:0:
245,188,207856,1,2,3:2:0:0:
226,316,208024,1,10,3:2:0:0:
66,262,208193,6,0,P|64:217|81:176,1,90,2|0,0:0|3:2,0:0:0:0:
153,59,208530,2,0,P|115:82|70:88,1,90,2|12,3:2|3:2,0:0:0:0:
209,157,208867,1,2,0:0:0:0:
267,24,209035,1,0,3:2:0:0:
123,41,209204,1,0,3:2:0:0:
211,184,209373,1,12,3:2:0:0:
308,124,209541,1,0,3:2:0:0:
308,124,209625,1,0,3:2:0:0:
308,124,209710,1,2,3:2:0:0:
478,159,209878,5,2,0:0:0:0:
378,55,210047,1,10,3:2:0:0:
404,215,210215,2,0,P|411:249|400:286,1,45,2|0,3:2|3:2,0:0:0:0:
399,340,210384,2,0,P|445:331|504:334,1,90,0|2,3:2|0:0,0:0:0:0:
294,241,210721,1,10,3:2:0:0:
309,371,210889,1,2,0:0:0:0:
309,371,210974,1,0,3:2:0:0:
309,371,211058,6,0,P|264:373|202:366,1,90,0|0,3:2|3:2,0:0:0:0:
105,229,211395,2,0,P|150:217|193:232,1,90,8|0,3:2|0:0,0:0:0:0:
190,230,211648,1,0,3:2:0:0:
190,230,211732,1,2,3:2:0:0:
145,311,211901,1,0,3:2:0:0:
157,140,212069,1,10,3:2:0:0:
56,324,212238,1,0,0:0:0:0:
282,264,212406,6,0,P|275:191|270:73,1,180,4|10,3:2|3:2,0:0:0:0:
379,141,212912,1,2,3:2:0:0:
390,170,212996,1,0,3:2:0:0:
388,201,213080,1,0,3:2:0:0:
452,77,213249,1,2,3:2:0:0:
302,28,213417,6,0,B|255:12|210:22|210:22|237:32|256:46,1,135,10|0,3:2|3:2,0:0:0:0:
153,83,213755,2,0,P|130:45|140:-18,1,90,0|0,3:2|3:2,0:0:0:0:
9,171,214092,2,0,B|50:144|50:144|100:151,1,90,12|0,3:2|0:0,0:0:0:0:
125,156,214344,1,0,0:0:0:0:
160,162,214429,6,0,L|219:172,1,45,8|0,3:2|3:2,0:0:0:0:
281,242,214597,2,0,L|236:249,1,45,8|0,3:2|3:2,0:0:0:0:
126,239,214766,1,0,3:2:0:0:
143,270,214850,1,0,3:2:0:0:
143,305,214934,1,0,3:2:0:0:
128,338,215019,1,0,3:2:0:0:
102,362,215103,6,0,P|60:363|8:377,1,90,4|0,3:2|0:0,0:0:0:0:
126,239,215440,2,0,P|169:250|214:251,1,90,8|0,3:2|3:2,0:0:0:0:
287,304,215693,1,0,3:2:0:0:
287,304,215777,2,0,P|333:281|387:295,1,90,2|0,3:2|3:2,0:0:0:0:
184,380,216114,2,0,P|139:383|101:361,1,90,8|0,3:2|0:0,0:0:0:0:
246,218,216451,5,2,3:2:0:0:
161,302,216620,1,0,3:2:0:0:
212,141,216788,2,0,P|277:136|321:185,1,135,8|0,3:2|0:0,0:0:0:0:
388,125,217125,2,0,P|428:138|496:119,1,90,2|0,3:2|3:2,0:0:0:0:
366,15,217462,1,10,3:2:0:0:
388,125,217631,1,0,3:2:0:0:
268,67,217799,6,0,P|227:56|172:66,1,90,4|2,3:2|0:0,0:0:0:0:
147,78,218052,1,2,0:0:0:0:
125,107,218137,1,8,3:2:0:0:
118,142,218221,1,0,0:0:0:0:
125,177,218305,1,0,3:2:0:0:
192,251,218474,1,2,3:2:0:0:
214,149,218642,1,0,3:2:0:0:
34,201,218811,1,10,3:2:0:0:
87,313,218979,1,0,3:2:0:0:
87,313,219064,1,0,3:2:0:0:
87,313,219148,6,0,P|35:318|-11:337,1,90,0|0,3:2|3:2,0:0:0:0:
157,382,219485,1,10,3:2:0:0:
245,325,219653,1,0,3:2:0:0:
250,289,219738,1,0,3:2:0:0:
254,253,219822,2,0,L|261:195,3,45,2|0|0|0,3:2|3:2|3:2|3:2,0:0:0:0:
261,172,220159,2,0,L|254:114,3,45,2|0|0|0,3:2|3:2|3:2|3:2,0:0:0:0:
250,91,220496,5,4,3:2:0:0:
298,13,220665,1,2,3:2:0:0:
200,11,220833,2,0,P|159:5|108:11,1,72,2|0,3:2|0:0,0:0:0:0:
260,111,221170,1,2,3:2:0:0:
185,219,221339,2,0,P|175:184|178:148,1,72,8|2,3:2|3:2,0:0:0:0:
298,13,221676,2,0,P|290:61|288:95,1,72,8|0,3:2|3:2,0:0:0:0:
302,195,222013,1,2,0:0:0:0:
377,65,222181,1,0,3:2:0:0:
146,80,222350,6,0,B|172:120|172:120|165:222,1,144,10|0,3:2|3:2,0:0:0:0:
122,300,222856,1,2,3:2:0:0:
122,300,222940,1,2,3:2:0:0:
122,300,223024,1,2,3:2:0:0:
122,300,223108,1,2,3:2:0:0:
122,300,223193,6,0,P|162:301|203:324,1,72,4|0,3:2|0:0,0:0:0:0:
331,328,223530,1,0,3:2:0:0:
256,370,223698,1,8,3:2:0:0:
339,246,223867,1,2,3:2:0:0:
400,384,224035,1,2,3:2:0:0:
256,370,224204,1,2,3:2:0:0:
442,176,224373,6,0,P|381:205|305:179,1,144,2|8,3:2|3:2,0:0:0:0:
213,210,224878,1,0,3:2:0:0:
201,39,225047,2,0,L|206:110,1,72,0|8,3:2|3:2,0:0:0:0:
373,124,225384,1,2,3:2:0:0:
373,124,225468,1,2,3:2:0:0:
373,124,225552,2,0,L|371:61,1,36,4|0,3:2|0:0,0:0:0:0:
453,13,225721,2,0,L|451:48,1,36,2|0,3:2|0:0,0:0:0:0:
466,197,225889,6,0,B|426:193|426:193|378:223|326:193|326:193|279:201,1,180,4|0,3:2|3:2,0:0:0:0:
292,198,226395,1,2,3:2:0:0:
300,204,226732,2,0,L|300:248,1,45,0|0,3:2|3:2,0:0:0:0:
265,108,226901,6,0,P|195:85|216:155,1,180,2|0,3:2|3:2,0:0:0:0:
216,155,227406,1,2,3:2:0:0:
222,162,227743,1,0,3:2:0:0:
223,255,227912,2,0,B|166:252|139:221|139:221|104:249|35:251,1,180,10|10,3:2|3:2,0:0:0:0:
12,105,228417,5,4,3:2:0:0:
12,105,228755,1,10,0:0:0:0:
39,127,228839,1,8,0:0:0:0:
49,161,228923,1,10,0:0:0:0:
42,196,229007,1,8,0:0:0:0:
23,227,229092,5,0,3:0:0:0:
115,348,229260,1,2,0:0:0:0:
170,202,229429,1,4,3:2:0:0:
116,372,229597,1,2,3:2:0:0:
104,268,229766,1,2,0:0:0:0:
414,278,230103,5,8,3:2:0:0:
326,380,230271,1,12,3:2:0:0:
271,251,230440,1,0,0:0:0:0:
276,215,230524,1,0,0:0:0:0:
281,179,230608,2,0,L|288:131,3,45,8|8|8|0,3:2|3:2|3:2|0:0,0:0:0:0:
211,114,230946,2,0,P|219:90|239:58,1,45,8|8,3:2|3:2,0:0:0:0:
367,98,231114,2,0,P|369:120|368:142,1,45,8|0,3:2|0:0,0:0:0:0:
311,9,231283,5,4,3:2:0:0:
219,263,236653,6,0,P|164:244|123:254,2,101.250003862381,2|0|0,0:0|0:0|0:0,0:0:0:0:
163,325,237327,1,0,0:0:0:0:
278,212,237579,1,0,0:0:0:0:
318,368,237832,1,0,0:0:0:0:
374,228,238033,6,0,P|370:265|368:300,1,72,4|0,3:2|0:0,0:0:0:0:
440,163,238370,2,0,P|474:147|513:126,1,81.0000000000001,4|0,3:2|0:0,0:0:0:0:
342,139,238707,2,0,P|311:117|262:91,1,90,4|0,3:2|0:0,0:0:0:0:
265,92,239044,1,8,3:3:0:0:
265,92,239381,5,4,3:2:0:0:
221,192,239549,1,0,3:2:0:0:
70,45,239718,1,8,3:2:0:0:
96,232,239886,1,0,3:2:0:0:
96,232,239971,1,0,3:2:0:0:
96,232,240055,1,2,3:2:0:0:
174,33,240224,1,8,3:2:0:0:
40,157,240392,1,2,3:2:0:0:
72,142,240476,1,0,3:2:0:0:
108,138,240561,1,0,3:2:0:0:
141,150,240645,1,0,0:0:0:0:
167,174,240729,6,0,B|209:208|209:208|293:193,1,135,10|0,3:2|0:0,0:0:0:0:
324,189,241066,2,0,L|335:251,3,45,0|0|0|0,3:2|3:2|3:2|3:2,0:0:0:0:
381,122,241403,2,0,L|388:77,3,45,10|8|0|0,3:2|3:2|3:2|3:2,0:0:0:0:
410,217,241740,6,0,L|421:279,1,45,8|8,3:2|3:2,0:0:0:0:
467,150,241909,2,0,L|474:105,1,45,8|0,3:2|3:2,0:0:0:0:
512,248,242077,6,0,B|499:302|499:302|528:354|493:393,1,135,4|0,3:2|0:0,0:0:0:0:
429,343,242415,2,0,P|386:338|330:352,1,90,10|0,3:2|3:2,0:0:0:0:
261,291,242752,2,0,P|235:325|219:381,1,90,2|0,0:0|3:2,0:0:0:0:
178,205,243089,1,10,3:2:0:0:
313,174,243257,1,2,0:0:0:0:
149,224,243426,6,0,B|111:219|79:217|79:217|12:249,1,135,2|2,3:2|3:2,0:0:0:0:
11,159,243763,2,0,P|-2:120|6:67,1,90,8|2,3:2|3:2,0:0:0:0:
108,0,244100,1,2,0:0:0:0:
209,75,244268,2,0,L|260:83,1,45,2|0,3:2|0:0,0:0:0:0:
109,123,244437,1,10,3:2:0:0:
238,232,244606,2,0,P|237:210|243:187,1,45,2|2,0:0|0:0,0:0:0:0:
318,133,244774,6,0,B|349:97|330:48|330:48|387:43,1,135,4|0,3:2|0:0,0:0:0:0:
419,39,245111,1,10,3:2:0:0:
506,163,245280,1,2,3:2:0:0:
506,163,245364,1,2,0:0:0:0:
506,163,245448,2,0,L|495:268,1,90,2|0,0:0|3:2,0:0:0:0:
475,336,245785,1,10,3:2:0:0:
447,358,245870,1,0,0:0:0:0:
411,363,245954,1,2,3:2:0:0:
376,352,246038,1,0,3:2:0:0:
350,327,246122,6,0,B|309:279|309:279|344:248|328:200,2,120,6|2|2,3:2|3:2|3:2,0:0:0:0:
162,327,246797,2,0,B|203:279|203:279|168:248|184:200,2,120,10|6|2,3:2|3:2|3:2,0:0:0:0:
256,216,247471,5,4,3:2:0:0:
256,216,247808,1,0,3:2:0:0:
256,184,247892,1,0,0:0:0:0:
256,152,247976,1,8,3:2:0:0:
256,120,248061,1,0,0:0:0:0:
256,88,248145,6,0,L|256:32,3,40.5,2|0|0|0,0:0|0:0|3:2|0:0,0:0:0:0:
224,176,248482,2,0,L|191:221,3,40.5,0|0|0|0,3:2|3:2|3:2|3:2,0:0:0:0:
301,123,248819,2,0,L|354:105,3,40.5,2|0|0|0,3:2|3:2|3:2|3:2,0:0:0:0:
207,120,249156,2,0,L|153:102,3,40.5,2|0|0|0,3:2|3:2|3:2|3:2,0:0:0:0:
281,177,249493,5,2,3:2:0:0:
312,183,249577,1,0,3:2:0:0:
343,190,249662,1,0,3:2:0:0:
374,197,249746,1,0,3:2:0:0:
405,205,249830,2,0,L|395:256,3,40.5,10|0|0|0,3:2|3:2|3:2|3:2,0:0:0:0:
449,322,250167,5,2,3:2:0:0:
421,339,250252,1,0,3:2:0:0:
388,341,250336,1,2,0:0:0:0:
356,332,250420,1,0,3:2:0:0:
331,311,250504,2,0,P|305:304|265:301,1,40.5,2|0,3:2|3:2,0:0:0:0:
188,384,250673,2,0,P|188:360|199:324,1,40.5,10|0,3:2|3:2,0:0:0:0:
221,199,250841,6,0,P|200:256|130:220,2,135,4|4|4,3:2|3:2|3:2,0:0:0:0:
169,99,251516,2,0,B|100:102|100:102|53:135|53:135|-7:138,1,180,4|10,3:2|3:2,0:0:0:0:
141,16,252021,2,0,P|223:21|261:105,1,180,2|10,0:0|3:2,0:0:0:0:
261,101,252443,1,2,0:0:0:0:
261,101,252527,1,12,3:2:0:0:
393,227,252695,1,0,3:2:0:0:
393,227,252780,1,0,3:2:0:0:
393,227,252864,6,0,L|401:132,1,90,10|0,3:2|3:2,0:0:0:0:
411,24,253201,5,10,3:2:0:0:
490,172,253370,1,0,3:2:0:0:
409,53,253538,1,10,3:2:0:0:
328,202,253707,1,0,3:2:0:0:
405,84,253875,1,10,3:2:0:0:
469,267,254044,1,0,3:2:0:0:
469,267,254128,1,0,3:2:0:0:
469,267,254212,6,0,P|456:316|430:359,1,90,10|0,3:2|3:2,0:0:0:0:
257,376,254549,2,0,P|302:375|365:380,1,90,10|0,3:2|3:2,0:0:0:0:
354,261,254886,1,10,3:2:0:0:
354,261,254971,1,0,3:2:0:0:
354,261,255055,1,0,3:2:0:0:
238,222,255224,2,0,P|194:221|149:223,1,90,10|0,3:2|0:0,0:0:0:0:
149,223,255476,1,0,3:2:0:0:
149,223,255561,5,14,3:2:0:0:
75,103,255729,1,0,3:2:0:0:
229,139,255898,1,10,3:2:0:0:
46,94,256066,1,0,3:2:0:0:
125,264,256235,1,10,3:2:0:0:
139,64,256403,1,0,3:2:0:0:
0,194,256572,1,10,3:2:0:0:
52,0,256740,1,0,3:2:0:0:
136,186,256909,5,10,3:2:0:0:
208,47,257077,1,0,3:2:0:0:
66,97,257246,1,10,3:2:0:0:
263,184,257415,2,0,P|246:98|259:6,1,180,0|0,3:2|0:0,0:0:0:0:
441,158,257920,2,0,L|495:150,1,45,10|0,3:2|0:0,0:0:0:0:
372,103,258089,2,0,L|327:109,1,45,2|0,3:2|0:0,0:0:0:0:
263,184,258257,5,14,3:2:0:0:
283,349,258426,1,0,0:0:0:0:
361,237,258594,1,10,3:2:0:0:
199,320,258763,1,0,3:0:0:0:
199,320,258847,1,0,0:0:0:0:
199,320,258931,1,10,3:2:0:0:
259,156,259100,1,0,3:2:0:0:
311,281,259268,1,8,3:2:0:0:
253,121,259437,1,0,3:3:0:0:
169,195,259606,5,2,3:2:0:0:
210,1,259774,1,2,3:2:0:0:
357,133,259943,1,0,3:0:0:0:
246,300,260111,2,0,L|253:111,1,180,6|2,3:2|3:2,0:0:0:0:
349,229,260617,1,2,0:0:0:0:
167,309,260785,6,0,P|242:385|313:340,1,180,6|0,3:2|3:2,0:0:0:0:
297,362,261207,1,0,3:2:0:0:
297,362,261291,1,8,3:2:0:0:
246,230,261459,1,0,0:0:0:0:
99,257,261628,2,0,L|45:270,4,45,0|0|10|8|0,3:2|3:2|3:2|3:2|3:2,0:0:0:0:
97,84,262134,6,0,P|162:151|235:127,1,180,4|0,3:2|0:0,0:0:0:0:
372,170,262639,1,10,3:2:0:0:
372,170,262724,1,0,0:0:0:0:
372,170,262808,2,0,P|306:102|234:127,1,180,2|2,3:2|0:0,0:0:0:0:
234,126,263313,1,2,0:0:0:0:
256,192,263650,12,0,265504,0:0:0:0:
232,290,265673,5,8,3:3:0:0:
263,143,265841,1,0,3:2:0:0:
121,189,266010,1,8,3:3:0:0:
248,304,266179,6,0,P|233:263|195:237,1,90,4|0,3:2|0:0,0:0:0:0:
219,384,266516,1,0,3:2:0:0:
219,384,266684,2,0,B|294:400|295:345|368:364,1,135,8|0,3:2|3:2,0:0:0:0:
383,361,267021,2,0,L|388:270,1,90,2|2,3:2|3:2,0:0:0:0:
394,159,267358,1,10,3:2:0:0:
471,223,267527,1,0,3:2:0:0:
314,209,267695,6,0,P|267:203|213:203,1,90,2|0,3:2|3:2,0:0:0:0:
122,213,268033,1,10,3:2:0:0:
247,98,268201,1,2,0:0:0:0:
141,14,268370,2,0,L|150:108,1,90,2|0,3:2|3:2,0:0:0:0:
38,231,268707,2,0,L|29:141,1,90,10|2,3:2|0:0,0:0:0:0:
17,317,268959,1,2,0:0:0:0:
17,317,269044,6,0,B|109:328|98:259|192:272,1,180,2|8,3:2|3:2,0:0:0:0:
360,334,269549,2,0,P|328:326|293:331,1,45,0|0,0:0|3:2,0:0:0:0:
266,364,269718,2,0,P|268:325|276:273,1,90,2|0,3:2|3:2,0:0:0:0:
304,172,270055,1,8,3:2:0:0:
422,232,270224,2,0,P|390:224|355:229,1,45,0|0,0:0|0:0,0:0:0:0:
299,258,270392,5,2,3:2:0:0:
389,124,270561,1,0,3:2:0:0:
228,114,270729,1,8,3:2:0:0:
421,133,270898,1,2,0:0:0:0:
421,133,270982,1,2,0:0:0:0:
421,133,271066,1,2,3:2:0:0:
353,17,271235,1,0,3:2:0:0:
512,91,271403,1,8,3:2:0:0:
403,226,271572,2,0,L|415:271,1,45,0|0,3:2|3:2,0:0:0:0:
328,165,271740,6,0,P|241:159|146:163,1,180,4|8,3:2|3:2,0:0:0:0:
56,218,272246,1,2,3:2:0:0:
56,218,272330,1,0,0:0:0:0:
56,218,272415,2,0,P|56:176|48:118,1,90,0|2,3:2|3:2,0:0:0:0:
166,0,272752,2,0,P|181:46|162:100,1,90,8|0,0:0|0:0,0:0:0:0:
171,85,273004,1,8,0:2:0:0:
171,85,273089,5,2,3:3:0:0:
137,202,273257,1,2,3:2:0:0:
326,228,273426,1,8,3:2:0:0:
196,291,273594,1,2,0:0:0:0:
352,138,273763,1,2,3:2:0:0:
317,130,273847,1,0,3:2:0:0:
284,141,273931,1,2,3:2:0:0:
256,162,274016,1,0,3:2:0:0:
241,194,274100,1,12,3:2:0:0:
266,347,274268,1,0,3:2:0:0:
416,291,274437,6,0,L|510:314,1,90,2|0,3:2|0:0,0:0:0:0:
326,228,274774,2,0,P|310:278|319:332,1,90,2|0,3:2|0:0,0:0:0:0:
422,195,275113,2,0,P|418:149|393:96,1,90,2|0,3:2|3:2,0:0:0:0:
401,108,275473,1,0,3:2:0:0:
234,81,275618,6,0,B|181:112|125:116|125:116|172:142|211:130,1,180,12|0,3:2|3:2,0:0:0:0:
53,163,276124,2,0,P|42:125|59:58,1,90,10|0,3:2|3:2,0:0:0:0:
126,219,276461,2,0,L|119:324,1,90,2|8,3:2|3:2,0:0:0:0:
120,308,276713,1,8,3:2:0:0:
120,308,276798,1,8,3:2:0:0:
256,376,276966,6,0,B|248:320|248:320|264:256|264:256|256:200,1,180,4|0,3:2|3:2,0:0:0:0:
355,219,277472,2,0,B|363:263|363:263|350:311,1,90,10|0,3:2|3:2,0:0:0:0:
168,248,277809,2,0,B|159:203|159:203|173:156,1,90,2|0,3:2|3:2,0:0:0:0:
336,72,278146,1,0,3:2:0:0:
256,22,278315,6,0,B|248:78|248:78|264:142|264:142|256:198,1,180,12|10,3:2|3:2,0:0:0:0:
254,225,278736,1,8,3:2:0:0:
251,251,278820,2,0,P|247:287|253:311,1,45
320,352,278989,1,0,3:2:0:0:
320,352,279073,1,0,3:2:0:0:
320,352,279157,2,0,P|368:360|416:384,1,90,10|0,0:0|0:0,0:0:0:0:
160,384,279494,1,2,3:2:0:0:
256,192,279663,5,4,3:2:0:0:
256,192,279831,12,0,285899,0:0:0:0:
