osu file format v14

[General]
AudioFilename: audio.mp3
AudioLeadIn: 0
PreviewTime: 43597
Countdown: 0
SampleSet: Soft
StackLeniency: 0.6
Mode: 0
LetterboxInBreaks: 0
WidescreenStoryboard: 1

[Editor]
Bookmarks: 735,12603,23152,33702,44251,54800,65350,75899,86449,96998,107548,118097,128647,139196,149745,160295,170844,181394,191943,202822,213042,223592,234141,244691,260437
DistanceSpacing: 2.1
BeatDivisor: 4
GridSize: 4
TimelineZoom: 2.799999

[Metadata]
Title:Kimi ni Okuru Angel Yell
TitleUnicode:君に贈るAngel Yell
Artist:KiRaRe
ArtistUnicode:KiRaRe
Creator:Andrea
Version:kotachi & Koori's Insane
Source:Re:ステージ!プリズムステップ
Tags:_kotachi_ -Brethia MiyohashiKoori Sekaii Sekai-nyan Sekai osuplayer111 re:stage! prism step restage dream days Re:ステージ! ドリームデイズ rst japanese video game anime キラリ 式宮舞菜 Shikimiya Mana 月坂紗由 Tsukisaka Sayu 市杵島瑞葉 Ichikishima Mizuha 柊かえ Hiiragi Kae 本城香澄 Honjou Kasumi 長谷川みい Hasegawa Mii 牧野天音 Makino Amane 鬼頭明里 Kitou Akari 田澤茉純 Tazawa Masumi 立花芽恵夢 Tachibana Meemu 岩橋由佳 Iwahashi Yuka 空見ゆき Sorami Yuki
BeatmapID:3208952
BeatmapSetID:1571556

[Difficulty]
HPDrainRate:5
CircleSize:4
OverallDifficulty:7.5
ApproachRate:9
SliderMultiplier:1.8
SliderTickRate:1

[Events]
//Background and Video events
0,0,"restageinsanebg.jpg",0,0
//Break Periods
2,192148,199260
//Storyboard Layer 0 (Background)
//Storyboard Layer 1 (Fail)
//Storyboard Layer 2 (Pass)
//Storyboard Layer 3 (Foreground)
//Storyboard Layer 4 (Overlay)
//Storyboard Sound Samples

[TimingPoints]
740,329.67032967033,4,2,1,60,1,0
904,-200,4,2,1,60,0,0
2058,-100,4,2,3,70,0,0
2223,-100,4,2,1,5,0,0
2388,-100,4,2,1,70,0,0
4778,-100,4,2,1,5,0,0
4860,-100,4,2,1,70,0,0
6014,-100,4,2,3,70,0,0
6179,-100,4,2,1,70,0,0
7250,-100,4,2,1,5,0,0
7333,-100,4,2,3,70,0,0
7663,-100,4,2,1,70,0,0
9970,-100,4,2,3,70,0,0
10135,-100,4,2,1,70,0,0
11124,-100,4,2,3,70,0,0
11371,-100,4,2,1,70,0,0
12608,-133.333333333333,4,2,3,60,0,0
12937,-133.333333333333,4,2,1,60,0,0
13267,-133.333333333333,4,2,1,60,0,0
20354,-133.333333333333,4,2,1,5,0,0
20520,-133.333333333333,4,2,1,60,0,0
22827,-133.333333333333,4,2,1,60,0,0
23157,-100,4,2,1,70,0,0
23816,-100,4,2,1,70,0,0
24476,-100,4,2,1,70,0,0
27443,-100,4,2,1,70,0,0
27937,-100,4,2,1,70,0,0
28761,-100,4,2,1,70,0,0
29750,-100,4,2,1,70,0,0
30987,-100,4,2,1,5,0,0
31069,-100,4,2,1,70,0,0
32388,-100,4,2,1,70,0,0
33624,-100,4,2,1,5,0,0
33707,-133.333333333333,4,2,2,60,0,0
36674,-133.333333333333,4,2,2,60,0,0
37663,-133.333333333333,4,2,2,60,0,0
38981,-100,4,2,3,70,0,0
39311,-100,4,2,1,70,0,0
40300,-100,4,2,3,70,0,0
40465,-100,4,2,1,70,0,0
44256,-90.9090909090909,4,2,3,80,0,1
44503,-90.9090909090909,4,2,1,5,0,1
44586,-90.9090909090909,4,2,1,80,0,1
45492,-90.9090909090909,4,2,1,5,0,1
45575,-90.9090909090909,4,2,1,80,0,1
46399,-90.9090909090909,4,2,1,80,0,1
48129,-90.9090909090909,4,2,1,5,0,1
48212,-90.9090909090909,4,2,1,80,0,1
49036,-90.9090909090909,4,2,1,80,0,1
49531,-90.9090909090909,4,2,3,80,0,1
49860,-90.9090909090909,4,2,1,80,0,1
50767,-90.9090909090909,4,2,1,5,0,1
50849,-90.9090909090909,4,2,1,80,0,1
52168,-90.9090909090909,4,2,3,80,0,1
52415,-90.9090909090909,4,2,1,80,0,1
53404,-90.9090909090909,4,2,1,5,0,1
53487,-90.9090909090909,4,2,1,80,0,1
54805,-90.9090909090909,4,2,3,80,0,1
55135,-90.9090909090909,4,2,1,80,0,1
55712,-90.9090909090909,4,2,1,5,0,1
55794,-90.9090909090909,4,2,1,80,0,1
56124,-90.9090909090909,4,2,1,80,0,1
57443,-90.9090909090909,4,2,3,80,0,1
57690,-90.9090909090909,4,2,1,80,0,1
58761,-90.9090909090909,4,2,3,80,0,1
58926,-90.9090909090909,4,2,1,80,0,1
60080,-90.9090909090909,4,2,3,80,0,1
60327,-90.9090909090909,4,2,1,80,0,1
62718,-90.9090909090909,4,2,3,80,0,1
62882,-90.9090909090909,4,2,1,80,0,1
65355,-90.9090909090909,4,2,3,80,0,1
65602,-90.9090909090909,4,2,1,5,0,1
65685,-90.9090909090909,4,2,1,80,0,1
69970,-90.9090909090909,4,2,3,80,0,1
70959,-90.9090909090909,4,2,1,80,0,1
71866,-90.9090909090909,4,2,1,5,0,1
71948,-90.9090909090909,4,2,1,80,0,1
74503,-90.9090909090909,4,2,1,5,0,1
74586,-90.9090909090909,4,2,1,80,0,1
75904,-90.9090909090909,4,2,3,80,0,1
76234,-90.9090909090909,4,2,1,80,0,1
77882,-90.9090909090909,4,2,3,80,0,1
78871,-90.9090909090909,4,2,1,80,0,1
81179,-90.9090909090909,4,2,3,80,0,1
81426,-90.9090909090909,4,2,3,5,0,1
81509,-90.9090909090909,4,2,1,80,0,1
82827,-90.9090909090909,4,2,1,80,0,1
83322,-111.111111111111,4,2,1,80,0,1
83734,-111.111111111111,4,2,1,5,0,1
83816,-90.9090909090909,4,2,3,80,0,1
84146,-90.9090909090909,4,2,1,80,0,1
85217,-90.9090909090909,4,2,1,5,0,1
85300,-90.9090909090909,4,2,1,80,0,1
86454,-100,4,2,1,70,0,0
87772,-100,4,2,1,70,0,0
92058,-90.9090909090909,4,2,1,70,0,0
92388,-83.3333333333333,4,2,1,70,0,0
92718,-100,4,2,1,70,0,0
94366,-90.9090909090909,4,2,1,70,0,0
95767,-90.9090909090909,4,2,1,5,0,0
95849,-90.9090909090909,4,2,1,70,0,0
96096,-90.9090909090909,4,2,1,5,0,0
96179,-90.9090909090909,4,2,1,70,0,0
96509,-100,4,2,1,70,0,0
96921,-100,4,2,1,5,0,0
97003,-133.333333333333,4,2,1,60,0,0
97333,-133.333333333333,4,2,1,60,0,0
97663,-133.333333333333,4,2,1,60,0,0
102443,-133.333333333333,4,2,1,60,0,0
103844,-133.333333333333,4,2,1,5,0,0
103926,-133.333333333333,4,2,1,60,0,0
104915,-133.333333333333,4,2,1,60,0,0
107553,-100,4,2,1,70,0,0
109696,-100,4,2,1,70,0,0
114146,-100,4,2,1,70,0,0
115382,-100,4,2,1,5,0,0
115465,-100,4,2,1,70,0,0
116783,-100,4,2,1,70,0,0
118102,-133.333333333333,4,2,2,60,0,0
122718,-133.333333333333,4,2,1,50,0,0
123377,-100,4,2,1,70,0,0
124696,-100,4,2,3,70,0,0
124860,-100,4,2,1,70,0,0
126014,-100,4,2,3,70,0,0
126179,-100,4,2,1,70,0,0
128652,-90.9090909090909,4,2,3,80,0,1
128899,-90.9090909090909,4,2,1,5,0,1
128981,-90.9090909090909,4,2,1,80,0,1
130794,-90.9090909090909,4,2,1,80,0,1
131289,-90.9090909090909,4,2,3,80,0,1
131536,-90.9090909090909,4,2,1,80,0,1
132525,-90.9090909090909,4,2,1,5,0,1
132608,-90.9090909090909,4,2,1,80,0,1
133926,-90.9090909090909,4,2,3,80,0,1
134174,-90.9090909090909,4,2,1,80,0,1
135162,-90.9090909090909,4,2,1,5,0,1
135245,-90.9090909090909,4,2,1,80,0,1
136564,-90.9090909090909,4,2,3,80,0,1
136811,-90.9090909090909,4,2,1,80,0,1
137882,-90.9090909090909,4,2,1,80,0,1
138542,-90.9090909090909,4,2,1,80,0,1
139201,-90.9090909090909,4,2,3,80,0,1
139531,-90.9090909090909,4,2,1,80,0,1
140107,-90.9090909090909,4,2,1,5,0,1
140190,-90.9090909090909,4,2,1,80,0,1
140520,-90.9090909090909,4,2,3,80,0,1
140685,-90.9090909090909,4,2,1,80,0,1
141838,-90.9090909090909,4,2,3,80,0,1
142168,-90.9090909090909,4,2,1,80,0,1
143157,-90.9090909090909,4,2,3,80,0,1
143404,-90.9090909090909,4,2,1,80,0,1
144476,-90.9090909090909,4,2,3,80,0,1
144805,-90.9090909090909,4,2,1,80,0,1
147113,-90.9090909090909,4,2,3,80,0,1
147278,-90.9090909090909,4,2,1,80,0,1
149750,-90.9090909090909,4,2,3,80,0,1
149998,-90.9090909090909,4,2,1,5,0,1
150080,-90.9090909090909,4,2,1,80,0,1
152388,-90.9090909090909,4,2,3,80,0,1
152635,-90.9090909090909,4,2,1,80,0,1
153624,-90.9090909090909,4,2,1,5,0,1
153707,-90.9090909090909,4,2,1,80,0,1
154531,-90.9090909090909,4,2,1,80,0,1
155025,-90.9090909090909,4,2,3,80,0,1
155272,-90.9090909090909,4,2,1,80,0,1
156261,-90.9090909090909,4,2,1,5,0,1
156344,-90.9090909090909,4,2,1,80,0,1
157168,-90.9090909090909,4,2,1,80,0,1
157992,-90.9090909090909,4,2,1,80,0,1
158322,-90.9090909090909,4,2,1,80,0,1
160300,-90.9090909090909,4,2,3,80,0,1
160547,-90.9090909090909,4,2,1,80,0,1
162937,-90.9090909090909,4,2,3,80,0,1
163267,-90.9090909090909,4,2,1,80,0,1
165575,-90.9090909090909,4,2,3,80,0,1
165822,-90.9090909090909,4,2,3,5,0,1
165904,-90.9090909090909,4,2,1,80,0,1
166893,-90.9090909090909,4,2,3,80,0,1
167223,-90.9090909090909,4,2,3,80,0,1
167718,-90.9090909090909,4,2,1,80,0,1
167882,-111.111111111111,4,2,1,80,0,1
168130,-111.111111111111,4,2,1,5,0,1
168212,-90.9090909090909,4,2,3,80,0,1
168542,-90.9090909090909,4,2,1,80,0,1
169366,-90.9090909090909,4,2,3,80,0,1
169613,-90.9090909090909,4,2,3,5,0,1
169696,-90.9090909090909,4,2,1,80,0,1
170849,-100,4,2,1,70,0,0
172168,-100,4,2,1,70,0,0
172415,-100,4,2,1,5,0,0
172498,-100,4,2,1,70,0,0
174805,-100,4,2,3,70,0,0
174970,-100,4,2,1,70,0,0
177443,-100,4,2,1,70,0,0
178019,-100,4,2,1,5,0,0
178102,-100,4,2,1,70,0,0
178761,-100,4,2,1,70,0,0
180080,-100,4,2,3,70,0,0
180245,-100,4,2,1,70,0,0
180575,-76.9230769230769,4,2,1,70,0,0
181069,-100,4,2,1,70,0,0
181399,-100,4,2,3,70,0,0
181646,-100,4,2,3,5,0,0
181729,-100,4,2,1,70,0,0
182058,-100,4,2,1,70,0,0
183707,-133.333333333333,4,2,1,70,0,0
183954,-133.333333333333,4,2,1,5,0,0
184036,-100,4,2,3,70,0,0
184366,-100,4,2,1,70,0,0
185932,-100,4,2,1,5,0,0
186014,-100,4,2,1,70,0,0
188074,-100,4,2,1,5,0,0
188157,-100,4,2,1,70,0,0
188404,-100,4,2,1,5,0,0
188487,-100,4,2,1,70,0,0
188981,-133.333333333333,4,2,1,70,0,0
189228,-133.333333333333,4,2,1,5,0,0
189311,-100,4,2,3,70,0,0
189641,-100,4,2,1,70,0,0
190712,-100,4,2,1,5,0,0
190794,-100,4,2,1,70,0,0
191701,-200,4,2,1,70,0,0
191948,-125,4,2,3,50,0,0
192443,-125,4,2,1,50,0,0
194586,-125,4,2,3,50,0,0
195080,-125,4,2,1,50,0,0
197223,-125,4,2,3,50,0,0
197718,-125,4,2,1,50,0,0
199860,-200,4,2,1,50,0,0
200107,-200,4,2,1,5,0,0
200190,-100,4,2,1,70,0,0
200437,-100,4,2,1,5,0,0
200499,329.67032967033,4,2,1,70,1,0
200499,-100,4,2,1,70,0,0
200608,-100,4,2,1,5,0,0
200718,-100,4,2,1,70,0,0
200828,-100,4,2,1,5,0,0
200938,-100,4,2,1,70,0,0
201048,-100,4,2,1,5,0,0
201178,329.67032967033,4,2,1,70,1,0
202496,-200,4,2,1,70,0,0
202743,-200,4,2,1,5,0,0
202825,-100,4,2,3,70,0,0
203073,-100,4,2,1,5,0,0
203155,-100,4,2,1,70,0,0
205380,-100,4,2,1,5,0,0
205463,-100,4,2,1,70,0,0
205792,-100,4,2,3,70,0,0
205957,-100,4,2,1,70,0,0
206452,-100,4,2,1,70,0,0
206699,-100,4,2,1,5,0,0
206781,-100,4,2,1,70,0,0
207770,-100,4,2,3,70,0,0
208018,-100,4,2,1,5,0,0
208100,-100,4,2,1,70,0,0
210408,-100,4,2,3,70,0,0
210573,-100,4,2,1,70,0,0
213046,-90.9090909090909,4,2,3,80,0,1
213210,-90.9090909090909,4,2,1,80,0,1
215188,-90.9090909090909,4,2,1,80,0,1
216259,-90.9090909090909,4,2,1,5,0,1
216342,-90.9090909090909,4,2,1,80,0,1
217661,-90.9090909090909,4,2,3,80,0,1
217825,-90.9090909090909,4,2,1,80,0,1
219556,-90.9090909090909,4,2,1,5,0,1
219639,-90.9090909090909,4,2,1,80,0,1
220957,-90.9090909090909,4,2,1,80,0,1
221617,-90.9090909090909,4,2,3,80,0,1
221781,-90.9090909090909,4,2,1,80,0,1
222358,-90.9090909090909,4,2,1,5,0,1
222441,-90.9090909090909,4,2,1,80,0,1
223595,-90.9090909090909,4,2,3,80,0,1
223924,-90.9090909090909,4,2,1,80,0,1
229116,-90.9090909090909,4,2,1,5,0,1
229199,-90.9090909090909,4,2,1,80,0,1
230188,-90.9090909090909,4,2,3,80,0,1
230518,-90.9090909090909,4,2,3,80,0,1
231177,-111.111111111111,4,2,1,80,0,1
231424,-111.111111111111,4,2,1,5,0,1
231507,-90.9090909090909,4,2,1,80,0,1
232908,-90.9090909090909,4,2,1,5,0,1
232990,-90.9090909090909,4,2,1,80,0,1
234145,-100,4,2,3,70,0,0
234391,-100,4,2,1,70,0,0
235463,-100,4,2,1,70,0,0
236781,-100,4,2,1,70,0,0
237111,-100,4,2,1,70,0,0
237441,-100,4,2,1,70,0,0
238100,-100,4,2,1,70,0,0
239336,-100,4,2,1,5,0,0
239419,-100,4,2,1,70,0,0
240738,-100,4,2,1,70,0,0
242056,-100,4,2,1,70,0,0
244034,-100,4,2,3,70,0,0
244117,-100,4,2,1,70,0,0
244694,-100,4,2,3,70,0,0
244941,-100,4,2,1,70,0,0
245270,-100,4,2,1,5,0,0
245353,-100,4,2,1,70,0,0
246012,-100,4,2,1,70,0,0
247331,-100,4,2,1,70,0,0
247990,-100,4,2,1,70,0,0
248650,-80,4,2,3,70,0,0
248814,-80,4,2,3,5,0,0
248897,-80,4,2,1,70,0,0
249061,-80,4,2,1,5,0,0
249144,-80,4,2,1,70,0,0
249968,-100,4,2,1,70,0,0
250628,-100,4,2,3,70,0,0
250875,-100,4,2,1,70,0,0
251946,-111.111111111111,4,2,1,70,0,0
252523,-111.111111111111,4,2,1,5,0,0
252606,-111.111111111111,4,2,3,70,0,0
252770,-111.111111111111,4,2,1,70,0,0
254006,-111.111111111111,4,2,1,5,0,0
254089,-111.111111111111,4,2,1,70,0,0
255243,-232.558139534884,4,2,3,70,0,0
255325,-232.558139534884,4,2,1,60,0,0

[Colours]
Combo1 : 85,255,255
Combo2 : 255,85,170
Combo3 : 255,255,85
SliderBorder : 229,84,127
SliderTrackOverride : 255,255,255

[HitObjects]
78,96,740,5,0,1:0:0:0:
124,232,904,1,0,1:0:0:0:
149,157,1069,1,0,1:0:0:0:
149,157,1152,1,8,0:0:0:0:
149,157,1234,2,0,L|158:125,5,22.5,8|8|8|0|0|0,0:0|0:0|0:0|0:0|1:0|0:0,0:0:0:0:
215,83,1729,1,8,0:0:0:0:
249,72,1811,1,8,0:0:0:0:
283,81,1893,1,8,0:0:0:0:
306,108,1976,1,8,0:0:0:0:
316,142,2058,6,0,L|286:241,1,90,6|0,1:2|2:0,0:0:0:0:
185,345,2388,1,8,0:0:0:0:
133,278,2553,2,0,P|158:245|218:260,1,90,2|0,0:0|1:0,0:0:0:0:
325,355,2882,2,0,P|283:349|266:290,1,90,2|8,1:2|0:0,0:0:0:0:
416,209,3212,6,0,B|407:286|407:286|423:317|423:317|414:394,1,180,2|2,0:0|0:0,0:0:0:0:
493,238,3707,1,8,0:0:0:0:
480,158,3871,2,0,P|450:133|392:132,1,90,2|0,0:0|1:0,0:0:0:0:
328,177,4201,1,0,1:0:0:0:
328,177,4366,1,8,0:0:0:0:
225,27,4531,6,0,L|227:165,1,135,2|0,0:0|2:0,0:0:0:0:
226,183,4860,1,2,0:0:0:0:
132,104,5025,2,0,P|87:102|55:70,1,90,8|2,0:0|1:2,0:0:0:0:
7,226,5355,1,2,1:2:0:0:
146,191,5520,1,0,1:0:0:0:
93,325,5685,2,0,P|122:363|181:362,1,90,8|2,0:0|1:2,0:0:0:0:
314,278,6014,5,2,1:2:0:0:
314,278,6179,1,0,1:0:0:0:
174,194,6344,2,0,L|152:324,1,90,8|0,0:0|1:0,0:0:0:0:
158,282,6591,1,0,1:0:0:0:
158,283,6674,1,2,1:2:0:0:
376,215,6838,1,0,1:0:0:0:
314,278,7003,2,0,P|303:333|377:345,1,135,8|0,0:0|2:0,0:0:0:0:
426,304,7333,6,0,L|430:214,1,90,6|0,1:2|2:0,0:0:0:0:
485,66,7663,1,8,0:0:0:0:
428,135,7827,2,0,P|382:121|378:76,1,90,2|0,0:0|1:0,0:0:0:0:
182,66,8157,1,0,1:0:0:0:
295,154,8322,1,8,0:0:0:0:
321,12,8487,2,0,L|205:-4,1,90,2|0,0:0|1:0,0:0:0:0:
49,113,8816,5,0,0:0:0:0:
160,203,8981,1,8,0:0:0:0:
182,66,9146,1,2,1:2:0:0:
182,66,9229,1,2,1:2:0:0:
182,66,9311,1,2,1:2:0:0:
71,197,9476,5,0,1:0:0:0:
97,32,9641,1,8,0:0:0:0:
230,140,9805,1,0,0:0:0:0:
296,0,9970,6,0,L|391:14,1,90,2|0,1:2|1:0,0:0:0:0:
468,163,10300,1,8,0:0:0:0:
335,84,10465,1,0,1:0:0:0:
393,225,10630,1,10,1:2:0:0:
429,77,10794,1,0,1:0:0:0:
313,177,10959,1,8,0:0:0:0:
471,263,11124,6,0,P|483:229|462:170,1,90,10|0,1:2|2:0,0:0:0:0:
251,292,11454,1,8,1:2:0:0:
337,255,11619,2,0,L|330:349,1,90,8|0,0:0|1:0,0:0:0:0:
159,236,11948,1,10,1:2:0:0:
200,363,12113,1,0,1:0:0:0:
251,292,12278,1,8,0:0:0:0:
124,331,12443,1,0,1:0:0:0:
213,170,12608,6,0,L|291:177,1,67.5000025749208,6|0,1:2|2:0,0:0:0:0:
366,222,12937,2,0,P|376:191|374:157,1,67.5000025749208,2|0,1:2|2:0,0:0:0:0:
311,90,13267,1,0,1:2:0:0:
311,90,13432,1,0,0:0:0:0:
382,23,13597,1,2,1:2:0:0:
382,23,13761,1,0,0:0:0:0:
292,93,13926,6,0,B|216:101|244:55|156:66,1,135.000005149842,2|2,1:2|1:2,0:0:0:0:
25,88,14421,2,0,P|51:107|84:114,1,67.5000025749208,2|0,0:0|1:0,0:0:0:0:
81,214,14750,2,0,P|114:209|141:190,1,67.5000025749208,0|2,0:0|1:2,0:0:0:0:
141,190,15080,1,0,0:0:0:0:
123,334,15245,5,0,1:0:0:0:
123,334,15410,2,0,L|45:326,2,67.5000025749208,2|2|0,0:0|1:2|0:0,0:0:0:0:
213,368,15904,1,0,1:2:0:0:
213,368,16069,2,0,P|220:332|213:299,1,67.5000025749208,2|2,0:0|1:2,0:0:0:0:
141,190,16399,6,0,P|168:214|200:224,1,67.5000025749208,2|0,0:0|1:0,0:0:0:0:
336,215,16729,2,0,P|301:226|276:249,1,67.5000025749208,2|2,0:0|1:2,0:0:0:0:
418,315,17058,2,0,L|431:175,1,135.000005149842,8|2,0:0|0:0,0:0:0:0:
439,72,17553,1,2,1:2:0:0:
439,72,17718,1,2,0:0:0:0:
346,119,17882,5,0,1:0:0:0:
346,119,18212,2,0,L|265:109,1,67.5000025749208,2|2,1:2|0:0,0:0:0:0:
220,40,18542,2,0,L|153:48,1,67.5000025749208,0|2,1:0|0:0,0:0:0:0:
77,117,18871,2,0,L|67:36,1,67.5000025749208,2|2,1:2|0:0,0:0:0:0:
68,51,19119,1,2,0:0:0:0:
68,51,19201,1,2,1:2:0:0:
241,246,19531,5,2,1:2:0:0:
163,200,19696,1,0,0:0:0:0:
163,292,19860,1,0,1:2:0:0:
241,246,20025,1,0,0:0:0:0:
163,200,20190,2,0,L|94:193,1,67.5000025749208,2|0,1:2|2:0,0:0:0:0:
244,336,20520,6,0,B|321:349|296:298|386:314,1,135.000005149842,0|2,1:2|1:2,0:0:0:0:
373,312,21014,1,0,0:0:0:0:
467,268,21179,2,0,P|445:208|381:210,1,135.000005149842,0|2,1:2|1:2,0:0:0:0:
234,111,21838,6,0,L|241:246,1,135.000005149842,0|2,1:2|1:2,0:0:0:0:
318,145,22333,1,0,0:0:0:0:
161,179,22498,2,0,L|94:193,1,67.5000025749208,2|0,1:2|2:0,0:0:0:0:
230,26,22827,1,8,0:0:0:0:
161,276,23157,5,4,1:2:0:0:
161,276,23322,1,0,1:0:0:0:
243,333,23487,2,0,L|258:236,1,90,8|0,0:0|2:0,0:0:0:0:
318,145,23816,1,2,1:2:0:0:
387,240,23981,1,0,1:0:0:0:
408,72,24146,2,0,L|395:177,1,90,8|0,0:0|2:0,0:0:0:0:
328,58,24476,5,2,1:2:0:0:
497,84,24641,2,0,L|392:69,1,90,0|8,0:0|0:0,0:0:0:0:
222,123,24970,2,0,B|311:138|311:138|326:148|326:148|413:164,1,180,2|0,1:2|1:0,0:0:0:0:
472,288,25465,1,8,0:0:0:0:
472,288,25630,1,0,0:0:0:0:
377,275,25794,1,2,1:2:0:0:
377,275,25959,6,0,L|280:264,1,90,0|8,1:0|0:0,0:0:0:0:
197,251,26289,1,0,0:0:0:0:
275,353,26454,1,2,1:2:0:0:
185,340,26619,1,0,1:0:0:0:
287,264,26783,1,8,0:0:0:0:
287,264,26948,1,0,0:0:0:0:
108,239,27113,6,0,L|6:223,1,90,2|0,1:2|2:0,0:0:0:0:
19,225,27443,1,8,0:0:0:0:
211,166,27608,2,0,L|197:254,1,90,2|0,1:2|2:0,0:0:0:0:
74,129,27937,2,0,L|87:40,1,90,0|8,1:0|0:0,0:0:0:0:
226,82,28267,1,0,0:0:0:0:
226,82,28432,6,0,P|274:105|325:101,1,90,2|0,1:2|2:0,0:0:0:0:
309,104,28761,1,8,0:0:0:0:
457,30,28926,2,0,P|413:60|391:106,1,90,2|2,0:0|1:2,0:0:0:0:
389,257,29256,1,0,1:0:0:0:
389,257,29421,2,0,P|384:203|355:161,1,90,8|0,0:0|2:0,0:0:0:0:
204,304,29750,5,2,1:2:0:0:
302,241,29915,1,0,1:0:0:0:
199,183,30080,2,0,B|199:299|199:299|203:303|203:303|199:307|199:307|199:371,1,180,8|2,0:0|1:2,0:0:0:0:
106,279,30575,1,0,1:0:0:0:
281,339,30740,2,0,B|376:315|334:367|434:348,1,135,8|0,0:0|2:0,0:0:0:0:
466,290,31069,6,0,B|483:230|441:187|399:203|373:232|381:271|407:282,1,180,2|8,1:2|0:0,0:0:0:0:
423,75,31729,1,2,1:2:0:0:
423,75,31893,1,0,1:0:0:0:
352,28,32058,2,0,P|334:74|366:130,1,90,8|0,0:0|2:0,0:0:0:0:
309,283,32388,5,2,1:2:0:0:
309,283,32553,1,0,1:0:0:0:
232,203,32718,2,0,B|320:186|320:186|338:192|338:192|410:180,1,180,8|2,0:0|1:2,0:0:0:0:
166,152,33212,1,0,1:0:0:0:
166,152,33294,1,0,1:0:0:0:
166,152,33377,2,0,B|135:214|135:214|175:281,1,135,8|0,0:0|2:0,0:0:0:0:
215,343,33707,6,0,P|164:301|99:312,1,135.000005149842,6|0,1:2|1:2,0:0:0:0:
304,243,34201,2,0,P|296:310|291:377,1,135.000005149842,2|2,1:2|0:0,0:0:0:0:
400,300,34696,1,2,1:2:0:0:
400,300,34860,1,2,0:0:0:0:
291,225,35025,2,0,P|258:217|209:206,2,67.5000025749208,2|0|0,1:2|1:0|1:2,0:0:0:0:
442,209,35520,2,0,P|450:171|366:117,1,135.000005149842,2|2,0:0|0:0,0:0:0:0:
285,59,36014,2,0,P|291:100|296:134,1,67.5000025749208,2|2,1:2|0:0,0:0:0:0:
142,212,36344,6,0,P|147:178|164:150,1,67.5000025749208,2|0,1:2|2:0,0:0:0:0:
82,276,36674,2,0,P|62:248|54:216,1,67.5000025749208,2|0,1:2|1:0,0:0:0:0:
232,290,37003,2,0,P|226:323|209:351,1,67.5000025749208,2|2,1:2|0:0,0:0:0:0:
291,225,37333,2,0,P|310:252|318:284,1,67.5000025749208,2|0,1:2|2:0,0:0:0:0:
164,150,37663,6,0,P|220:131|303:127,1,135.000005149842,2|0,1:2|1:2,0:0:0:0:
428,150,38157,1,2,1:2:0:0:
428,150,38240,1,2,1:2:0:0:
428,150,38322,1,2,1:2:0:0:
325,4,38487,1,0,1:0:0:0:
449,26,38652,1,8,0:0:0:0:
303,128,38816,1,2,1:2:0:0:
421,237,38981,6,0,P|465:227|509:221,1,90,6|0,1:2|2:0,0:0:0:0:
318,284,39311,1,8,0:0:0:0:
318,284,39476,2,0,P|274:274|230:268,1,90,2|0,0:0|1:0,0:0:0:0:
408,351,39805,2,0,P|413:308|418:262,1,90,2|8,1:2|0:0,0:0:0:0:
303,128,40135,6,0,L|308:172,2,45,0|0|2,1:0|1:0|1:2,0:0:0:0:
419,80,40465,2,0,P|397:43|350:20,1,90,0|8,1:0|0:0,0:0:0:0:
218,9,40794,2,0,L|223:53,1,45,0|0,1:0|1:0,0:0:0:0:
100,124,40959,2,0,P|145:126|190:135,1,90,2|0,1:2|1:0,0:0:0:0:
318,256,41289,2,0,P|273:258|229:267,1,90,8|0,0:0|1:0,0:0:0:0:
450,319,41619,5,4,1:2:0:0:
424,166,41783,2,0,L|431:210,2,45,0|0|0,1:0|1:0|1:0,0:0:0:0:
229,267,42113,2,0,P|273:258|318:256,1,90,14|0,0:0|1:2,0:0:0:0:
324,258,42360,1,0,1:0:0:0:
330,260,42443,1,0,1:0:0:0:
215,354,42608,1,10,0:0:0:0:
138,226,42772,1,0,1:0:0:0:
138,226,42855,1,0,1:0:0:0:
138,226,42937,6,0,P|141:183|144:128,1,90,0|10,1:0|0:0,0:0:0:0:
297,65,43267,2,0,P|294:108|291:163,1,90,10|0,0:0|1:0,0:0:0:0:
156,34,43597,1,10,0:0:0:0:
237,221,43761,1,8,0:0:0:0:
263,234,43844,1,8,0:0:0:0:
293,237,43926,1,10,0:0:0:0:
322,230,44009,1,8,0:0:0:0:
347,214,44091,1,8,0:0:0:0:
364,190,44174,1,8,0:0:0:0:
372,161,44256,6,0,B|364:123|310:113|310:113|289:149|247:147,1,148.50000453186,6|0,1:2|2:0,0:0:0:0:
193,110,44586,1,8,0:0:0:0:
309,35,44750,1,0,0:0:0:0:
168,5,44915,2,0,L|162:109,1,99.0000030212403,2|0,1:2|1:0,0:0:0:0:
23,157,45245,2,0,B|131:149|67:200|180:198,1,148.50000453186,10|0,0:0|2:0,0:0:0:0:
206,272,45575,6,0,P|159:280|97:266,1,99.0000030212403,2|0,1:2|1:0,0:0:0:0:
33,309,45822,2,0,P|27:332|40:318,1,49.5000015106202,0|8,1:0|0:0,0:0:0:0:
180,382,46069,2,0,P|227:374|289:388,1,99.0000030212403,2|0,1:2|2:0,0:0:0:0:
380,222,46399,2,0,P|337:218|296:166,1,99.0000030212403,0|8,1:0|0:0,0:0:0:0:
301,98,46729,1,0,0:0:0:0:
470,278,46893,6,0,L|474:78,1,198.000006042481,2|8,1:2|0:0,0:0:0:0:
473,80,47388,1,0,0:0:0:0:
373,144,47553,1,2,1:2:0:0:
474,205,47718,1,0,1:0:0:0:
383,52,47882,2,0,B|325:45|325:45|306:31|306:31|238:25,1,148.50000453186,10|0,0:0|2:0,0:0:0:0:
157,15,48212,6,0,B|126:54|126:54|150:116,1,99.0000030212403,2|0,1:2|1:0,0:0:0:0:
191,160,48459,2,0,L|184:223,1,49.5000015106202,0|8,1:0|0:0,0:0:0:0:
8,247,48707,2,0,P|62:249|110:215,1,99.0000030212403,2|0,1:2|2:0,0:0:0:0:
249,339,49036,2,0,P|206:315|157:319,1,99.0000030212403,0|8,1:0|0:0,0:0:0:0:
93,363,49366,1,0,0:0:0:0:
345,375,49531,6,0,B|361:252|303:306|321:178,1,198.000006042481,2|8,1:2|0:0,0:0:0:0:
402,222,50025,1,0,1:0:0:0:
402,222,50108,1,0,1:0:0:0:
402,222,50190,1,2,1:2:0:0:
245,198,50355,1,0,1:0:0:0:
341,74,50520,2,0,P|417:79|414:11,1,148.50000453186,10|0,0:0|2:0,0:0:0:0:
402,15,50849,5,2,1:2:0:0:
497,125,51014,2,0,P|497:160|495:230,1,99.0000030212403,0|8,1:0|0:0,0:0:0:0:
495,223,51344,1,0,1:0:0:0:
427,346,51509,1,2,1:2:0:0:
368,197,51674,2,0,L|250:178,1,99.0000030212403,0|8,1:0|0:0,0:0:0:0:
194,213,52003,1,0,0:0:0:0:
55,0,52168,6,0,P|61:47|75:197,1,198.000006042481,2|8,1:2|0:0,0:0:0:0:
78,283,52663,1,0,1:0:0:0:
145,134,52827,1,2,1:2:0:0:
5,238,52992,1,0,1:0:0:0:
157,325,53157,2,0,P|223:305|303:286,1,148.50000453186,8|0,0:0|2:0,0:0:0:0:
318,296,53487,5,2,1:2:0:0:
197,209,53652,1,0,1:0:0:0:
331,148,53816,1,8,0:0:0:0:
284,218,53981,1,0,1:0:0:0:
221,62,54146,2,0,L|332:43,1,99.0000030212403,2|0,1:2|1:0,0:0:0:0:
394,224,54476,2,0,L|322:137,1,99.0000030212403,8|0,0:0|1:0,0:0:0:0:
394,105,54723,1,0,1:0:0:0:
394,105,54805,6,0,P|447:90|480:207,1,198.000006042481,6|8,1:2|0:0,0:0:0:0:
399,320,55300,1,0,1:0:0:0:
399,320,55382,1,0,1:0:0:0:
399,320,55465,2,0,B|319:342|340:281|256:301,1,148.50000453186,2|0,1:2|2:0,0:0:0:0:
196,348,55794,2,0,P|186:306|169:252,1,99.0000030212403,8|0,0:0|2:0,0:0:0:0:
49,159,56124,6,0,B|78:113|137:123|137:123|173:169|222:164,1,198.000006042481,2|8,1:2|0:0,0:0:0:0:
383,107,56619,1,0,1:0:0:0:
219,54,56783,1,2,1:2:0:0:
318,192,56948,1,0,1:0:0:0:
319,17,57113,1,8,0:0:0:0:
219,164,57278,1,0,0:0:0:0:
382,106,57443,6,0,P|437:184|406:274,2,198.000006042481,2|8|2,1:2|0:0|1:2,0:0:0:0:
254,259,58267,1,0,1:0:0:0:
254,259,58432,2,0,P|264:311|273:367,1,99.0000030212403,8|0,0:0|2:0,0:0:0:0:
91,258,58761,6,0,P|82:188|142:152,1,148.50000453186,2|0,1:2|1:0,0:0:0:0:
219,164,59091,2,0,P|209:112|200:56,1,99.0000030212403,8|0,0:0|1:0,0:0:0:0:
201,66,59338,1,0,1:0:0:0:
201,66,59421,1,2,1:2:0:0:
314,78,59586,1,0,1:0:0:0:
132,0,59750,2,0,P|106:33|105:99,1,99.0000030212403,8|0,0:0|2:0,0:0:0:0:
316,168,60080,6,0,L|511:135,1,198.000006042481,6|8,1:2|0:0,0:0:0:0:
437,326,60575,1,0,1:0:0:0:
437,326,60657,1,0,1:0:0:0:
437,326,60740,2,0,L|424:228,1,99.0000030212403,2|0,1:2|1:0,0:0:0:0:
403,78,61069,1,8,0:0:0:0:
403,78,61234,1,0,0:0:0:0:
262,215,61399,6,0,P|216:232|167:227,1,99.0000030212403,2|0,1:2|1:0,0:0:0:0:
308,90,61729,2,0,P|353:72|402:77,1,99.0000030212403,8|0,0:0|1:0,0:0:0:0:
223,129,62058,2,0,P|205:83|210:34,1,99.0000030212403,2|0,1:2|1:0,0:0:0:0:
347,176,62388,2,0,P|364:221|359:270,1,99.0000030212403,8|0,0:0|2:0,0:0:0:0:
199,334,62718,6,0,P|177:245|262:214,1,198.000006042481,2|8,1:2|0:0,0:0:0:0:
359,270,63212,1,0,1:0:0:0:
365,79,63377,2,0,P|352:126|346:175,2,99.0000030212403,2|0|8,1:2|1:0|0:0,0:0:0:0:
456,18,63871,6,0,B|382:23|382:23|349:59|349:59|274:63,1,198.000006042481,4|2,1:2|1:2,0:0:0:0:
145,54,64366,2,0,L|134:2,3,49.5000015106202,10|8|8|8,0:0|0:0|0:0|0:0,0:0:0:0:
223,122,64696,2,0,P|195:129|176:138,1,49.5000015106202,10|8,1:2|0:0,0:0:0:0:
111,214,64860,2,0,P|135:219|157:229,1,49.5000015106202,8|8,0:0|0:0,0:0:0:0:
241,319,65025,1,10,0:0:0:0:
241,319,65108,1,8,0:0:0:0:
241,319,65190,1,8,0:0:0:0:
241,319,65272,1,8,0:0:0:0:
241,319,65355,6,0,B|287:297|331:313|312:326|346:347|397:320,1,148.50000453186,6|0,1:2|2:0,0:0:0:0:
430,267,65685,1,8,0:0:0:0:
462,367,65849,1,0,0:0:0:0:
500,218,66014,2,0,P|462:181|404:189,1,99.0000030212403,2|0,1:2|1:0,0:0:0:0:
314,58,66344,2,0,B|342:20|342:20|322:136,1,148.50000453186,10|0,0:0|1:0,0:0:0:0:
261,161,66674,6,0,B|219:154|219:154|211:149|211:149|158:141,1,99.0000030212403,2|0,1:2|1:0,0:0:0:0:
87,151,66921,2,0,P|88:123|103:98,1,49.5000015106202,0|8,1:0|0:0,0:0:0:0:
137,264,67168,2,0,P|123:298|105:363,1,99.0000030212403,2|2,0:0|1:2,0:0:0:0:
273,256,67498,2,0,P|320:246|338:180,1,99.0000030212403,0|8,1:0|0:0,0:0:0:0:
308,127,67827,1,0,0:0:0:0:
488,72,67992,6,0,B|434:57|384:97|417:101|362:150|289:120,1,198.000006042481,2|8,1:2|0:0,0:0:0:0:
223,50,68487,1,0,0:0:0:0:
336,10,68652,1,2,1:2:0:0:
307,126,68816,1,0,1:0:0:0:
208,36,68981,2,0,P|136:33|54:29,1,148.50000453186,10|0,0:0|1:0,0:0:0:0:
0,81,69311,6,0,P|-5:136|33:166,1,99.0000030212403,2|0,1:2|1:0,0:0:0:0:
100,147,69558,2,0,L|150:147,1,49.5000015106202,0|8,1:0|0:0,0:0:0:0:
33,273,69805,1,0,1:0:0:0:
33,273,69888,1,0,1:0:0:0:
33,273,69970,1,2,1:2:0:0:
173,245,70135,2,0,L|163:348,1,99.0000030212403,0|8,1:0|0:0,0:0:0:0:
74,373,70465,1,0,0:0:0:0:
256,297,70630,6,0,B|355:302|355:302|371:311|371:311|459:315,1,198.000006042481,6|8,1:2|0:0,0:0:0:0:
512,171,71124,1,0,0:0:0:0:
407,229,71289,1,2,1:2:0:0:
393,108,71454,1,0,1:0:0:0:
290,181,71619,2,0,B|254:159|214:170|231:181|183:192|134:158,1,148.50000453186,10|0,0:0|2:0,0:0:0:0:
101,108,71948,5,2,1:2:0:0:
230,10,72113,2,0,P|227:62|187:89,1,99.0000030212403,0|8,1:0|0:0,0:0:0:0:
191,87,72443,1,0,1:0:0:0:
72,192,72608,1,2,1:2:0:0:
25,36,72772,2,0,L|142:26,1,99.0000030212403,0|8,1:0|0:0,0:0:0:0:
230,10,73102,1,0,0:0:0:0:
342,191,73267,6,0,P|245:182|145:171,1,198.000006042481,2|8,1:2|0:0,0:0:0:0:
64,296,73761,1,0,1:0:0:0:
64,296,73844,1,0,1:0:0:0:
64,296,73926,1,2,1:2:0:0:
21,220,74091,1,0,1:0:0:0:
109,366,74256,2,0,P|186:363|206:293,1,148.50000453186,8|0,0:0|2:0,0:0:0:0:
188,290,74586,5,6,1:2:0:0:
291,365,74750,1,8,0:0:0:0:
266,207,74915,5,8,0:0:0:0:
312,359,75080,1,0,1:0:0:0:
376,215,75245,5,10,1:2:0:0:
335,354,75410,2,0,L|447:357,2,99.0000030212403,0|8|8,1:0|0:0|0:0,0:0:0:0:
290,286,75822,1,8,0:0:0:0:
290,286,75904,6,0,P|296:184|304:88,1,198.000006042481,6|8,1:2|0:0,0:0:0:0:
187,3,76399,2,0,P|98:20|112:108,1,198.000006042481,2|0,0:0|1:0,0:0:0:0:
216,108,76893,1,8,0:0:0:0:
216,108,77058,1,0,0:0:0:0:
97,203,77223,6,0,P|48:194|-2:187,1,99.0000030212403,2|0,1:2|1:0,0:0:0:0:
192,270,77553,2,0,P|241:276|289:285,1,99.0000030212403,8|0,0:0|2:0,0:0:0:0:
426,219,77882,1,2,1:2:0:0:
351,351,78047,1,0,1:0:0:0:
325,202,78212,1,8,0:0:0:0:
440,301,78377,1,0,0:0:0:0:
467,124,78542,6,0,P|406:65|298:94,1,198.000006042481,2|8,1:2|0:0,0:0:0:0:
303,88,79036,1,0,0:0:0:0:
180,29,79201,2,0,P|188:77|194:126,1,99.0000030212403,2|0,1:2|1:0,0:0:0:0:
361,249,79531,2,0,P|367:199|375:151,1,99.0000030212403,8|0,0:0|1:0,0:0:0:0:
426,70,79778,5,0,1:0:0:0:
426,70,79860,2,0,B|396:41|360:43|360:43|344:82|292:89,2,148.50000453186,6|4|4,1:2|1:2|1:2,0:0:0:0:
459,218,80520,1,2,1:2:0:0:
276,200,80685,1,0,1:0:0:0:
276,200,80767,1,0,1:0:0:0:
276,200,80849,2,0,P|284:248|290:297,1,99.0000030212403,8|2,0:0|0:0,0:0:0:0:
83,183,81179,6,0,P|123:123|194:125,1,148.50000453186,6|0,1:2|2:0,0:0:0:0:
204,136,81509,1,8,0:0:0:0:
115,278,81674,2,0,P|69:271|13:266,1,99.0000030212403,2|2,0:0|1:2,0:0:0:0:
71,86,82003,1,0,1:0:0:0:
71,86,82086,1,0,1:0:0:0:
71,86,82168,1,8,0:0:0:0:
182,211,82333,1,0,1:0:0:0:
83,183,82498,5,10,0:0:0:0:
204,136,82663,1,10,0:0:0:0:
330,87,82827,1,10,0:0:0:0:
170,343,83322,5,2,0:0:0:0:
170,343,83487,2,0,L|180:222,1,121.499996292114,8|0,0:0|2:0,0:0:0:0:
175,128,83816,6,0,P|225:208|319:200,1,198.000006042481,6|8,1:2|0:0,0:0:0:0:
408,76,84311,1,0,0:0:0:0:
262,34,84476,2,0,B|247:82|247:82|267:138,1,99.0000030212403,2|0,1:2|1:0,0:0:0:0:
402,169,84805,1,8,0:0:0:0:
260,259,84970,6,0,L|113:232,1,148.50000453186,0|0,1:0|2:0,0:0:0:0:
102,230,85300,1,2,0:0:0:0:
219,342,85465,1,8,0:0:0:0:
167,141,85630,2,0,B|56:161|116:223|9:246,1,198.000006042481,2|0,1:2|1:0,0:0:0:0:
103,43,86124,1,10,0:0:0:0:
139,50,86207,1,8,0:0:0:0:
175,58,86289,1,8,0:0:0:0:
211,66,86371,1,8,0:0:0:0:
248,73,86454,6,0,L|438:51,2,180,4|8|2,1:2|0:0|1:2,0:0:0:0:
190,222,87278,1,0,1:0:0:0:
277,249,87443,2,0,P|283:206|260:168,1,90,8|0,0:0|2:0,0:0:0:0:
208,311,87772,5,2,1:2:0:0:
365,273,87937,1,0,1:0:0:0:
197,314,88102,1,8,0:0:0:0:
357,363,88267,2,0,P|360:318|365:273,1,90,2|0,0:0|1:2,0:0:0:0:
432,114,88597,1,0,1:0:0:0:
451,221,88761,1,8,0:0:0:0:
346,175,88926,1,0,1:0:0:0:
346,175,89009,1,0,1:0:0:0:
346,175,89091,6,0,B|243:156|268:227|162:210,1,180,4|8,1:2|0:0,0:0:0:0:
48,163,89586,1,0,0:0:0:0:
135,60,89750,2,0,P|130:102|125:153,1,90,2|0,1:2|1:0,0:0:0:0:
111,285,90080,1,8,0:0:0:0:
111,285,90245,1,0,0:0:0:0:
261,240,90410,6,0,P|264:196|244:156,2,90,2|2|8,1:2|1:2|0:0,0:0:0:0:
220,362,90904,2,0,P|273:318|379:336,1,180,0|4,1:0|1:2,0:0:0:0:
462,383,91399,1,8,0:0:0:0:
477,251,91564,1,0,1:0:0:0:
477,251,91646,1,0,1:0:0:0:
477,251,91729,6,0,L|483:160,1,90,4|0,1:2|2:0,0:0:0:0:
356,218,92058,6,0,L|344:116,1,99.0000030212403,8|0,0:0|1:0,0:0:0:0:
227,231,92388,6,0,L|197:128,1,107.999996704102,2|0,1:2|1:0,0:0:0:0:
196,127,92635,1,0,1:0:0:0:
196,127,92718,1,8,0:0:0:0:
295,313,92882,6,0,P|210:334|139:283,1,180,2|0,1:2|1:0,0:0:0:0:
119,189,93377,1,8,0:0:0:0:
119,189,93459,1,0,1:0:0:0:
119,189,93542,1,0,1:0:0:0:
216,53,93707,1,2,1:2:0:0:
305,204,93871,1,0,1:0:0:0:
305,204,93954,1,0,1:0:0:0:
305,204,94036,2,0,L|365:194,3,45,8|8|8|8,0:0|0:0|0:0|0:0,0:0:0:0:
386,115,94366,6,0,B|319:127|319:127|288:173|288:173|214:186,1,198.000006042481,4|8,1:2|0:0,0:0:0:0:
367,312,94860,1,0,1:0:0:0:
367,312,94943,1,0,1:0:0:0:
367,312,95025,2,0,B|381:274|381:274|368:205,1,99.0000030212403,2|0,1:2|1:0,0:0:0:0:
487,298,95355,1,8,0:0:0:0:
292,252,95520,6,0,P|225:268|193:345,1,148.50000453186,4|0,1:2|2:0,0:0:0:0:
194,346,95849,2,0,P|136:355|66:296,1,148.50000453186,8|0,0:0|2:0,0:0:0:0:
66,288,96179,1,8,0:0:0:0:
214,186,96344,1,2,1:2:0:0:
214,186,96674,2,0,L|203:51,1,135,8|0,0:0|2:0,0:0:0:0:
221,31,97003,6,0,P|259:37|289:74,1,67.5000025749208,4|0,1:2|2:0,0:0:0:0:
366,143,97333,2,0,P|341:172|294:180,1,67.5000025749208,2|0,1:2|2:0,0:0:0:0:
221,112,97663,1,0,1:2:0:0:
221,112,97827,1,0,0:0:0:0:
250,262,97992,1,2,1:2:0:0:
250,262,98157,1,0,0:0:0:0:
140,180,98322,6,0,B|104:177|78:205|93:210|65:247|3:234,1,135.000005149842,0|2,1:2|1:2,0:0:0:0:
108,347,98816,2,0,P|147:336|187:331,1,67.5000025749208,2|0,0:0|1:0,0:0:0:0:
250,262,99146,2,0,P|209:256|170:246,1,67.5000025749208,2|0,0:0|1:2,0:0:0:0:
291,165,99476,2,0,P|336:197|340:224,1,67.5000025749208,2|0,0:0|1:0,0:0:0:0:
335,356,99805,6,0,P|307:351|257:345,2,67.5000025749208,2|2|0,0:0|1:2|0:0,0:0:0:0:
484,281,100300,1,2,1:2:0:0:
466,361,100465,1,0,0:0:0:0:
407,305,100630,1,2,1:2:0:0:
496,267,100794,6,0,L|493:193,1,67.5000025749208,0|0,0:0|1:2,0:0:0:0:
406,99,101124,1,2,0:0:0:0:
406,99,101289,1,0,1:2:0:0:
505,9,101454,2,0,P|503:49|475:79,1,67.5000025749208,2|0,0:0|1:2,0:0:0:0:
345,43,101783,1,0,1:0:0:0:
422,18,101948,1,2,1:2:0:0:
267,18,102113,6,0,B|259:54|259:54|276:91,1,67.5000025749208,8|0,0:0|2:0,0:0:0:0:
205,183,102443,1,2,0:0:0:0:
205,183,102608,2,0,P|174:178|110:172,1,67.5000025749208,0|2,1:2|0:0,0:0:0:0:
135,19,102937,2,0,P|146:48|172:106,1,67.5000025749208,0|2,1:0|0:0,0:0:0:0:
25,163,103267,2,0,P|44:138|82:86,1,67.5000025749208,2|2,1:2|0:0,0:0:0:0:
205,183,103597,6,0,P|258:237|246:284,1,101.250003862381,0|0,1:0|2:0,0:0:0:0:
182,299,103926,2,0,L|106:290,1,67.5000025749208,2|2,1:2|0:0,0:0:0:0:
0,373,104256,1,0,1:0:0:0:
8,365,104586,2,0,L|1:281,1,67.5000025749208,10|0,1:2|2:0,0:0:0:0:
34,183,104915,6,0,B|100:172|100:172|111:175|111:175|177:166,1,135.000005149842,2|2,1:2|1:2,0:0:0:0:
245,158,105410,1,2,0:0:0:0:
180,60,105575,2,0,P|140:102|175:171,1,135.000005149842,2|10,1:2|1:2,0:0:0:0:
308,258,106234,6,0,B|343:236|383:249|370:255|414:268|440:245,1,135.000005149842,2|10,1:2|1:2,0:0:0:0:
488,170,106729,1,2,0:0:0:0:
386,108,106893,2,0,L|397:175,1,67.5000025749208,0|0,1:2|1:0,0:0:0:0:
396,174,107141,1,0,1:0:0:0:
396,174,107223,1,8,0:0:0:0:
475,87,107388,1,0,1:0:0:0:
311,46,107553,5,4,1:2:0:0:
311,46,107718,2,0,L|217:54,2,90,0|8|0,0:0|0:0|0:0,0:0:0:0:
396,174,108212,2,0,L|485:181,2,90,2|0|8,1:2|1:0|0:0,0:0:0:0:
274,231,108707,1,0,0:0:0:0:
382,310,108871,5,2,1:2:0:0:
302,155,109036,2,0,P|244:153|211:182,1,90,0|8,1:0|0:0,0:0:0:0:
246,310,109366,2,0,P|276:260|268:217,1,90,2|0,1:2|2:0,0:0:0:0:
205,90,109696,1,0,1:0:0:0:
196,245,109860,1,8,0:0:0:0:
302,155,110025,1,0,0:0:0:0:
138,163,110190,5,2,1:2:0:0:
138,163,110355,2,0,L|44:167,2,90,2|8|0,0:0|0:0|0:0,0:0:0:0:
273,230,110849,2,0,P|273:275|246:310,1,90,2|0,1:2|1:0,0:0:0:0:
105,264,111179,1,8,0:0:0:0:
219,170,111344,1,0,0:0:0:0:
153,342,111509,6,0,L|137:156,1,180,2|8,1:2|0:0,0:0:0:0:
249,38,112003,1,0,1:0:0:0:
249,38,112086,1,0,1:0:0:0:
249,38,112168,1,2,1:2:0:0:
219,170,112333,1,0,1:0:0:0:
82,40,112498,1,8,0:0:0:0:
70,57,112827,6,0,B|166:27|143:106|252:73,1,180,4|8,1:2|0:0,0:0:0:0:
412,0,113322,2,0,P|369:-4|317:24,1,90,2|0,0:0|1:0,0:0:0:0:
242,75,113652,1,2,1:2:0:0:
370,174,113816,2,0,P|373:129|378:84,1,90,8|0,0:0|2:0,0:0:0:0:
467,248,114146,5,2,1:2:0:0:
368,189,114311,1,0,1:0:0:0:
293,276,114476,1,8,0:0:0:0:
450,162,114641,2,0,P|395:107|295:136,1,180,0|0,1:0|1:0,0:0:0:0:
205,294,115135,2,0,P|252:306|300:240,1,135,8|0,0:0|2:0,0:0:0:0:
231,185,115465,6,0,B|171:200|171:200|141:238|141:238|50:262,1,180,2|8,1:2|0:0,0:0:0:0:
242,75,116124,1,2,1:2:0:0:
242,75,116289,1,0,1:0:0:0:
156,28,116454,2,0,P|139:71|154:119,1,90,8|0,0:0|2:0,0:0:0:0:
300,245,116783,5,2,1:2:0:0:
350,112,116948,1,0,1:0:0:0:
350,112,117031,1,0,1:0:0:0:
350,112,117113,1,8,0:0:0:0:
231,185,117278,1,8,0:0:0:0:
315,23,117443,5,2,1:2:0:0:
315,23,117608,1,0,1:0:0:0:
427,173,117772,1,8,0:0:0:0:
427,173,117937,1,0,1:0:0:0:
289,310,118102,6,0,B|203:310|249:343|156:335,1,135.000005149842,6|0,1:2|1:2,0:0:0:0:
83,187,118597,2,0,P|147:192|178:249,1,135.000005149842,2|2,1:2|0:0,0:0:0:0:
83,335,119091,1,2,1:2:0:0:
83,335,119256,1,2,0:0:0:0:
14,223,119421,2,0,P|3:185|19:147,2,67.5000025749208,2|0|0,1:2|1:0|1:2,0:0:0:0:
178,249,119915,2,0,B|242:247|242:247|249:252|249:252|312:250,1,135.000005149842,2|2,1:2|1:2,0:0:0:0:
298,106,120410,2,0,P|291:135|281:179,1,67.5000025749208,10|2,1:2|0:0,0:0:0:0:
428,213,120740,6,0,P|404:182|358:180,1,67.5000025749208,2|0,1:2|1:0,0:0:0:0:
471,279,121069,2,0,P|500:256|506:217,1,67.5000025749208,2|8,1:2|0:0,0:0:0:0:
406,119,121399,2,0,P|381:144|381:187,1,67.5000025749208,10|0,1:2|1:0,0:0:0:0:
460,60,121729,2,0,P|435:42|391:43,1,67.5000025749208,2|10,1:2|0:0,0:0:0:0:
276,142,122058,1,2,1:2:0:0:
275,0,122223,2,0,L|276:75,1,67.5000025749208,0|12,1:0|1:2,0:0:0:0:
115,142,122553,1,2,1:2:0:0:
115,142,122635,1,0,1:2:0:0:
115,142,122718,6,0,L|84:145,14,16.8750006437302,2|0|0|0|0|0|0|0|10|0|0|0|0|0|0,1:2|0:0|0:0|0:0|1:0|1:0|1:0|1:0|1:2|0:0|0:0|1:0|1:0|1:0|1:0,0:0:0:0:
193,106,123377,6,0,P|200:149|167:208,1,90,4|0,1:2|1:0,0:0:0:0:
96,242,123707,1,8,0:0:0:0:
165,292,123871,2,0,P|124:276|89:218,1,90,2|2,0:0|1:2,0:0:0:0:
278,205,124201,2,0,P|274:243|268:307,1,90,2|8,1:2|0:0,0:0:0:0:
407,344,124531,6,0,L|450:325,2,45,0|0|2,1:0|1:0|1:2,0:0:0:0:
432,216,124860,2,0,P|381:231|370:279,1,90,2|8,1:2|0:0,0:0:0:0:
333,120,125190,2,0,P|318:115|289:111,1,45,0|0,1:0|1:0,0:0:0:0:
382,63,125355,2,0,P|440:60|481:47,1,90,2|0,1:2|1:0,0:0:0:0:
301,0,125685,2,0,P|257:10|212:11,1,90,8|0,0:0|1:0,0:0:0:0:
62,118,126014,5,6,1:2:0:0:
51,0,126179,2,0,L|55:45,2,45,0|0|0,1:0|1:0|1:0,0:0:0:0:
128,167,126509,2,0,P|171:165|204:129,1,90,8|2,0:0|1:2,0:0:0:0:
202,132,126756,1,0,1:0:0:0:
202,132,126838,1,0,1:0:0:0:
279,234,127003,1,8,0:0:0:0:
279,234,127086,1,0,1:0:0:0:
279,234,127168,2,0,P|278:263|266:287,1,45,0|0,1:0|1:0,0:0:0:0:
97,253,127333,6,0,L|198:248,1,90,2|8,1:2|0:0,0:0:0:0:
186,248,127580,1,0,1:0:0:0:
186,248,127663,2,0,L|189:292,3,45,0|0|0|0,1:2|1:0|1:0|1:0,0:0:0:0:
196,369,127992,1,10,0:0:0:0:
348,353,128157,1,8,0:0:0:0:
372,336,128240,1,8,0:0:0:0:
388,311,128322,1,10,0:0:0:0:
395,282,128404,1,8,0:0:0:0:
392,252,128487,1,8,0:0:0:0:
379,226,128569,1,8,0:0:0:0:
360,212,128652,6,0,P|367:136|379:52,1,148.50000453186,6|0,1:2|2:0,0:0:0:0:
381,50,128981,1,8,0:0:0:0:
451,145,129146,1,0,0:0:0:0:
293,77,129311,2,0,P|251:84|212:130,1,99.0000030212403,2|0,1:2|1:0,0:0:0:0:
205,281,129641,2,0,P|196:213|128:217,1,148.50000453186,10|0,0:0|1:0,0:0:0:0:
119,231,129970,5,2,1:2:0:0:
284,312,130135,2,0,L|333:318,2,49.5000015106202,0|0|8,1:0|1:0|0:0,0:0:0:0:
191,379,130465,2,0,L|205:281,1,99.0000030212403,2|0,1:2|2:0,0:0:0:0:
35,193,130794,2,0,L|49:290,1,99.0000030212403,0|8,1:0|0:0,0:0:0:0:
214,124,131124,1,0,0:0:0:0:
160,42,131289,6,0,P|115:124|166:210,1,198.000006042481,2|8,1:2|0:0,0:0:0:0:
312,133,131783,1,0,0:0:0:0:
312,133,131948,2,0,L|210:123,1,99.0000030212403,2|0,1:2|1:0,0:0:0:0:
342,230,132278,2,0,B|403:220|403:220|427:227|427:227|488:218,1,148.50000453186,10|0,0:0|2:0,0:0:0:0:
385,307,132608,6,0,P|334:320|286:294,1,99.0000030212403,2|0,1:2|1:0,0:0:0:0:
265,219,132855,2,0,L|314:225,1,49.5000015106202,0|8,1:0|0:0,0:0:0:0:
174,305,133102,2,0,L|161:204,1,99.0000030212403,0|2,1:0|1:2,0:0:0:0:
288,14,133432,2,0,L|301:115,1,99.0000030212403,0|8,1:0|0:0,0:0:0:0:
497,174,133761,5,0,1:0:0:0:
497,174,133844,1,0,1:0:0:0:
497,174,133926,2,0,B|387:161|427:239|308:225,1,198.000006042481,6|8,1:2|0:0,0:0:0:0:
191,139,134421,1,0,0:0:0:0:
288,14,134586,2,0,P|299:66|301:115,1,99.0000030212403,2|0,1:2|1:0,0:0:0:0:
29,172,134915,2,0,P|101:154|174:140,1,148.50000453186,10|0,0:0|2:0,0:0:0:0:
191,139,135245,5,2,1:2:0:0:
269,223,135410,2,0,P|234:257|186:266,1,99.0000030212403,0|8,1:0|0:0,0:0:0:0:
302,112,135740,2,0,P|349:125|380:162,1,99.0000030212403,2|2,0:0|1:2,0:0:0:0:
191,139,136069,2,0,P|178:91|194:45,1,99.0000030212403,0|8,1:0|0:0,0:0:0:0:
298,1,136399,1,0,0:0:0:0:
430,99,136564,6,0,P|348:95|309:201,1,198.000006042481,2|8,1:2|0:0,0:0:0:0:
457,314,137058,1,0,1:0:0:0:
457,314,137141,1,0,1:0:0:0:
457,314,137223,2,0,B|469:266|469:266|453:218,1,99.0000030212403,2|0,1:2|1:0,0:0:0:0:
264,282,137553,2,0,L|362:273,1,99.0000030212403,8|0,0:0|2:0,0:0:0:0:
195,352,137882,5,2,1:2:0:0:
195,352,138047,1,0,1:0:0:0:
170,237,138212,2,0,L|182:335,1,99.0000030212403,8|0,0:0|2:0,0:0:0:0:
305,189,138542,2,0,L|317:90,1,99.0000030212403,2|0,1:2|1:0,0:0:0:0:
197,9,138871,1,8,0:0:0:0:
161,6,138954,1,8,0:0:0:0:
127,20,139036,1,8,0:0:0:0:
104,48,139119,1,8,0:0:0:0:
99,85,139201,6,0,P|92:156|-1:123,1,198.000006042481,6|8,1:2|0:0,0:0:0:0:
23,262,139696,1,0,1:0:0:0:
23,262,139778,1,0,1:0:0:0:
23,262,139860,2,0,B|65:280|108:263|99:252|137:238|188:259,1,148.50000453186,2|0,1:2|2:0,0:0:0:0:
237,279,140190,2,0,P|243:235|212:191,1,99.0000030212403,8|0,0:0|2:0,0:0:0:0:
342,61,140520,6,0,B|287:93|299:152|299:152|333:192|324:242,1,198.000006042481,2|8,1:2|0:0,0:0:0:0:
489,287,141014,1,0,1:0:0:0:
325,234,141179,1,2,1:2:0:0:
424,372,141344,1,0,1:0:0:0:
425,197,141509,1,8,0:0:0:0:
325,344,141674,1,0,0:0:0:0:
261,192,141838,6,0,B|235:175|257:121|323:100|370:181|309:260,2,198.000006042481,2|8|2,1:2|0:0|1:2,0:0:0:0:
202,280,142663,1,0,1:0:0:0:
202,280,142827,2,0,P|150:270|94:261,1,99.0000030212403,8|0,0:0|2:0,0:0:0:0:
75,89,143157,6,0,P|26:116|25:180,1,99.0000030212403,2|0,1:2|1:0,0:0:0:0:
16,154,143404,1,0,1:0:0:0:
16,154,143487,1,8,0:0:0:0:
194,118,143652,2,0,P|187:97|183:53,2,49.5000015106202,0|0|2,1:0|1:0|1:2,0:0:0:0:
332,44,143981,1,0,1:0:0:0:
332,44,144064,1,0,1:0:0:0:
332,44,144146,2,0,P|317:83|306:140,1,99.0000030212403,8|0,0:0|2:0,0:0:0:0:
429,252,144476,6,0,B|408:214|346:213|346:213|293:239|246:195,1,198.000006042481,6|8,1:2|0:0,0:0:0:0:
164,352,144970,1,0,1:0:0:0:
164,352,145053,1,0,1:0:0:0:
164,352,145135,2,0,P|214:340|266:330,1,99.0000030212403,2|0,1:2|1:0,0:0:0:0:
441,354,145465,1,8,0:0:0:0:
441,354,145630,1,2,0:0:0:0:
342,204,145794,6,0,P|308:195|239:190,1,99.0000030212403,0|0,1:0|1:0,0:0:0:0:
119,51,146124,2,0,P|153:60|222:65,1,99.0000030212403,8|0,0:0|1:0,0:0:0:0:
310,14,146454,2,0,P|301:48|296:117,1,99.0000030212403,2|0,1:2|1:0,0:0:0:0:
157,237,146783,2,0,P|166:203|171:134,1,99.0000030212403,8|0,0:0|2:0,0:0:0:0:
42,15,147113,6,0,P|4:36|23:100,1,99.0000030212403,6|0,1:2|1:0,0:0:0:0:
132,180,147443,1,8,0:0:0:0:
132,180,147608,1,0,1:0:0:0:
160,0,147772,2,0,L|143:108,2,99.0000030212403,10|0|8,1:2|1:0|0:0,0:0:0:0:
318,160,148267,6,0,B|382:131|423:160|412:172|458:201|510:168,1,198.000006042481,6|2,1:2|1:2,0:0:0:0:
359,251,148761,2,0,L|353:311,3,49.5000015106202,8|8|8|8,0:0|0:0|0:0|0:0,0:0:0:0:
248,359,149091,2,0,P|222:351|204:333,1,49.5000015106202,10|8,1:2|0:0,0:0:0:0:
274,223,149256,2,0,P|280:249|273:274,1,49.5000015106202,8|8,0:0|0:0,0:0:0:0:
180,254,149421,1,8,0:0:0:0:
180,254,149503,1,8,0:0:0:0:
180,254,149586,1,8,0:0:0:0:
180,254,149668,1,8,0:0:0:0:
180,254,149750,6,0,P|125:239|32:226,1,148.50000453186,6|0,1:2|2:0,0:0:0:0:
0,156,150080,2,0,P|48:145|96:134,1,99.0000030212403,8|2,0:0|0:0,0:0:0:0:
254,154,150410,1,2,1:2:0:0:
254,154,150575,1,0,1:0:0:0:
252,27,150740,2,0,P|183:33|176:101,1,148.50000453186,10|0,0:0|1:0,0:0:0:0:
254,154,151069,6,0,P|302:144|351:137,1,99.0000030212403,2|0,1:2|1:0,0:0:0:0:
424,157,151316,2,0,P|428:132|432:108,1,49.5000015106202,0|8,1:0|0:0,0:0:0:0:
321,248,151564,2,0,P|328:296|337:345,1,99.0000030212403,2|2,0:0|1:2,0:0:0:0:
133,257,151893,2,0,P|181:248|230:241,1,99.0000030212403,0|8,1:0|0:0,0:0:0:0:
230,241,152223,1,0,0:0:0:0:
83,149,152388,6,0,P|19:221|32:316,1,198.000006042481,2|8,1:2|0:0,0:0:0:0:
161,353,152882,1,0,0:0:0:0:
230,241,153047,2,0,L|132:256,1,99.0000030212403,2|0,1:2|1:0,0:0:0:0:
324,360,153377,2,0,B|335:257|335:257|300:285,1,148.50000453186,10|0,0:0|2:0,0:0:0:0:
295,294,153707,5,2,1:2:0:0:
453,323,153871,1,0,1:0:0:0:
453,323,153954,1,0,1:0:0:0:
453,323,154036,1,8,0:0:0:0:
391,163,154201,2,0,P|341:157|298:178,1,99.0000030212403,2|0,1:2|2:0,0:0:0:0:
202,309,154531,2,0,P|251:314|294:293,1,99.0000030212403,0|8,1:0|0:0,0:0:0:0:
281,99,154860,1,0,0:0:0:0:
191,217,155025,6,0,B|78:242|114:162|0:187,1,198.000006042481,6|8,1:2|0:0,0:0:0:0:
83,297,155520,1,0,0:0:0:0:
156,135,155685,2,0,B|168:86|168:86|143:44,1,99.0000030212403,2|0,1:2|1:0,0:0:0:0:
298,178,156014,2,0,B|381:151|366:207|446:182,1,148.50000453186,10|0,0:0|2:0,0:0:0:0:
455,174,156344,1,2,1:2:0:0:
333,262,156509,6,0,P|332:310|360:350,1,99.0000030212403,0|8,1:0|0:0,0:0:0:0:
282,170,156838,2,0,P|239:193|218:237,1,99.0000030212403,2|0,1:2|2:0,0:0:0:0:
335,78,157168,2,0,P|293:52|244:56,1,99.0000030212403,2|8,1:2|0:0,0:0:0:0:
167,119,157498,1,2,0:0:0:0:
389,161,157663,6,0,L|485:140,1,99.0000030212403,2|0,1:2|2:0,0:0:0:0:
218,237,157992,2,0,L|121:257,1,99.0000030212403,12|0,0:0|2:0,0:0:0:0:
282,170,158322,1,2,1:2:0:0:
195,332,158487,1,0,1:0:0:0:
166,151,158652,2,0,P|159:98|151:48,1,99.0000030212403,8|8,0:0|1:2,0:0:0:0:
72,28,158981,5,2,1:2:0:0:
246,67,159146,1,8,0:0:0:0:
77,154,159311,5,8,0:0:0:0:
247,53,159476,1,0,1:0:0:0:
179,222,159641,6,0,L|171:173,3,49.5000015106202,10|8|8|8,1:2|0:0|0:0|0:0,0:0:0:0:
326,103,159970,2,0,L|318:151,3,49.5000015106202,8|8|8|8,0:0|0:0|0:0|0:0,0:0:0:0:
397,257,160300,6,0,P|465:270|482:160,1,198.000006042481,6|8,1:2|0:0,0:0:0:0:
435,363,160794,2,0,B|382:369|333:330|355:325|311:286|248:297,1,198.000006042481,0|0,1:0|1:0,0:0:0:0:
101,332,161289,1,8,0:0:0:0:
101,332,161454,1,0,0:0:0:0:
182,210,161619,6,0,P|178:248|174:316,1,99.0000030212403,2|0,1:2|1:0,0:0:0:0:
81,148,161948,2,0,P|85:110|89:42,1,99.0000030212403,8|2,0:0|1:2,0:0:0:0:
279,80,162278,1,0,0:0:0:0:
159,118,162443,1,0,1:0:0:0:
206,25,162608,1,8,0:0:0:0:
278,172,162772,1,0,0:0:0:0:
381,21,162937,6,0,P|468:42|451:144,1,198.000006042481,2|8,1:2|0:0,0:0:0:0:
462,134,163432,1,0,0:0:0:0:
415,301,163597,2,0,P|463:293|512:287,1,99.0000030212403,2|0,1:2|1:0,0:0:0:0:
291,183,163926,2,0,P|241:177|193:168,1,99.0000030212403,8|0,0:0|1:0,0:0:0:0:
116,141,164174,5,0,1:0:0:0:
116,141,164256,2,0,B|94:179|111:216|124:210|147:242|133:293,2,148.50000453186,6|4|4,1:2|1:2|1:2,0:0:0:0:
219,84,164915,1,2,1:2:0:0:
114,14,165080,1,0,1:0:0:0:
114,14,165163,1,0,1:0:0:0:
114,14,165245,2,0,P|66:6|17:0,1,99.0000030212403,8|8,0:0|0:0,0:0:0:0:
116,141,165575,6,0,P|190:144|219:79,1,148.50000453186,6|0,1:2|2:0,0:0:0:0:
207,75,165904,1,8,0:0:0:0:
317,196,166069,2,0,P|363:189|419:184,1,99.0000030212403,0|2,1:0|1:2,0:0:0:0:
212,324,166399,1,0,1:0:0:0:
212,324,166481,1,0,1:0:0:0:
212,324,166564,1,8,0:0:0:0:
116,141,166729,1,0,1:0:0:0:
59,261,166893,5,10,0:0:0:0:
184,229,167058,1,10,0:0:0:0:
317,196,167223,1,10,0:0:0:0:
472,43,167718,5,2,1:2:0:0:
472,43,167882,2,0,P|470:76|462:164,1,121.499996292114,8|0,0:0|0:0,0:0:0:0:
474,252,168212,6,0,B|425:256|367:227|417:210|357:165|293:173,1,198.000006042481,6|8,1:2|0:0,0:0:0:0:
169,273,168707,1,0,1:0:0:0:
307,359,168871,2,0,L|304:245,1,99.0000030212403,10|0,1:2|1:0,0:0:0:0:
302,172,169201,1,8,0:0:0:0:
189,32,169366,6,0,B|146:82|146:82|174:164,1,148.50000453186,14|0,0:0|2:0,0:0:0:0:
178,178,169696,1,0,1:0:0:0:
338,98,169860,2,0,L|339:-6,1,99.0000030212403,8|8,0:0|0:0,0:0:0:0:
454,149,170190,1,2,1:2:0:0:
473,51,170355,1,8,0:0:0:0:
375,215,170520,1,8,0:0:0:0:
338,98,170685,1,8,0:0:0:0:
290,275,170849,6,0,P|205:258|177:177,1,180,4|8,1:2|0:0,0:0:0:0:
388,242,171344,1,0,1:0:0:0:
388,242,171426,1,0,1:0:0:0:
388,242,171509,2,0,P|384:293|382:340,1,90,2|0,1:2|1:0,0:0:0:0:
264,193,171838,2,0,P|261:148|258:103,1,90,8|0,0:0|2:0,0:0:0:0:
74,291,172168,6,0,P|131:257|196:267,1,135,2|0,1:2|2:0,0:0:0:0:
207,275,172498,2,0,P|203:326|201:373,1,90,8|0,0:0|1:0,0:0:0:0:
264,193,172827,2,0,P|221:176|166:182,1,90,2|0,1:2|1:0,0:0:0:0:
388,242,173157,2,0,P|429:258|474:256,1,90,8|0,0:0|1:0,0:0:0:0:
446,168,173404,1,0,1:0:0:0:
440,175,173487,6,0,P|434:265|430:367,1,180,4|8,1:2|0:0,0:0:0:0:
264,193,173981,1,2,0:0:0:0:
237,325,174146,2,0,P|281:316|325:308,1,90,0|2,1:2|1:2,0:0:0:0:
251,185,174476,2,0,P|206:176|162:168,1,90,8|0,0:0|2:0,0:0:0:0:
44,216,174805,5,2,1:2:0:0:
146,182,174970,1,0,1:0:0:0:
152,76,175135,1,8,0:0:0:0:
71,8,175300,2,0,B|133:21|133:21|168:57|168:57|241:66,1,180,6|0,1:2|1:0,0:0:0:0:
379,12,175794,2,0,P|329:-1|287:17,1,90,8|0,0:0|1:0,0:0:0:0:
338,80,176042,5,0,1:0:0:0:
338,80,176124,2,0,P|429:88|489:31,1,180,4|8,1:2|0:0,0:0:0:0:
412,204,176619,2,0,P|371:184|327:177,1,90,2|2,0:0|1:2,0:0:0:0:
236,227,176948,1,0,1:0:0:0:
328,358,177113,2,0,P|337:297|344:262,1,90,8|0,0:0|2:0,0:0:0:0:
248,134,177443,1,2,1:2:0:0:
248,134,177608,1,0,1:0:0:0:
92,254,177772,6,0,P|157:238|223:225,1,135,8|0,0:0|2:0,0:0:0:0:
235,226,178102,2,0,P|227:270|221:315,1,90,2|0,1:2|1:0,0:0:0:0:
352,168,178432,2,0,P|345:123|337:79,1,90,8|0,0:0|2:0,0:0:0:0:
408,5,178761,6,0,P|331:49|244:36,1,180,2|8,1:2|0:0,0:0:0:0:
244,36,179256,1,0,0:0:0:0:
52,78,179421,2,0,L|139:98,1,90,2|0,1:2|1:0,0:0:0:0:
235,226,179750,2,0,L|147:205,1,90,8|0,0:0|2:0,0:0:0:0:
75,285,180080,5,2,1:2:0:0:
139,98,180245,2,0,L|154:45,2,45,0|0|8,1:0|1:0|0:0,0:0:0:0:
230,230,180575,6,0,P|325:278|363:163,1,233.999989288331,6|0,1:2|1:0,0:0:0:0:
277,34,181069,2,0,L|287:123,1,90,8|8,0:0|0:0,0:0:0:0:
287,123,181316,1,8,0:0:0:0:
287,123,181399,6,0,P|223:146|183:82,1,135,6|0,1:2|2:0,0:0:0:0:
145,41,181729,2,0,P|142:77|134:131,1,90,8|0,0:0|2:0,0:0:0:0:
121,272,182058,2,0,P|121:232|78:205,1,90,2|0,1:2|1:0,0:0:0:0:
7,213,182388,1,8,0:0:0:0:
50,328,182553,6,0,B|92:285|148:307|148:307|161:350|199:364,1,180,2|0,0:0|1:0,0:0:0:0:
322,336,183047,1,8,0:0:0:0:
315,350,183212,1,0,1:0:0:0:
242,199,183377,2,0,P|236:244|231:295,1,90,2|0,1:2|2:0,0:0:0:0:
456,190,183707,6,0,P|434:156|369:145,1,101.250003862381,8|0,0:0|2:0,0:0:0:0:
342,232,184036,6,0,B|388:252|441:220|419:212|460:185|512:202,1,180,2|8,1:2|0:0,0:0:0:0:
436,14,184696,1,2,1:2:0:0:
370,160,184860,1,0,1:0:0:0:
340,0,185025,1,8,0:0:0:0:
462,107,185190,1,0,0:0:0:0:
299,86,185355,6,0,P|255:56|246:13,1,90,2|0,1:2|1:0,0:0:0:0:
156,139,185685,2,0,B|135:137|135:137|163:116|197:123|197:123|219:151|255:156,1,135,8|0,0:0|2:0,0:0:0:0:
235,151,186014,1,2,1:2:0:0:
278,219,186179,1,0,1:0:0:0:
239,290,186344,1,8,0:0:0:0:
158,285,186509,1,0,1:0:0:0:
83,182,186674,5,4,1:2:0:0:
137,366,186838,1,0,1:0:0:0:
156,139,187003,5,8,0:0:0:0:
80,308,187168,1,0,1:0:0:0:
87,103,187333,5,2,1:2:0:0:
158,285,187498,1,8,0:0:0:0:
173,275,187580,1,8,0:0:0:0:
189,267,187663,1,8,0:0:0:0:
362,251,187827,6,0,B|326:244|315:211|315:211|292:178|236:183,1,135,6|0,1:2|2:0,0:0:0:0:
360,115,188157,2,0,B|321:109|298:143|298:143|287:175|253:182,1,135,2|0,1:2|2:0,0:0:0:0:
236,182,188487,1,2,1:2:0:0:
112,129,188652,1,2,1:2:0:0:
189,267,188816,1,0,1:0:0:0:
225,103,188981,6,0,P|189:80|113:96,1,101.250003862381,8|0,0:0|2:0,0:0:0:0:
112,129,189311,2,0,P|114:96|117:34,1,90,2|0,1:2|2:0,0:0:0:0:
324,14,189641,1,8,0:0:0:0:
225,103,189805,1,0,1:0:0:0:
219,3,189970,1,2,1:2:0:0:
337,146,190135,1,0,1:2:0:0:
337,146,190218,1,0,1:2:0:0:
337,146,190300,2,0,P|365:136|389:137,1,45,8|0,1:2|1:2,0:0:0:0:
448,83,190465,6,0,P|399:117|414:200,1,135,6|0,1:2|2:0,0:0:0:0:
416,199,190794,1,8,0:0:0:0:
330,296,190959,1,8,0:0:0:0:
326,278,191042,1,0,1:0:0:0:
329,260,191124,1,0,1:0:0:0:
496,218,191289,5,10,1:2:0:0:
496,218,191371,1,8,0:0:0:0:
389,377,191536,1,8,0:0:0:0:
362,370,191619,1,8,0:0:0:0:
335,363,191701,2,0,L|328:281,1,67.5,8|6,0:0|1:2,0:0:0:0:
205,222,199860,6,0,L|214:288,1,67.5,2|0,0:0|2:0,0:0:0:0:
220,311,200190,6,0,L|233:176,1,135,14|0,0:0|2:0,0:0:0:0:
241,90,200499,6,0,P|270:96|295:114,1,60,14|0,0:0|0:0,0:0:0:0:
218,15,200718,6,0,P|190:28|171:50,1,60,14|0,0:0|0:0,0:0:0:0:
93,33,200938,6,0,P|90:62|100:90,1,60,14|0,0:0|0:0,0:0:0:0:
112,198,201178,6,0,P|66:168|8:169,1,90,14|8,0:0|0:0,0:0:0:0:
52,294,201507,6,0,P|50:268|45:244,3,45,8|8|8|8,0:0|0:0|0:0|0:0,0:0:0:0:
159,359,201836,6,0,B|160:337|165:315,1,45,10|8,1:2|0:0,0:0:0:0:
229,197,202001,1,8,0:0:0:0:
229,197,202084,1,8,0:0:0:0:
229,197,202166,2,0,B|250:204|270:214,1,45,8|8,0:0|0:0,0:0:0:0:
371,314,202331,1,8,0:0:0:0:
371,314,202413,1,8,0:0:0:0:
371,314,202496,6,0,P|376:280|393:249,1,67.5,2|0,1:2|2:0,0:0:0:0:
442,191,202825,6,0,P|481:244|480:318,1,135,6|0,1:2|2:0,0:0:0:0:
444,353,203155,2,0,P|446:309|473:267,1,90,2|0,1:2|1:0,0:0:0:0:
512,157,203485,2,0,P|472:177|423:174,1,90,8|0,0:0|1:0,0:0:0:0:
371,78,203732,1,0,1:0:0:0:
381,86,203815,6,0,B|359:106|365:149|396:159|396:159|418:184|415:224|415:224|404:198|384:198,1,180,2|8,1:2|0:0,0:0:0:0:
236,275,204309,1,0,1:0:0:0:
244,98,204474,1,2,1:2:0:0:
298,227,204639,1,0,1:0:0:0:
166,107,204803,1,8,0:0:0:0:
303,150,204968,1,0,1:0:0:0:
98,148,205133,6,0,B|88:134|88:113|88:113|60:131|52:183|77:211,1,135,2|0,1:2|2:0,0:0:0:0:
103,271,205463,2,0,P|93:314|87:367,1,90,8|0,0:0|2:0,0:0:0:0:
251,247,205793,2,0,P|217:210|153:218,1,90,2|0,1:2|1:0,0:0:0:0:
6,373,206122,2,0,P|49:381|87:358,1,90,8|0,0:0|2:0,0:0:0:0:
179,206,206452,6,0,P|175:264|171:341,1,135,2|0,1:2|2:0,0:0:0:0:
248,362,206782,2,0,P|300:374|328:332,1,90,8|0,0:0|1:0,0:0:0:0:
350,281,207029,1,0,1:0:0:0:
350,281,207111,2,0,P|317:278|257:268,2,90,2|0|8,1:2|1:0|0:0,0:0:0:0:
410,373,207606,1,0,0:0:0:0:
511,235,207770,6,0,B|482:271|498:309|503:302|525:344|491:386,1,135,6|0,1:2|2:0,0:0:0:0:
492,373,208100,1,8,0:0:0:0:
421,244,208265,2,0,P|400:238|320:217,1,90,2|2,0:0|1:2,0:0:0:0:
437,116,208595,2,0,P|476:119|506:160,1,90,2|8,1:2|0:0,0:0:0:0:
505,157,208924,1,0,0:0:0:0:
353,61,209089,6,0,P|352:96|354:161,1,90,2|0,1:2|1:0,0:0:0:0:
252,261,209419,2,0,P|254:230|253:161,1,90,8|0,0:0|1:0,0:0:0:0:
107,63,209749,2,0,P|151:46|204:45,1,90,2|0,1:2|1:0,0:0:0:0:
141,217,210078,2,0,P|96:214|54:197,1,90,8|0,0:0|1:0,0:0:0:0:
2,126,210325,1,0,1:0:0:0:
2,126,210408,6,0,P|50:145|15:262,1,180,6|8,1:2|0:0,0:0:0:0:
36,253,210902,1,0,1:0:0:0:
153,384,211067,1,2,1:2:0:0:
141,217,211232,1,0,1:0:0:0:
0,347,211397,1,8,0:0:0:0:
230,271,211562,6,0,B|270:249|300:264|300:264|334:250|334:250|371:262|404:238,1,180,6|0,1:2|1:0,0:0:0:0:
512,330,212056,1,8,0:0:0:0:
512,330,212139,1,8,0:0:0:0:
512,330,212221,1,8,0:0:0:0:
401,240,212386,2,0,P|406:192|443:172,1,90,2|8,1:2|0:0,0:0:0:0:
512,188,212633,1,8,0:0:0:0:
512,188,212716,1,8,0:0:0:0:
382,48,212880,1,8,0:0:0:0:
384,61,212963,1,8,0:0:0:0:
382,80,213046,6,0,B|240:62|240:62|263:77|277:104,1,198.000006042481,6|8,1:2|0:0,0:0:0:0:
130,189,213540,1,0,1:0:0:0:
130,189,213622,1,0,1:0:0:0:
130,189,213705,1,2,1:2:0:0:
304,233,213869,1,0,1:0:0:0:
226,162,214034,2,0,B|211:204|211:204|233:305,1,148.50000453186,10|0,0:0|1:0,0:0:0:0:
236,318,214364,5,2,1:2:0:0:
100,276,214529,2,0,L|53:259,2,49.5000015106202,0|0|8,1:0|1:0|0:0,0:0:0:0:
114,91,214859,2,0,P|121:138|130:191,1,99.0000030212403,2|0,1:2|2:0,0:0:0:0:
304,233,215188,2,0,P|331:193|321:135,1,99.0000030212403,0|8,1:0|0:0,0:0:0:0:
270,58,215518,1,0,0:0:0:0:
414,134,215683,5,6,1:2:0:0:
414,134,215847,1,0,0:0:0:0:
241,173,216012,2,0,B|190:162|190:162|154:177|154:177|96:168,1,148.50000453186,8|0,0:0|2:0,0:0:0:0:
83,164,216342,2,0,P|93:122|103:60,1,99.0000030212403,2|0,1:2|1:0,0:0:0:0:
39,304,216672,2,0,P|100:265|172:272,1,148.50000453186,10|0,0:0|1:0,0:0:0:0:
183,281,217001,5,2,1:2:0:0:
336,336,217166,2,0,L|392:326,2,49.5000015106202,0|0|8,1:0|1:0|0:0,0:0:0:0:
241,173,217496,1,0,1:0:0:0:
241,173,217578,1,0,1:0:0:0:
241,173,217661,2,0,P|296:183|343:190,1,99.0000030212403,2|0,1:2|1:0,0:0:0:0:
457,97,217990,1,8,0:0:0:0:
325,25,218155,1,0,0:0:0:0:
450,210,218320,6,0,P|454:157|458:111,2,99.0000030212403,4|0|8,1:2|0:0|0:0,0:0:0:0:
448,312,218814,1,0,0:0:0:0:
267,285,218980,2,0,P|314:272|363:261,1,99.0000030212403,2|0,1:2|1:0,0:0:0:0:
255,83,219309,2,0,P|188:69|109:125,1,148.50000453186,10|0,0:0|2:0,0:0:0:0:
112,120,219639,5,2,1:2:0:0:
51,266,219804,2,0,P|91:292|140:288,1,99.0000030212403,0|8,1:0|0:0,0:0:0:0:
276,186,220133,1,0,1:0:0:0:
276,186,220216,1,0,1:0:0:0:
276,186,220298,2,0,P|271:228|266:287,1,99.0000030212403,2|0,1:2|1:0,0:0:0:0:
112,120,220628,2,0,P|107:70|102:21,1,99.0000030212403,8|0,0:0|2:0,0:0:0:0:
264,88,220957,5,6,1:2:0:0:
264,88,221122,1,0,0:0:0:0:
119,202,221287,1,8,0:0:0:0:
119,202,221452,1,0,1:0:0:0:
179,23,221617,5,2,1:2:0:0:
276,186,221781,1,0,1:0:0:0:
303,0,221946,1,8,0:0:0:0:
422,83,222111,6,0,B|335:62|363:115|271:93,1,148.50000453186,12|0,0:0|2:0,0:0:0:0:
264,88,222441,1,8,0:0:0:0:
370,265,222606,2,0,P|374:215|382:166,1,99.0000030212403,8|0,0:0|1:0,0:0:0:0:
201,263,222935,5,2,1:2:0:0:
204,287,223018,1,0,1:0:0:0:
208,312,223100,1,8,0:0:0:0:
211,336,223183,1,8,0:0:0:0:
213,361,223265,2,0,P|185:363|163:355,1,49.5000015106202,8|8,0:0|0:0,0:0:0:0:
322,260,223430,2,0,P|346:257|369:264,1,49.5000015106202,8|8,0:0|0:0,0:0:0:0:
177,158,223595,6,0,L|164:359,1,198.000006042481,6|8,1:2|0:0,0:0:0:0:
56,142,224089,2,0,P|159:153|166:70,1,198.000006042481,2|0,0:0|1:0,0:0:0:0:
73,36,224584,1,8,0:0:0:0:
73,36,224748,1,0,0:0:0:0:
232,15,224914,6,0,P|281:8|329:0,1,99.0000030212403,2|0,1:2|1:0,0:0:0:0:
274,173,225243,2,0,P|225:164|176:157,1,99.0000030212403,8|0,0:0|1:0,0:0:0:0:
426,126,225573,1,2,1:2:0:0:
312,262,225738,1,0,1:0:0:0:
338,83,225902,1,8,0:0:0:0:
438,256,226067,1,0,0:0:0:0:
176,157,226232,6,0,B|132:143|79:172|69:232|69:232|95:201|124:204,1,198.000006042481,6|8,1:2|0:0,0:0:0:0:
259,331,226727,1,0,0:0:0:0:
266,102,226892,2,0,P|262:154|258:213,1,99.0000030212403,2|8,1:2|0:0,0:0:0:0:
441,345,227221,2,0,P|445:293|449:234,1,99.0000030212403,8|0,0:0|1:0,0:0:0:0:
424,162,227468,5,0,1:0:0:0:
424,162,227551,2,0,B|369:159|350:207|350:207|364:241|346:274,2,148.50000453186,6|2|2,1:2|1:2|1:2,0:0:0:0:
480,11,228210,2,0,B|503:1|526:7|549:62|526:101|476:103|452:85|459:81|430:69|395:84,1,198.000006042481,2|8,1:2|0:0,0:0:0:0:
412,78,228705,1,0,1:0:0:0:
222,18,228869,6,0,P|226:57|234:169,1,148.50000453186,4|0,1:2|2:0,0:0:0:0:
229,185,229199,1,8,0:0:0:0:
55,78,229364,2,0,P|116:74|152:119,1,99.0000030212403,2|2,1:2|1:2,0:0:0:0:
56,259,229694,1,0,1:0:0:0:
56,259,229776,1,0,1:0:0:0:
56,259,229858,1,8,0:0:0:0:
0,158,230023,1,0,1:0:0:0:
165,86,230188,5,10,0:0:0:0:
126,229,230353,1,10,0:0:0:0:
91,372,230518,1,10,0:0:0:0:
101,362,231012,5,0,1:2:0:0:
112,352,231095,1,0,1:2:0:0:
121,345,231177,2,0,P|168:343|185:274,1,121.499996292114,8|0,0:0|2:0,0:0:0:0:
97,233,231507,6,0,B|221:226|155:287|283:283,1,198.000006042481,4|8,1:2|0:0,0:0:0:0:
484,315,232001,1,0,1:0:0:0:
361,383,232166,2,0,P|362:339|364:282,1,99.0000030212403,2|0,1:2|1:0,0:0:0:0:
490,207,232496,1,8,0:0:0:0:
325,98,232661,6,0,P|387:113|386:209,1,148.50000453186,6|0,1:2|2:0,0:0:0:0:
372,198,232990,1,8,0:0:0:0:
477,80,233155,1,8,0:0:0:0:
244,13,233320,2,0,B|253:218,1,198.000006042481,2|0,0:0|1:0,0:0:0:0:
45,186,233814,1,8,0:0:0:0:
80,187,233897,1,8,0:0:0:0:
114,173,233979,1,8,0:0:0:0:
137,144,234062,1,8,0:0:0:0:
144,108,234145,6,0,P|115:51|-1:73,1,180,6|8,1:2|0:0,0:0:0:0:
32,275,234639,1,0,0:0:0:0:
32,275,234804,2,0,P|38:223|46:177,1,90,2|0,1:2|1:0,0:0:0:0:
221,264,235133,2,0,P|181:255|131:249,1,90,8|0,0:0|2:0,0:0:0:0:
274,134,235463,6,0,B|383:111|348:184|458:159,1,180,2|8,1:2|0:0,0:0:0:0:
308,223,235957,1,0,1:0:0:0:
417,86,236122,2,0,P|421:42|427:-8,1,90,2|0,1:2|1:0,0:0:0:0:
240,30,236452,2,0,P|284:33|329:41,1,90,8|0,0:0|2:0,0:0:0:0:
150,196,236782,6,0,P|105:199|60:207,1,90,2|0,1:2|2:0,0:0:0:0:
145,14,237111,2,0,P|152:62|161:106,1,90,8|0,0:0|2:0,0:0:0:0:
273,236,237441,2,0,P|266:191|257:147,1,90,2|0,1:2|1:0,0:0:0:0:
132,11,237771,2,0,P|139:59|148:103,1,90,8|0,0:0|2:0,0:0:0:0:
349,172,238100,6,0,P|404:159|409:37,1,180,2|8,1:2|0:0,0:0:0:0:
257,147,238595,1,0,0:0:0:0:
257,147,238760,2,0,B|250:192|250:192|268:249,1,90,2|0,1:2|1:0,0:0:0:0:
147,99,239089,2,0,B|66:92|92:136|12:125,1,135,8|0,0:0|2:0,0:0:0:0:
8,121,239419,6,0,P|20:211|32:300,2,180,4|8|2,1:2|0:0|1:2,0:0:0:0:
152,19,240243,1,0,1:0:0:0:
130,180,240408,2,0,P|127:224|123:269,1,90,8|0,0:0|2:0,0:0:0:0:
308,161,240738,6,0,P|259:90|175:103,1,180,2|8,1:2|0:0,0:0:0:0:
288,267,241232,1,0,1:0:0:0:
288,267,241314,1,0,1:0:0:0:
288,267,241397,2,0,P|332:256|385:249,1,90,2|0,1:2|1:0,0:0:0:0:
150,360,241727,2,0,P|154:314|155:266,1,90,8|0,0:0|2:0,0:0:0:0:
105,144,242056,5,2,1:2:0:0:
263,161,242221,2,0,L|315:167,2,45,0|0|8,1:0|1:0|0:0,0:0:0:0:
168,34,242551,5,0,1:0:0:0:
168,34,242633,1,0,1:0:0:0:
168,34,242716,2,0,L|176:91,1,45,2|0,1:2|1:0,0:0:0:0:
263,161,242880,1,0,1:0:0:0:
263,161,242963,1,0,1:0:0:0:
263,161,243045,2,0,L|271:104,1,45,8|0,0:0|1:0,0:0:0:0:
359,48,243210,2,0,L|365:92,1,45,0|0,1:0|1:0,0:0:0:0:
478,207,243375,6,0,P|435:201|396:222,1,90,2|0,1:2|1:0,0:0:0:0:
348,286,243622,1,8,0:0:0:0:
348,286,243705,2,0,P|309:307|265:300,1,90,8|8,0:0|0:0,0:0:0:0:
153,205,244034,2,0,L|139:159,2,45,10|8|8,1:2|0:0|0:0,0:0:0:0:
282,31,244364,1,8,0:0:0:0:
279,64,244446,1,8,0:0:0:0:
277,98,244529,1,8,0:0:0:0:
274,131,244611,1,8,0:0:0:0:
272,165,244694,5,6,1:2:0:0:
374,131,244858,1,0,0:0:0:0:
475,94,245023,2,0,P|473:47|387:19,1,135,12|0,0:0|2:0,0:0:0:0:
357,42,245353,2,0,P|365:74|374:135,1,90,2|0,1:2|1:0,0:0:0:0:
485,258,245683,2,0,P|491:213|501:169,1,90,8|0,0:0|2:0,0:0:0:0:
344,319,246012,6,0,B|390:291|446:315|417:326|468:359|515:334,1,180,2|8,1:2|0:0,0:0:0:0:
485,258,246507,1,0,1:0:0:0:
381,161,246672,2,0,P|350:176|349:243,1,90,2|0,1:2|1:0,0:0:0:0:
247,370,247002,2,0,P|249:335|191:301,1,90,8|0,0:0|2:0,0:0:0:0:
38,349,247331,6,0,P|84:337|145:322,1,90,6|0,1:2|1:0,0:0:0:0:
257,225,247661,2,0,P|213:214|169:202,1,90,8|0,0:0|2:0,0:0:0:0:
29,98,247990,1,10,1:2:0:0:
63,118,248073,1,8,0:0:0:0:
103,115,248155,1,8,0:0:0:0:
133,89,248238,1,8,0:0:0:0:
144,51,248320,2,0,P|141:34|116:13,1,45,8|8,0:0|0:0,0:0:0:0:
49,22,248485,1,8,0:0:0:0:
230,116,248650,6,0,B|271:116|291:86|291:86|319:104|345:97,1,112.5,6|0,1:2|2:0,0:0:0:0:
368,254,248897,6,0,B|347:218|311:216|311:216|313:182|294:163,1,112.5,0|0,1:0|2:0,0:0:0:0:
418,117,249144,6,0,B|407:134|415:150|415:150|400:158|397:171,1,56.25,0|0,1:0|1:0,0:0:0:0:
448,234,249309,1,2,1:2:0:0:
492,129,249474,1,0,1:0:0:0:
368,254,249639,1,8,0:0:0:0:
329,98,249803,1,0,1:0:0:0:
284,274,249969,6,0,P|263:272|196:260,1,90,6|8,1:2|0:0,0:0:0:0:
404,357,250298,2,0,P|448:348|492:342,1,90,8|0,0:0|1:0,0:0:0:0:
385,165,250628,2,0,P|374:208|367:253,1,90,2|0,1:2|2:0,0:0:0:0:
301,362,250958,2,0,P|294:317|283:273,1,90,8|0,0:0|1:0,0:0:0:0:
128,169,251287,5,10,0:0:0:0:
231,136,251452,1,8,1:2:0:0:
334,105,251617,1,10,0:0:0:0:
334,105,251946,5,2,1:2:0:0:
256,38,252111,1,0,1:0:0:0:
275,207,252276,2,0,B|350:191|329:227|394:214,1,121.499996292114,8|0,0:0|2:0,0:0:0:0:
430,123,252606,6,0,P|417:200|411:303,1,161.999995056153,6|8,1:2|0:0,0:0:0:0:
411,283,253100,1,2,0:0:0:0:
507,245,253265,1,2,1:2:0:0:
400,377,253430,1,0,1:0:0:0:
344,215,253595,1,8,0:0:0:0:
492,337,253759,6,0,L|493:202,1,121.499996292114,6|0,1:2|2:0,0:0:0:0:
512,198,254089,1,0,1:0:0:0:
388,64,254254,2,0,L|400:146,1,80.9999975280763,8|8,0:0|0:0,0:0:0:0:
405,162,254501,1,8,0:0:0:0:
405,162,254584,5,2,1:2:0:0:
291,121,254748,1,0,1:0:0:0:
229,205,254913,1,8,0:0:0:0:
136,187,255078,1,0,1:0:0:0:
55,331,255243,6,0,B|241:237|241:237|302:256|350:216|343:177|345:161|345:161|349:200|372:188|385:225|385:225|385:227|385:227|422:196|400:186|414:154|414:154|452:163|448:137|486:135|486:135|488:138|488:138|470:91|454:109|427:87|427:87|447:54|421:50|432:13|432:13|434:11|434:11|384:15|398:34|368:52|368:52|342:23|330:47|299:25|299:25|298:23|298:23|286:71|310:66|317:99|317:99|306:126|296:99|269:90|235:104|205:126|204:171|204:171|152:197,1,1219.05001860123,6|2,1:2|0:0,0:0:0:0:
