osu file format v14

[General]
AudioFilename: audio.mp3
AudioLeadIn: 0
PreviewTime: 43597
Countdown: 0
SampleSet: Soft
StackLeniency: 0.1
Mode: 0
LetterboxInBreaks: 0
WidescreenStoryboard: 0

[Editor]
Bookmarks: 735,12603,23152,33702,44251,54800,65350,75899,86449,96998,107548,118097,128647,139196,149745,160295,170844,181394,191943,202822,213042,223592,234141,244691,260437
DistanceSpacing: 1.2
BeatDivisor: 4
GridSize: 4
TimelineZoom: 1.6

[Metadata]
Title:Kimi ni Okuru Angel Yell
TitleUnicode:君に贈るAngel Yell
Artist:KiRaRe
ArtistUnicode:KiRaRe
Creator:Andrea
Version:Symphony
Source:Re:ステージ!プリズムステップ
Tags:_kotachi_ -Brethia MiyohashiKoori Sekaii Sekai-nyan Sekai osuplayer111 re:stage! prism step restage dream days Re:ステージ! ドリームデイズ rst japanese video game anime キラリ 式宮舞菜 Shikimiya Mana 月坂紗由 Tsukisaka Sayu 市杵島瑞葉 Ichikishima Mizuha 柊かえ Hiiragi Kae 本城香澄 Honjou Kasumi 長谷川みい Hasegawa Mii 牧野天音 Makino Amane 鬼頭明里 Kitou Akari 田澤茉純 Tazawa Masumi 立花芽恵夢 Tachibana Meemu 岩橋由佳 Iwahashi Yuka 空見ゆき Sorami Yuki
BeatmapID:3208953
BeatmapSetID:1571556

[Difficulty]
HPDrainRate:6
CircleSize:4.5
OverallDifficulty:8.5
ApproachRate:9.2
SliderMultiplier:1.6
SliderTickRate:1

[Events]
//Background and Video events
0,0,"restageextrabg.jpg",0,0
//Break Periods
//Storyboard Layer 0 (Background)
//Storyboard Layer 1 (Fail)
//Storyboard Layer 2 (Pass)
//Storyboard Layer 3 (Foreground)
//Storyboard Layer 4 (Overlay)
//Storyboard Sound Samples

[TimingPoints]
740,329.67032967033,4,2,1,60,1,0
2058,-100,4,2,3,70,0,0
2388,-100,4,2,1,70,0,0
2800,-100,4,2,1,5,0,0
2882,-100,4,2,1,70,0,0
3459,-100,4,2,1,5,0,0
3542,-100,4,2,1,70,0,0
6014,-100,4,2,3,70,0,0
6179,-100,4,2,1,70,0,0
7250,-100,4,2,1,5,0,0
7333,-100,4,2,3,70,0,0
7663,-100,4,2,1,70,0,0
9970,-100,4,2,3,70,0,0
10135,-100,4,2,1,70,0,0
11124,-100,4,2,3,70,0,0
11371,-100,4,2,1,5,0,0
11454,-100,4,2,1,70,0,0
12608,-111.111111111111,4,2,3,60,0,0
12772,-111.111111111111,4,2,1,60,0,0
23074,-111.111111111111,4,2,1,5,0,0
23157,-100,4,2,1,70,0,0
25217,-100,4,2,1,5,0,0
25300,-100,4,2,1,70,0,0
31316,-100,4,2,1,5,0,0
31399,-100,4,2,1,70,0,0
32305,-100,4,2,1,5,0,0
32388,-100,4,2,1,70,0,0
32965,-100,4,2,1,5,0,0
33047,-100,4,2,1,70,0,0
33707,-111.111111111111,4,2,2,60,0,0
37580,-111.111111111111,4,2,2,5,0,0
37663,-111.111111111111,4,2,2,60,0,0
38981,-100,4,2,3,70,0,0
39311,-100,4,2,1,70,0,0
40300,-100,4,2,3,70,0,0
40465,-100,4,2,1,70,0,0
44256,-90.9090909090909,4,2,3,80,0,1
44503,-90.9090909090909,4,2,1,5,0,1
44586,-90.9090909090909,4,2,1,80,0,1
45245,-66.6666666666667,4,2,1,80,0,1
45575,-90.9090909090909,4,2,1,80,0,1
46316,-90.9090909090909,4,2,1,5,0,1
46399,-90.9090909090909,4,2,1,80,0,1
47140,-90.9090909090909,4,2,1,5,0,1
47223,-90.9090909090909,4,2,1,80,0,1
47882,-66.6666666666667,4,2,1,80,0,1
48212,-90.9090909090909,4,2,1,80,0,1
48954,-90.9090909090909,4,2,1,5,0,1
49036,-90.9090909090909,4,2,1,80,0,1
49531,-90.9090909090909,4,2,3,80,0,1
49860,-90.9090909090909,4,2,1,80,0,1
50520,-66.6666666666667,4,2,1,80,0,1
50849,-90.9090909090909,4,2,1,80,0,1
52168,-90.9090909090909,4,2,3,80,0,1
52415,-90.9090909090909,4,2,1,5,0,1
52498,-90.9090909090909,4,2,1,80,0,1
53404,-90.9090909090909,4,2,1,5,0,1
53487,-90.9090909090909,4,2,1,80,0,1
54805,-90.9090909090909,4,2,3,80,0,1
55135,-90.9090909090909,4,2,1,80,0,1
56041,-90.9090909090909,4,2,1,5,0,1
56124,-90.9090909090909,4,2,1,80,0,1
57443,-90.9090909090909,4,2,3,80,0,1
57690,-90.9090909090909,4,2,1,5,0,1
57772,-90.9090909090909,4,2,1,80,0,1
58102,-90.9090909090909,4,2,1,80,0,1
58679,-90.9090909090909,4,2,1,5,0,1
58761,-90.9090909090909,4,2,3,80,0,1
58926,-90.9090909090909,4,2,1,80,0,1
60080,-90.9090909090909,4,2,3,80,0,1
60327,-90.9090909090909,4,2,1,5,0,1
60410,-90.9090909090909,4,2,1,80,0,1
62635,-90.9090909090909,4,2,1,5,0,1
62718,-90.9090909090909,4,2,3,80,0,1
63047,-90.9090909090909,4,2,1,80,0,1
65355,-90.9090909090909,4,2,3,80,0,1
65602,-90.9090909090909,4,2,1,5,0,1
65685,-90.9090909090909,4,2,1,80,0,1
66344,-66.6666666666667,4,2,1,80,0,1
66674,-90.9090909090909,4,2,1,80,0,1
67992,-90.9090909090909,4,2,1,80,0,1
68981,-66.6666666666667,4,2,1,80,0,1
69311,-90.9090909090909,4,2,1,80,0,1
69970,-90.9090909090909,4,2,3,80,0,1
70959,-90.9090909090909,4,2,1,80,0,1
71619,-66.6666666666667,4,2,1,80,0,1
71948,-90.9090909090909,4,2,1,80,0,1
73267,-90.9090909090909,4,2,1,80,0,1
75904,-90.9090909090909,4,2,3,80,0,1
76234,-90.9090909090909,4,2,1,80,0,1
77223,-90.9090909090909,4,2,1,80,0,1
77800,-90.9090909090909,4,2,1,5,0,1
77882,-90.9090909090909,4,2,3,80,0,1
78542,-90.9090909090909,4,2,3,80,0,1
78871,-90.9090909090909,4,2,1,80,0,1
79118,-90.9090909090909,4,2,1,5,0,1
79201,-90.9090909090909,4,2,1,80,0,1
81179,-90.9090909090909,4,2,3,80,0,1
81509,-90.9090909090909,4,2,1,80,0,1
83816,-90.9090909090909,4,2,3,80,0,1
84146,-90.9090909090909,4,2,1,80,0,1
86454,-100,4,2,1,70,0,0
86701,-100,4,2,1,5,0,0
86783,-100,4,2,1,70,0,0
87113,-100,4,2,1,70,0,0
87690,-100,4,2,1,5,0,0
87772,-100,4,2,1,70,0,0
88432,-100,4,2,1,70,0,0
89338,-100,4,2,1,5,0,0
89421,-100,4,2,1,70,0,0
90410,-100,4,2,1,70,0,0
92058,-100,4,2,1,70,0,0
93129,-100,4,2,1,5,0,0
93212,-100,4,2,1,70,0,0
95767,-100,4,2,1,5,0,0
95849,-100,4,2,1,70,0,0
96591,-100,4,2,1,5,0,0
96674,-100,4,2,1,70,0,0
96921,-100,4,2,1,5,0,0
97003,-111.111111111111,4,2,1,60,0,0
104503,-111.111111111111,4,2,1,5,0,0
104586,-111.111111111111,4,2,1,60,0,0
104833,-111.111111111111,4,2,1,5,0,0
104915,-111.111111111111,4,2,1,60,0,0
105162,-111.111111111111,4,2,1,5,0,0
105245,-111.111111111111,4,2,1,60,0,0
107553,-100,4,2,1,70,0,0
107882,-100,4,2,1,70,0,0
108871,-100,4,2,1,70,0,0
109613,-100,4,2,1,5,0,0
109696,-100,4,2,1,70,0,0
115465,-100,4,2,1,70,0,0
116124,-100,4,2,1,70,0,0
116371,-100,4,2,1,5,0,0
116454,-100,4,2,1,70,0,0
118102,-111.111111111111,4,2,2,60,0,0
122718,-111.111111111111,4,2,1,50,0,0
123377,-100,4,2,1,70,0,0
124696,-100,4,2,3,70,0,0
124860,-100,4,2,1,70,0,0
126014,-100,4,2,3,70,0,0
126179,-100,4,2,1,70,0,0
128652,-90.9090909090909,4,2,3,80,0,1
128899,-90.9090909090909,4,2,1,5,0,1
128981,-90.9090909090909,4,2,1,80,0,1
129641,-66.6666666666667,4,2,1,80,0,1
129888,-90.9090909090909,4,2,1,80,0,1
130712,-90.9090909090909,4,2,1,5,0,1
130794,-90.9090909090909,4,2,1,80,0,1
131289,-90.9090909090909,4,2,3,80,0,1
131536,-90.9090909090909,4,2,1,5,0,1
131619,-90.9090909090909,4,2,1,80,0,1
131948,-90.9090909090909,4,2,1,80,0,1
132278,-66.6666666666667,4,2,1,80,0,1
132608,-90.9090909090909,4,2,1,80,0,1
133926,-90.9090909090909,4,2,3,80,0,1
134174,-90.9090909090909,4,2,1,5,0,1
134256,-90.9090909090909,4,2,1,80,0,1
134915,-66.6666666666667,4,2,1,80,0,1
135245,-90.9090909090909,4,2,1,80,0,1
136564,-90.9090909090909,4,2,3,80,0,1
136811,-90.9090909090909,4,2,1,5,0,1
136893,-90.9090909090909,4,2,1,80,0,1
137882,-90.9090909090909,4,2,1,80,0,1
138459,-90.9090909090909,4,2,1,5,0,1
138542,-90.9090909090909,4,2,1,80,0,1
139201,-90.9090909090909,4,2,3,80,0,1
139531,-90.9090909090909,4,2,1,80,0,1
140107,-90.9090909090909,4,2,1,5,0,1
140190,-90.9090909090909,4,2,1,80,0,1
140437,-90.9090909090909,4,2,1,5,0,1
140520,-90.9090909090909,4,2,3,80,0,1
140685,-90.9090909090909,4,2,1,80,0,1
141838,-90.9090909090909,4,2,3,80,0,1
142168,-90.9090909090909,4,2,1,80,0,1
143074,-90.9090909090909,4,2,1,5,0,1
143157,-90.9090909090909,4,2,3,80,0,1
143404,-90.9090909090909,4,2,1,5,0,1
143487,-90.9090909090909,4,2,1,80,0,1
144476,-90.9090909090909,4,2,3,80,0,1
144805,-90.9090909090909,4,2,1,80,0,1
147030,-90.9090909090909,4,2,1,5,0,1
147113,-90.9090909090909,4,2,3,80,0,1
147278,-90.9090909090909,4,2,1,80,0,1
149750,-90.9090909090909,4,2,3,80,0,1
149998,-90.9090909090909,4,2,1,5,0,1
150080,-90.9090909090909,4,2,1,80,0,1
150740,-66.6666666666667,4,2,1,80,0,1
150987,-90.9090909090909,4,2,1,80,0,1
152388,-90.9090909090909,4,2,3,80,0,1
152635,-90.9090909090909,4,2,1,5,0,1
152718,-90.9090909090909,4,2,1,80,0,1
153377,-66.6666666666667,4,2,1,80,0,1
153707,-90.9090909090909,4,2,1,80,0,1
154448,-90.9090909090909,4,2,1,5,0,1
154531,-90.9090909090909,4,2,1,80,0,1
155025,-90.9090909090909,4,2,3,80,0,1
155272,-90.9090909090909,4,2,1,5,0,1
155355,-90.9090909090909,4,2,1,80,0,1
155685,-90.9090909090909,4,2,1,80,0,1
156014,-66.6666666666667,4,2,1,80,0,1
156344,-90.9090909090909,4,2,1,80,0,1
157085,-90.9090909090909,4,2,1,5,0,1
157168,-90.9090909090909,4,2,1,80,0,1
157910,-90.9090909090909,4,2,1,5,0,1
157992,-90.9090909090909,4,2,1,80,0,1
158322,-90.9090909090909,4,2,1,80,0,1
160300,-90.9090909090909,4,2,3,80,0,1
160547,-90.9090909090909,4,2,1,5,0,1
160630,-90.9090909090909,4,2,1,80,0,1
161619,-90.9090909090909,4,2,1,80,0,1
162937,-90.9090909090909,4,2,3,80,0,1
163267,-90.9090909090909,4,2,1,80,0,1
165575,-90.9090909090909,4,2,3,80,0,1
165904,-90.9090909090909,4,2,1,80,0,1
166893,-90.9090909090909,4,2,3,80,0,1
167718,-90.9090909090909,4,2,1,80,0,1
168212,-90.9090909090909,4,2,3,80,0,1
168542,-90.9090909090909,4,2,1,80,0,1
169366,-90.9090909090909,4,2,3,80,0,1
169696,-90.9090909090909,4,2,1,80,0,1
170849,-100,4,2,1,70,0,0
171096,-100,4,2,1,5,0,0
171179,-100,4,2,1,70,0,0
172085,-100,4,2,1,5,0,0
172168,-100,4,2,1,70,0,0
173816,-100,4,2,1,70,0,0
174805,-100,4,2,3,70,0,0
174970,-100,4,2,1,70,0,0
176371,-100,4,2,1,5,0,0
176454,-100,4,2,1,70,0,0
177443,-100,4,2,1,70,0,0
178019,-100,4,2,1,5,0,0
178102,-100,4,2,1,70,0,0
178761,-100,4,2,1,70,0,0
179008,-100,4,2,1,5,0,0
179091,-100,4,2,1,70,0,0
180080,-100,4,2,3,70,0,0
180245,-100,4,2,1,70,0,0
180575,-76.9230769230769,4,2,1,70,0,0
181069,-100,4,2,1,70,0,0
181399,-100,4,2,3,70,0,0
181729,-100,4,2,1,70,0,0
182718,-100,4,2,1,70,0,0
183624,-100,4,2,1,5,0,0
183707,-100,4,2,1,70,0,0
184036,-100,4,2,3,70,0,0
184366,-100,4,2,1,70,0,0
185355,-100,4,2,1,70,0,0
189311,-100,4,2,3,70,0,0
189641,-100,4,2,1,70,0,0
191948,-125,4,2,3,50,0,0
192608,-125,4,2,1,50,0,0
193267,-125,4,2,1,50,0,0
194586,-125,4,2,3,50,0,0
195245,-125,4,2,1,50,0,0
195904,-125,4,2,1,50,0,0
197223,-125,4,2,3,50,0,0
197882,-125,4,2,1,50,0,0
198542,-125,4,2,1,50,0,0
200107,-125,4,2,1,5,0,0
200190,-100,4,2,1,70,0,0
200499,329.67032967033,4,2,1,70,1,0
201178,329.67032967033,4,2,1,70,1,0
202496,-125,4,2,1,70,0,0
202743,-125,4,2,1,5,0,0
202825,-83.3333333333333,4,2,3,70,0,0
203073,-83.3333333333333,4,2,1,5,0,0
203155,-100,4,2,1,70,0,0
204061,-100,4,2,1,5,0,0
204144,-100,4,2,1,70,0,0
204391,-100,4,2,1,5,0,0
204474,-100,4,2,1,70,0,0
205380,-100,4,2,1,5,0,0
205463,-100,4,2,1,70,0,0
205792,-100,4,2,3,70,0,0
205957,-100,4,2,1,70,0,0
206369,-100,4,2,1,5,0,0
206452,-100,4,2,1,70,0,0
207770,-100,4,2,3,70,0,0
208018,-100,4,2,1,5,0,0
208100,-100,4,2,1,70,0,0
210408,-100,4,2,3,70,0,0
210573,-100,4,2,1,70,0,0
213046,-90.9090909090909,4,2,3,80,0,1
213210,-90.9090909090909,4,2,1,80,0,1
214034,-66.6666666666667,4,2,1,80,0,1
214281,-90.9090909090909,4,2,1,80,0,1
215105,-90.9090909090909,4,2,1,5,0,1
215188,-90.9090909090909,4,2,1,80,0,1
215928,-90.9090909090909,4,2,1,5,0,1
216012,-90.9090909090909,4,2,1,80,0,1
216672,-66.6666666666667,4,2,1,80,0,1
216919,-90.9090909090909,4,2,1,80,0,1
217661,-90.9090909090909,4,2,3,80,0,1
217825,-90.9090909090909,4,2,1,80,0,1
218320,-90.9090909090909,4,2,1,80,0,1
218567,-90.9090909090909,4,2,1,5,0,1
218650,-90.9090909090909,4,2,1,80,0,1
219309,-66.6666666666667,4,2,1,80,0,1
219639,-90.9090909090909,4,2,1,80,0,1
220957,-90.9090909090909,4,2,1,80,0,1
221204,-90.9090909090909,4,2,1,5,0,1
221287,-90.9090909090909,4,2,1,80,0,1
221617,-90.9090909090909,4,2,3,80,0,1
221781,-90.9090909090909,4,2,1,80,0,1
222358,-90.9090909090909,4,2,1,5,0,1
222441,-90.9090909090909,4,2,1,80,0,1
223595,-90.9090909090909,4,2,3,80,0,1
223924,-90.9090909090909,4,2,1,80,0,1
226232,-90.9090909090909,4,2,1,80,0,1
229116,-90.9090909090909,4,2,1,5,0,1
229199,-90.9090909090909,4,2,1,80,0,1
230188,-90.9090909090909,4,2,3,80,0,1
231177,-142.857142857143,4,2,1,80,0,1
231424,-142.857142857143,4,2,1,5,0,1
231507,-90.9090909090909,4,2,1,80,0,1
232908,-90.9090909090909,4,2,1,5,0,1
232990,-90.9090909090909,4,2,1,80,0,1
234145,-100,4,2,3,70,0,0
234391,-100,4,2,1,5,0,0
234474,-100,4,2,1,70,0,0
235380,-100,4,2,1,5,0,0
235463,-100,4,2,1,70,0,0
236699,-100,4,2,1,5,0,0
236781,-100,4,2,1,70,0,0
237441,-100,4,2,1,70,0,0
238677,-100,4,2,1,5,0,0
238759,-100,4,2,1,70,0,0
239419,-100,4,2,1,70,0,0
239748,-100,4,2,1,70,0,0
240985,-100,4,2,1,5,0,0
241067,-100,4,2,1,70,0,0
241974,-100,4,2,1,5,0,0
242056,-100,4,2,1,70,0,0
244034,-100,4,2,3,70,0,0
244117,-100,4,2,1,70,0,0
244694,-100,4,2,3,70,0,0
244941,-100,4,2,1,5,0,0
245023,-100,4,2,1,70,0,0
245353,-100,4,2,1,70,0,0
245930,-100,4,2,1,5,0,0
246012,-100,4,2,1,70,0,0
247990,-100,4,2,1,70,0,0
248650,-100,4,2,3,70,0,0
248897,-100,4,2,1,70,0,0
250628,-100,4,2,3,70,0,0
250875,-100,4,2,1,5,0,0
250957,-100,4,2,1,70,0,0
251864,-100,4,2,1,5,0,0
251946,-100,4,2,1,70,0,0
252523,-100,4,2,1,5,0,0
252606,-100,4,2,3,70,0,0
252935,-100,4,2,1,70,0,0
255243,-105.263157894737,4,2,3,70,0,0
255325,-105.263157894737,4,2,1,60,0,0

[Colours]
Combo1 : 85,255,255
Combo2 : 255,85,170
Combo3 : 255,255,85
SliderBorder : 229,84,127
SliderTrackOverride : 255,255,255

[HitObjects]
196,52,740,5,0,1:0:0:0:
316,52,904,2,0,P|364:52|412:104,1,120,0|8,1:0|0:0,0:0:0:0:
411,101,1234,1,8,0:0:0:0:
372,232,1399,1,0,1:0:0:0:
500,184,1564,1,0,1:0:0:0:
500,184,1646,1,0,1:0:0:0:
500,184,1729,1,8,0:0:0:0:
411,101,1893,1,8,0:0:0:0:
411,101,1976,1,8,0:0:0:0:
411,101,2058,6,0,P|426:65|411:29,1,80,6|0,1:2|2:0,0:0:0:0:
288,64,2388,1,8,0:0:0:0:
288,64,2553,2,0,B|232:48|232:88|168:64,1,120,2|0,0:0|2:0,0:0:0:0:
128,64,2882,1,2,1:2:0:0:
44,160,3047,1,8,0:0:0:0:
128,256,3212,6,0,B|168:256|192:280|192:280|244:280,1,120,2|0,0:0|2:0,0:0:0:0:
284,280,3542,1,2,0:0:0:0:
128,336,3707,1,8,0:0:0:0:
188,180,3871,2,0,P|256:144|324:180,1,160,2|0,0:0|1:0,0:0:0:0:
456,228,4366,1,8,0:0:0:0:
456,228,4531,6,0,L|488:148,1,80,2|0,0:0|1:2,0:0:0:0:
323,179,4860,2,0,L|291:259,1,80,2|8,0:0|0:0,0:0:0:0:
236,376,5190,1,2,1:2:0:0:
236,376,5272,1,2,1:2:0:0:
236,376,5355,2,0,P|192:376|164:352,1,80,2|0,1:2|1:0,0:0:0:0:
88,232,5685,1,8,0:0:0:0:
204,148,5849,5,2,1:2:0:0:
204,148,5932,1,2,1:2:0:0:
204,148,6014,2,0,P|248:148|276:172,1,80,2|0,1:2|1:0,0:0:0:0:
360,288,6344,1,8,0:0:0:0:
460,184,6509,1,0,1:0:0:0:
460,184,6591,1,0,1:0:0:0:
460,184,6674,1,2,1:2:0:0:
376,68,6838,1,0,1:0:0:0:
274,169,7003,2,0,L|152:144,1,120,8|0,0:0|2:0,0:0:0:0:
194,76,7333,6,0,L|281:95,1,80,6|0,1:2|2:0,0:0:0:0:
424,124,7663,1,8,0:0:0:0:
424,124,7827,2,0,B|410:174|366:199|366:199|349:261,1,160,2|0,0:0|1:0,0:0:0:0:
256,376,8322,1,8,0:0:0:0:
161,259,8487,2,0,B|145:199|145:199|101:174|88:124,1,160,2|0,0:0|2:0,0:0:0:0:
88,123,8981,1,8,0:0:0:0:
244,96,9146,5,2,1:2:0:0:
244,96,9229,1,2,1:2:0:0:
244,96,9311,2,0,P|204:96|172:124,1,80,2|0,1:2|1:0,0:0:0:0:
268,288,9641,2,0,P|308:288|340:260,1,80,8|0,0:0|2:0,0:0:0:0:
384,144,9970,5,2,1:2:0:0:
337,263,10135,1,0,1:0:0:0:
456,308,10300,1,8,0:0:0:0:
503,189,10465,1,0,1:0:0:0:
337,263,10630,1,10,1:2:0:0:
337,263,10794,1,0,1:0:0:0:
456,128,10959,1,8,0:0:0:0:
456,308,11124,6,0,B|416:344|416:344|348:344,1,120,10|0,1:2|2:0,0:0:0:0:
304,344,11454,1,8,1:2:0:0:
224,224,11619,1,8,0:0:0:0:
224,224,11783,1,0,1:0:0:0:
144,344,11948,2,0,B|108:361|108:361|72:344,1,80,10|0,1:2|1:0,0:0:0:0:
151,223,12278,2,0,B|187:206|187:206|223:223,1,80,8|0,0:0|1:0,0:0:0:0:
362,260,12608,5,6,1:2:0:0:
311,147,12772,1,0,0:0:0:0:
223,223,12937,2,0,L|364:261,1,143.999995605469,2|0,1:2|1:2,0:0:0:0:
490,294,13432,1,0,0:0:0:0:
451,185,13597,1,2,1:2:0:0:
362,260,13761,1,0,0:0:0:0:
451,185,13926,6,0,L|311:147,1,143.999995605469,2|2,1:2|1:2,0:0:0:0:
236,80,14421,2,0,B|149:54|182:108|81:77,1,143.999995605469,2|0,0:0|2:0,0:0:0:0:
14,143,14915,1,2,1:2:0:0:
14,143,15080,2,0,L|54:288,1,143.999995605469,0|2,0:0|0:0,0:0:0:0:
158,344,15575,1,2,1:2:0:0:
110,231,15740,1,0,0:0:0:0:
82,350,15904,1,0,1:2:0:0:
174,270,16069,1,2,0:0:0:0:
52,281,16234,1,2,1:2:0:0:
158,344,16399,6,0,B|213:335|213:335|238:318|238:318|310:309,1,143.999995605469,2|2,0:0|0:0,0:0:0:0:
390,343,16893,1,2,1:2:0:0:
390,343,17058,2,0,B|382:285|382:285|365:260|365:260|356:205,1,143.999995605469,8|2,0:0|0:0,0:0:0:0:
258,130,17553,1,2,1:2:0:0:
258,130,17718,6,0,B|267:185|267:185|284:210|284:210|291:267,1,143.999995605469,2|2,0:0|0:0,0:0:0:0:
334,112,18212,1,2,1:2:0:0:
334,112,18377,2,0,P|295:65|215:65,1,143.999995605469,2|2,0:0|0:0,0:0:0:0:
125,160,18871,1,2,1:2:0:0:
130,55,19036,1,2,0:0:0:0:
130,55,19119,1,2,0:0:0:0:
130,55,19201,2,0,L|269:137,2,143.999995605469,2|2|0,1:2|1:2|1:2,0:0:0:0:
130,55,20190,5,2,1:2:0:0:
43,105,20355,1,0,0:0:0:0:
96,196,20520,2,0,B|168:172|168:220|236:196,1,143.999995605469,0|2,1:2|1:2,0:0:0:0:
135,273,21014,1,0,0:0:0:0:
236,195,21179,6,0,B|164:171|164:219|96:195,1,143.999995605469,0|2,1:2|1:2,0:0:0:0:
236,195,21674,1,0,0:0:0:0:
320,141,21838,2,0,P|341:203|307:271,1,143.999995605469,0|2,1:2|1:2,0:0:0:0:
320,141,22333,1,0,0:0:0:0:
236,195,22498,5,2,1:2:0:0:
226,91,22663,1,0,0:0:0:0:
320,141,22827,2,0,B|387:119|373:158|435:140,1,107.999996704102,8|0,0:0|2:0,0:0:0:0:
464,140,23157,5,4,1:2:0:0:
348,216,23322,1,0,1:0:0:0:
348,216,23404,1,0,1:0:0:0:
348,216,23487,2,0,P|363:252|348:288,1,80,8|0,0:0|2:0,0:0:0:0:
200,368,23816,1,2,1:2:0:0:
312,368,23981,1,0,1:0:0:0:
163,288,24146,2,0,P|148:252|164:216,1,80,8|0,0:0|2:0,0:0:0:0:
256,120,24476,5,2,1:2:0:0:
348,216,24641,2,0,L|416:160,1,80,0|8,0:0|0:0,0:0:0:0:
256,120,24970,2,0,L|160:200,1,120,2|0,1:2|2:0,0:0:0:0:
128,224,25300,1,0,1:0:0:0:
28,292,25465,1,8,0:0:0:0:
128,360,25630,2,0,B|164:377|164:377|200:360,1,80,0|2,0:0|1:2,0:0:0:0:
300,232,25959,5,0,1:0:0:0:
300,232,26042,1,0,1:0:0:0:
300,232,26124,2,0,B|336:215|336:215|372:232,1,80,8|0,0:0|2:0,0:0:0:0:
492,280,26454,1,2,1:2:0:0:
372,232,26619,1,0,1:0:0:0:
472,152,26783,1,8,0:0:0:0:
492,280,26948,1,0,0:0:0:0:
384,144,27113,6,0,B|329:118|329:118|307:81|307:81|256:58,1,160,2|8,1:2|0:0,0:0:0:0:
100,68,27608,2,0,B|154:93|154:93|176:130|176:130|227:153,1,160,2|0,1:2|1:0,0:0:0:0:
344,212,28102,1,8,0:0:0:0:
344,212,28267,1,0,0:0:0:0:
292,344,28432,2,0,P|255:359|219:344,1,80,2|0,1:2|2:0,0:0:0:0:
168,212,28761,1,8,0:0:0:0:
344,212,28926,6,0,P|380:196|416:212,1,80,2|2,0:0|1:2,0:0:0:0:
432,304,29256,1,0,1:0:0:0:
432,304,29421,2,0,L|484:144,1,160,8|2,0:0|1:2,0:0:0:0:
393,59,29915,1,0,1:0:0:0:
393,59,30080,2,0,L|341:219,1,160,8|2,0:0|1:2,0:0:0:0:
304,344,30575,1,0,1:0:0:0:
343,211,30740,1,8,0:0:0:0:
212,176,30904,1,0,0:0:0:0:
173,309,31069,6,0,P|120:308|68:264,1,120,2|0,1:2|2:0,0:0:0:0:
48,228,31399,2,0,L|-20:272,1,80,8|0,0:0|2:0,0:0:0:0:
116,180,31729,1,2,1:2:0:0:
173,309,31893,1,0,1:0:0:0:
116,180,32058,2,0,P|116:132|164:84,1,120,8|0,0:0|2:0,0:0:0:0:
208,68,32388,2,0,L|172:-4,1,80,2|0,1:2|1:0,0:0:0:0:
296,80,32718,6,0,B|318:112|318:112|326:151|326:151|351:187,1,120,8|0,0:0|2:0,0:0:0:0:
376,216,33047,1,2,1:2:0:0:
444,336,33212,1,0,1:0:0:0:
444,336,33294,1,0,1:0:0:0:
444,336,33377,1,8,0:0:0:0:
512,216,33542,1,0,0:0:0:0:
356,304,33707,6,0,B|263:276|304:332|206:308,1,143.999995605469,6|0,1:2|1:2,0:0:0:0:
72,232,34201,2,0,B|165:260|124:204|222:228,1,143.999995605469,2|2,1:2|0:0,0:0:0:0:
108,157,34696,1,2,1:2:0:0:
211,225,34860,1,2,0:0:0:0:
108,157,35025,6,0,P|99:116|116:82,1,71.9999978027344,2|0,1:2|1:0,0:0:0:0:
178,6,35355,1,0,1:2:0:0:
63,40,35520,2,0,L|203:106,1,143.999995605469,2|2,0:0|0:0,0:0:0:0:
304,151,36014,1,2,1:2:0:0:
193,101,36179,1,2,0:0:0:0:
304,151,36344,6,0,B|357:133|391:154|391:154|453:124,1,143.999995605469,2|2,1:2|1:2,0:0:0:0:
340,225,36838,1,0,1:0:0:0:
267,83,37003,1,2,1:2:0:0:
340,225,37168,1,2,0:0:0:0:
218,217,37333,2,0,L|304:150,1,107.999996704102,2|0,1:2|2:0,0:0:0:0:
334,126,37663,5,2,1:2:0:0:
340,225,37827,1,0,1:0:0:0:
343,319,37992,1,0,1:2:0:0:
334,126,38157,1,2,1:2:0:0:
334,126,38240,1,2,1:2:0:0:
334,126,38322,2,0,P|380:120|414:134,1,71.9999978027344,2|0,1:2|1:0,0:0:0:0:
343,319,38652,2,0,P|297:325|263:311,1,71.9999978027344,8|2,0:0|1:2,0:0:0:0:
93,192,38981,6,0,B|173:164|173:220|249:192,1,160,6|8,1:2|0:0,0:0:0:0:
248,192,39476,2,0,B|168:164|168:220|92:192,1,160,2|2,0:0|1:2,0:0:0:0:
24,127,39970,1,8,0:0:0:0:
43,287,40135,1,0,1:0:0:0:
43,287,40218,1,0,1:0:0:0:
43,287,40300,5,2,1:2:0:0:
142,98,40465,1,0,1:0:0:0:
92,192,40630,1,8,0:0:0:0:
43,287,40794,1,0,1:0:0:0:
43,287,40877,1,0,1:0:0:0:
43,287,40959,2,0,L|121:306,1,80,2|0,1:2|1:0,0:0:0:0:
219,116,41289,2,0,L|141:97,1,80,8|0,0:0|1:0,0:0:0:0:
71,81,41536,1,0,1:0:0:0:
71,81,41619,5,4,1:2:0:0:
256,43,41783,1,0,1:0:0:0:
256,43,41866,1,0,1:0:0:0:
256,43,41948,1,0,1:0:0:0:
182,206,42113,1,14,0:0:0:0:
164,58,42278,1,0,1:2:0:0:
164,58,42360,1,0,1:0:0:0:
164,58,42443,1,0,1:0:0:0:
256,195,42608,1,10,0:0:0:0:
348,58,42772,1,0,1:0:0:0:
348,58,42855,1,0,1:0:0:0:
348,58,42937,5,0,1:0:0:0:
189,135,43102,1,10,0:0:0:0:
319,273,43267,1,10,0:0:0:0:
323,135,43432,1,0,1:0:0:0:
169,274,43597,5,10,0:0:0:0:
323,135,43761,1,8,0:0:0:0:
369,145,43844,1,8,0:0:0:0:
407,115,43926,1,10,0:0:0:0:
407,67,44009,1,8,0:0:0:0:
369,37,44091,1,8,0:0:0:0:
323,48,44174,1,8,0:0:0:0:
302,91,44256,6,0,B|256:80|224:108|224:108|168:96,1,132.00000402832,6|0,1:2|2:0,0:0:0:0:
136,88,44586,1,8,0:0:0:0:
232,192,44750,1,0,0:0:0:0:
208,16,44915,1,2,1:2:0:0:
112,168,45080,1,0,1:0:0:0:
302,91,45245,6,0,B|344:112|344:112|388:132|416:104,1,120.000004577637,10|0,0:0|0:0,0:0:0:0:
500,16,45575,1,2,1:2:0:0:
512,160,45740,1,0,1:0:0:0:
512,160,45822,1,0,1:0:0:0:
512,160,45904,1,8,0:0:0:0:
416,268,46069,2,0,B|352:244|352:292|288:268,1,132.00000402832,2|0,1:2|2:0,0:0:0:0:
240,268,46399,1,0,1:0:0:0:
380,348,46564,1,8,0:0:0:0:
380,180,46729,1,0,0:0:0:0:
240,268,46893,6,0,P|188:268|132:212,1,132.00000402832,2|0,1:2|2:0,0:0:0:0:
116,176,47223,1,8,0:0:0:0:
240,268,47388,2,0,P|225:308|240:348,1,88.000002685547,0|2,0:0|1:2,0:0:0:0:
380,348,47718,1,0,1:0:0:0:
468,182,47882,6,0,B|426:161|426:161|382:141|354:169,1,120.000004577637,10|0,0:0|0:0,0:0:0:0:
240,268,48212,1,2,1:2:0:0:
228,112,48377,1,0,1:0:0:0:
228,112,48459,1,0,1:0:0:0:
228,112,48542,1,8,0:0:0:0:
358,166,48707,2,0,L|416:48,1,132.00000402832,2|0,1:2|2:0,0:0:0:0:
480,104,49036,2,0,L|438:190,1,88.000002685547,0|8,1:0|0:0,0:0:0:0:
384,304,49366,1,0,0:0:0:0:
256,192,49531,6,0,P|180:154|104:192,1,176.000005371094,2|8,1:2|0:0,0:0:0:0:
256,272,50025,1,0,1:0:0:0:
256,272,50108,1,0,1:0:0:0:
256,272,50190,2,0,P|271:232|256:192,1,88.000002685547,2|0,1:2|1:0,0:0:0:0:
120,81,50520,6,0,B|99:123|99:123|79:167|107:195,1,120.000004577637,10|0,0:0|0:0,0:0:0:0:
256,272,50849,1,2,1:2:0:0:
409,191,51014,1,0,1:0:0:0:
409,191,51097,1,0,1:0:0:0:
409,191,51179,2,0,L|460:272,1,88.000002685547,8|0,0:0|1:0,0:0:0:0:
480,304,51426,1,0,1:0:0:0:
480,304,51509,2,0,P|456:340|408:348,1,88.000002685547,2|0,1:2|1:0,0:0:0:0:
324,236,51838,1,8,0:0:0:0:
256,344,52003,1,0,0:0:0:0:
188,236,52168,6,0,B|152:204|152:204|136:168|136:168|100:136,1,132.00000402832,2|0,1:2|2:0,0:0:0:0:
72,112,52498,1,8,0:0:0:0:
258,177,52663,1,0,1:0:0:0:
258,177,52745,1,0,1:0:0:0:
258,177,52827,2,0,L|323:235,1,88.000002685547,2|0,1:2|1:0,0:0:0:0:
476,256,53157,2,0,B|440:224|440:224|424:188|424:188|388:156,1,132.00000402832,8|0,0:0|2:0,0:0:0:0:
360,132,53487,5,2,1:2:0:0:
256,24,53652,1,0,1:0:0:0:
152,132,53816,1,8,0:0:0:0:
256,240,53981,1,0,1:0:0:0:
336,40,54146,5,2,1:2:0:0:
256,160,54311,1,0,1:0:0:0:
176,40,54476,1,8,0:0:0:0:
360,132,54641,1,0,1:0:0:0:
360,132,54723,1,0,1:0:0:0:
360,132,54805,6,0,B|348:198|348:198|361:237|361:237|349:312,1,176.000005371094,6|8,1:2|0:0,0:0:0:0:
427,179,55300,1,0,1:0:0:0:
427,179,55382,1,0,1:0:0:0:
427,179,55465,2,0,P|439:127|419:86,1,88.000002685547,2|0,1:2|1:0,0:0:0:0:
251,63,55794,2,0,P|318:68|376:21,1,132.00000402832,8|0,0:0|2:0,0:0:0:0:
427,96,56124,6,0,P|439:137|427:179,1,88.000002685547,2|0,1:2|1:0,0:0:0:0:
323,269,56454,1,8,0:0:0:0:
427,178,56619,1,0,1:0:0:0:
444,308,56783,1,2,1:2:0:0:
320,170,56948,1,0,1:0:0:0:
320,170,57031,1,0,1:0:0:0:
320,170,57113,2,0,P|276:168|234:192,1,88.000002685547,8|0,0:0|2:0,0:0:0:0:
70,140,57443,6,0,B|157:154|117:116|201:121,1,132.00000402832,2|0,1:2|2:0,0:0:0:0:
239,53,57772,2,0,B|199:35|199:35|159:53,1,88.000002685547,8|0,0:0|2:0,0:0:0:0:
42,213,58102,2,0,B|82:231|82:231|122:213,1,88.000002685547,2|0,1:2|1:0,0:0:0:0:
249,250,58432,2,0,L|119:309,1,132.00000402832,8|0,0:0|2:0,0:0:0:0:
64,332,58761,5,2,1:2:0:0:
249,250,58926,1,0,1:0:0:0:
249,250,59009,1,0,1:0:0:0:
249,250,59091,2,0,P|245:203|211:165,1,88.000002685547,8|0,0:0|1:0,0:0:0:0:
35,253,59421,2,0,P|39:300|73:338,1,88.000002685547,2|0,1:2|1:0,0:0:0:0:
96,140,59750,1,8,0:0:0:0:
142,239,59915,1,2,0:0:0:0:
215,107,60080,6,0,B|259:85|310:108|310:108|342:82,1,132.00000402832,6|0,1:2|2:0,0:0:0:0:
389,36,60410,1,8,0:0:0:0:
305,186,60575,1,0,1:0:0:0:
305,186,60657,1,0,1:0:0:0:
305,186,60740,1,2,1:2:0:0:
216,33,60904,1,0,1:0:0:0:
383,135,61069,1,8,0:0:0:0:
231,245,61234,1,0,0:0:0:0:
414,212,61399,6,0,P|409:169|367:126,1,88.000002685547,2|0,1:2|1:0,0:0:0:0:
231,245,61729,2,0,P|236:288|278:331,1,88.000002685547,8|0,0:0|1:0,0:0:0:0:
402,338,62058,1,2,1:2:0:0:
414,212,62223,1,0,1:0:0:0:
402,338,62388,2,0,P|445:323|477:239,1,132.00000402832,8|0,0:0|2:0,0:0:0:0:
414,212,62718,6,0,L|335:251,1,88.000002685547,2|0,1:2|2:0,0:0:0:0:
254,310,63047,1,8,0:0:0:0:
203,154,63212,1,0,1:0:0:0:
335,250,63377,1,2,1:2:0:0:
172,250,63542,1,0,1:0:0:0:
304,154,63707,1,8,0:0:0:0:
254,310,63871,6,0,B|144:336|185:274|77:297,1,176.000005371094,4|2,1:2|1:2,0:0:0:0:
28,144,64366,1,10,0:0:0:0:
61,116,64448,1,8,0:0:0:0:
103,106,64531,1,8,0:0:0:0:
146,116,64613,1,8,0:0:0:0:
179,143,64696,1,10,1:2:0:0:
197,185,64778,1,8,0:0:0:0:
230,212,64860,1,8,0:0:0:0:
272,222,64943,1,8,0:0:0:0:
316,214,65025,2,0,L|358:193,1,44.0000013427735,10|8,0:0|0:0,0:0:0:0:
425,311,65190,2,0,L|383:290,1,44.0000013427735,8|8,0:0|0:0,0:0:0:0:
466,191,65355,6,0,P|492:136|464:76,1,132.00000402832,6|0,1:2|2:0,0:0:0:0:
432,48,65685,1,8,0:0:0:0:
344,136,65849,1,0,0:0:0:0:
256,48,66014,1,2,1:2:0:0:
256,48,66179,1,0,1:0:0:0:
256,192,66344,6,0,B|270:236|270:236|287:281|327:281,1,120.000004577637,10|0,0:0|0:0,0:0:0:0:
368,296,66591,1,0,1:0:0:0:
368,296,66674,1,2,1:2:0:0:
344,136,66838,1,0,1:0:0:0:
344,136,66921,1,0,1:0:0:0:
344,136,67003,1,8,0:0:0:0:
168,240,67168,2,0,B|186:280|186:280|168:320,1,88.000002685547,2|2,0:0|1:2,0:0:0:0:
40,280,67498,1,0,1:0:0:0:
96,160,67663,2,0,B|78:120|78:120|96:80,1,88.000002685547,8|0,0:0|2:0,0:0:0:0:
332,48,67992,6,0,B|288:48|256:9|256:9|224:48|180:48,1,176.000005371094,2|8,1:2|0:0,0:0:0:0:
256,168,68487,1,0,0:0:0:0:
332,48,68652,1,2,1:2:0:0:
332,48,68816,1,0,1:0:0:0:
180,47,68981,6,0,B|204:71|184:115|184:115|163:157,1,120.000004577637,10|0,0:0|0:0,0:0:0:0:
124,176,69229,1,0,1:0:0:0:
124,176,69311,1,2,1:2:0:0:
164,315,69476,1,0,1:0:0:0:
254,202,69641,1,8,0:0:0:0:
304,336,69805,1,0,1:0:0:0:
304,336,69888,1,0,1:0:0:0:
304,336,69970,2,0,P|344:351|384:336,1,88.000002685547,2|0,1:2|1:0,0:0:0:0:
464,176,70300,2,0,P|424:161|384:176,1,88.000002685547,8|0,0:0|2:0,0:0:0:0:
229,214,70630,6,0,B|193:162|193:162|182:106|182:106|150:60,1,176.000005371094,6|8,1:2|0:0,0:0:0:0:
150,60,71124,1,0,0:0:0:0:
281,146,71289,1,2,1:2:0:0:
97,146,71454,1,0,1:0:0:0:
242,74,71619,6,0,B|266:49|310:69|310:69|352:90,1,120.000004577637,10|0,0:0|0:0,0:0:0:0:
496,136,71948,1,2,1:2:0:0:
452,280,72113,1,0,1:0:0:0:
308,234,72278,1,8,0:0:0:0:
352,90,72443,1,0,1:0:0:0:
352,90,72525,1,0,1:0:0:0:
352,90,72608,2,0,B|370:50|370:50|352:10,1,88.000002685547,2|0,1:2|1:0,0:0:0:0:
160,10,72937,2,0,B|142:50|142:50|160:90,1,88.000002685547,8|0,0:0|2:0,0:0:0:0:
196,240,73267,5,2,1:2:0:0:
256,100,73432,1,0,1:0:0:0:
316,240,73597,1,8,0:0:0:0:
160,90,73761,1,0,1:0:0:0:
160,90,73844,1,0,1:0:0:0:
160,90,73926,1,2,1:2:0:0:
256,204,74091,1,0,1:0:0:0:
352,90,74256,6,0,P|392:75|432:90,1,88.000002685547,8|0,0:0|1:0,0:0:0:0:
492,244,74586,1,6,1:2:0:0:
432,90,74750,1,8,0:0:0:0:
432,90,74915,1,8,0:0:0:0:
344,232,75080,1,0,1:0:0:0:
500,140,75245,1,10,1:2:0:0:
414,281,75410,1,0,1:0:0:0:
352,126,75575,1,8,0:0:0:0:
256,264,75740,1,8,0:0:0:0:
256,264,75822,1,8,0:0:0:0:
256,264,75904,6,0,B|141:228|185:292|74:263,1,176.000005371094,6|8,1:2|0:0,0:0:0:0:
198,327,76399,1,0,0:0:0:0:
84,265,76564,2,0,P|79:217|100:175,1,88.000002685547,2|0,1:2|1:0,0:0:0:0:
266,180,76893,2,0,P|271:228|250:270,1,88.000002685547,8|0,0:0|2:0,0:0:0:0:
188,52,77223,5,2,1:2:0:0:
266,180,77388,1,0,1:0:0:0:
345,34,77553,2,0,L|233:116,1,132.00000402832,8|0,0:0|2:0,0:0:0:0:
188,52,77882,2,0,L|261:-2,1,88.000002685547,2|0,1:2|1:0,0:0:0:0:
417,74,78212,2,0,L|346:126,1,88.000002685547,8|0,0:0|2:0,0:0:0:0:
217,193,78542,5,2,1:2:0:0:
333,244,78707,1,0,1:0:0:0:
346,126,78871,2,0,L|458:43,1,132.00000402832,8|0,0:0|2:0,0:0:0:0:
487,16,79201,1,2,1:2:0:0:
498,120,79366,1,0,1:0:0:0:
487,16,79531,1,8,0:0:0:0:
503,208,79696,1,0,1:0:0:0:
503,208,79778,1,0,1:0:0:0:
503,208,79860,6,0,B|413:191|456:235|361:221,2,132.00000402832,6|4|4,1:2|1:2|1:2,0:0:0:0:
470,281,80520,1,2,1:2:0:0:
390,153,80685,1,0,1:0:0:0:
390,153,80767,1,0,1:0:0:0:
390,153,80849,1,8,0:0:0:0:
338,297,81014,1,2,0:0:0:0:
218,146,81179,6,0,B|331:120|286:181|400:150,1,176.000005371094,6|8,1:2|0:0,0:0:0:0:
195,59,81674,1,0,0:0:0:0:
239,227,81838,1,2,1:2:0:0:
123,164,82003,1,0,1:0:0:0:
123,164,82086,1,0,1:0:0:0:
123,164,82168,2,0,P|112:120|127:70,1,88.000002685547,8|0,0:0|1:0,0:0:0:0:
138,249,82498,5,10,0:0:0:0:
121,79,82663,1,10,0:0:0:0:
255,192,82827,1,10,0:0:0:0:
255,192,83322,5,2,0:0:0:0:
327,65,83487,1,8,0:0:0:0:
414,196,83652,1,2,0:0:0:0:
255,192,83816,6,0,B|242:254|242:254|251:294|251:294|240:364,1,176.000005371094,6|8,1:2|0:0,0:0:0:0:
327,169,84311,1,0,0:0:0:0:
276,13,84476,1,2,1:2:0:0:
408,109,84641,1,0,1:0:0:0:
236,109,84805,1,8,0:0:0:0:
377,13,84970,1,0,1:0:0:0:
327,169,85135,6,0,B|243:137|243:201|155:169,1,176.000005371094,2|8,1:2|0:0,0:0:0:0:
155,169,85630,2,0,B|239:137|239:201|327:169,1,176.000005371094,2|0,1:2|1:0,0:0:0:0:
98,246,86124,1,10,0:0:0:0:
70,212,86207,1,8,0:0:0:0:
60,170,86289,1,8,0:0:0:0:
70,127,86371,1,8,0:0:0:0:
97,94,86454,6,0,P|160:96|196:52,1,120,4|0,1:2|2:0,0:0:0:0:
220,20,86783,2,0,L|296:56,1,80,8|0,0:0|2:0,0:0:0:0:
428,100,87113,1,2,1:2:0:0:
292,54,87278,1,0,1:0:0:0:
328,192,87443,2,0,B|312:232|312:232|316:260|316:260|296:308,1,120,8|0,0:0|2:0,0:0:0:0:
280,344,87772,5,2,1:2:0:0:
168,280,87937,1,0,1:0:0:0:
168,280,88020,1,0,1:0:0:0:
168,280,88102,2,0,P|131:295|95:280,1,80,8|0,0:0|2:0,0:0:0:0:
0,192,88432,1,2,1:2:0:0:
0,192,88597,1,0,1:0:0:0:
95,280,88761,1,8,0:0:0:0:
95,104,88926,1,0,1:0:0:0:
95,104,89009,1,0,1:0:0:0:
95,104,89091,6,0,B|155:88|155:128|211:104,1,120,4|0,1:2|2:0,0:0:0:0:
256,104,89421,1,8,0:0:0:0:
344,200,89586,1,0,0:0:0:0:
432,104,89750,2,0,B|449:68|449:68|432:32,1,80,2|0,1:2|1:0,0:0:0:0:
256,104,90080,2,0,B|239:140|239:140|256:176,1,80,8|0,0:0|2:0,0:0:0:0:
324,320,90410,1,2,1:2:0:0:
324,320,90575,6,0,P|256:355|188:319,1,160,2|0,1:2|1:0,0:0:0:0:
256,176,91069,1,2,1:2:0:0:
324,320,91234,1,4,1:2:0:0:
168,228,91399,1,8,0:0:0:0:
344,228,91564,1,0,1:0:0:0:
344,228,91646,1,0,1:0:0:0:
344,228,91729,2,0,P|359:192|344:156,1,80,4|0,1:2|2:0,0:0:0:0:
264,24,92058,5,8,0:0:0:0:
343,155,92223,1,0,1:0:0:0:
192,68,92388,1,2,1:2:0:0:
271,199,92553,1,0,1:0:0:0:
271,199,92635,1,0,1:0:0:0:
271,199,92718,1,8,0:0:0:0:
120,112,92882,6,0,B|104:156|104:156|112:184|112:184|100:228,1,120,2|0,1:2|2:0,0:0:0:0:
88,268,93212,1,0,1:0:0:0:
176,368,93377,1,8,0:0:0:0:
176,368,93459,1,0,1:0:0:0:
176,368,93542,1,0,1:0:0:0:
256,264,93707,1,2,1:2:0:0:
336,368,93871,1,0,1:0:0:0:
336,368,93954,1,0,1:0:0:0:
336,368,94036,2,0,L|368:336,3,40,8|8|8|8,0:0|0:0|0:0|0:0,0:0:0:0:
396,312,94366,5,4,1:2:0:0:
488,192,94531,1,0,1:0:0:0:
396,72,94696,1,8,0:0:0:0:
304,192,94860,1,0,1:0:0:0:
304,192,94943,1,0,1:0:0:0:
304,192,95025,1,2,1:2:0:0:
468,276,95190,1,0,1:0:0:0:
396,144,95355,1,8,0:0:0:0:
324,276,95520,6,0,B|284:304|284:304|212:304,1,120,4|0,1:2|2:0,0:0:0:0:
168,304,95849,1,8,0:0:0:0:
88,160,96014,1,0,1:0:0:0:
88,160,96179,1,8,0:0:0:0:
168,304,96344,2,0,P|224:304|264:256,1,120,2|0,1:2|2:0,0:0:0:0:
276,220,96674,2,0,L|388:280,1,120,8|0,0:0|2:0,0:0:0:0:
420,296,97003,6,0,P|441:257|439:222,1,71.9999978027344,4|0,1:2|0:0,0:0:0:0:
296,154,97333,2,0,P|275:193|277:228,1,71.9999978027344,2|0,1:2|0:0,0:0:0:0:
440,230,97663,2,0,P|461:191|459:156,1,71.9999978027344,0|0,1:2|0:0,0:0:0:0:
316,88,97992,2,0,P|295:127|297:162,1,71.9999978027344,2|0,1:2|0:0,0:0:0:0:
206,61,98322,6,0,L|62:54,1,143.999995605469,0|2,1:2|1:2,0:0:0:0:
12,163,98816,2,0,L|156:170,1,143.999995605469,2|2,0:0|0:0,0:0:0:0:
206,61,99311,1,0,1:2:0:0:
279,148,99476,2,0,P|297:213|262:276,1,143.999995605469,2|2,0:0|0:0,0:0:0:0:
179,365,99970,1,2,1:2:0:0:
179,365,100135,1,0,0:0:0:0:
261,276,100300,1,2,1:2:0:0:
261,276,100465,1,0,0:0:0:0:
333,365,100630,1,2,1:2:0:0:
333,365,100794,6,0,P|342:327|332:294,1,71.9999978027344,0|0,0:0|1:2,0:0:0:0:
344,204,101124,1,2,0:0:0:0:
261,276,101289,1,0,1:2:0:0:
262,129,101454,2,0,P|253:167|263:200,2,71.9999978027344,2|0|0,0:0|1:2|1:0,0:0:0:0:
368,54,101948,5,2,1:2:0:0:
368,54,102113,2,0,B|300:78|300:30|228:54,1,143.999995605469,8|2,0:0|0:0,0:0:0:0:
121,129,102608,1,0,1:2:0:0:
121,129,102772,2,0,B|189:105|189:153|261:129,1,143.999995605469,2|2,0:0|0:0,0:0:0:0:
153,202,103267,1,2,1:2:0:0:
153,202,103432,2,0,B|81:226|81:178|13:202,1,143.999995605469,2|2,0:0|0:0,0:0:0:0:
152,287,103926,1,2,1:2:0:0:
152,287,104091,2,0,P|232:308|310:244,1,179.999994506836,2|0,0:0|2:0,0:0:0:0:
323,218,104586,2,0,L|432:231,1,107.999996704102,10|0,1:2|2:0,0:0:0:0:
472,237,104915,6,0,P|485:182|466:134,1,107.999996704102,2|0,1:2|2:0,0:0:0:0:
424,122,105245,2,0,L|342:113,1,71.9999978027344,2|2,1:2|0:0,0:0:0:0:
256,48,105575,2,0,B|164:29|199:84|110:55,1,143.999995605469,2|10,1:2|1:2,0:0:0:0:
24,30,106069,1,2,0:0:0:0:
20,137,106234,2,0,P|8:204|54:272,1,143.999995605469,2|10,1:2|1:2,0:0:0:0:
130,350,106729,1,2,0:0:0:0:
200,278,106893,5,0,1:2:0:0:
124,220,107058,1,0,1:0:0:0:
124,220,107141,1,0,1:0:0:0:
124,220,107223,1,8,0:0:0:0:
255,349,107388,1,0,1:0:0:0:
392,228,107553,6,0,P|407:192|392:156,1,80,4|0,1:2|2:0,0:0:0:0:
256,20,107882,1,8,0:0:0:0:
304,167,108047,1,0,0:0:0:0:
178,76,108212,1,2,1:2:0:0:
333,76,108377,1,0,1:0:0:0:
208,167,108542,2,0,P|172:152|136:167,1,80,8|0,0:0|2:0,0:0:0:0:
172,296,108871,5,2,1:2:0:0:
172,296,109036,1,0,1:0:0:0:
52,192,109201,1,8,0:0:0:0:
208,167,109366,2,0,B|248:179|248:179|276:207|276:207|316:219,1,120,2|0,1:2|2:0,0:0:0:0:
352,228,109696,1,0,1:0:0:0:
476,188,109860,1,8,0:0:0:0:
432,64,110025,1,0,0:0:0:0:
308,104,110190,5,2,1:2:0:0:
476,188,110355,2,0,L|508:264,1,80,2|8,0:0|0:0,0:0:0:0:
339,177,110685,1,0,0:0:0:0:
339,177,110849,2,0,L|307:101,1,80,2|0,1:2|1:0,0:0:0:0:
200,20,111179,1,8,0:0:0:0:
92,96,111344,1,0,0:0:0:0:
200,172,111509,5,2,1:2:0:0:
200,20,111674,1,0,1:0:0:0:
92,96,111838,2,0,B|56:79|56:79|20:96,1,80,8|0,0:0|1:0,0:0:0:0:
12,140,112086,1,0,1:0:0:0:
12,140,112168,2,0,L|40:220,1,80,2|0,1:2|1:0,0:0:0:0:
200,172,112498,2,0,L|172:92,1,80,8|0,0:0|1:0,0:0:0:0:
228,248,112827,5,4,1:2:0:0:
272,380,112992,1,0,0:0:0:0:
408,348,113157,1,8,0:0:0:0:
364,216,113322,2,0,P|400:148|364:80,1,160,2|2,0:0|1:2,0:0:0:0:
148,168,113816,2,0,P|112:236|148:304,1,160,8|2,0:0|1:2,0:0:0:0:
224,236,114311,1,0,1:0:0:0:
224,236,114476,2,0,L|152:92,1,160,8|2,0:0|1:2,0:0:0:0:
152,92,114970,1,0,1:0:0:0:
284,28,115135,6,0,P|320:13|356:28,1,80,8|0,0:0|2:0,0:0:0:0:
456,136,115465,1,2,1:2:0:0:
456,136,115630,1,0,1:0:0:0:
283,100,115794,2,0,P|298:63|283:27,1,80,8|0,0:0|2:0,0:0:0:0:
128,64,116124,2,0,P|68:64|28:104,1,120,2|0,1:2|2:0,0:0:0:0:
16,144,116454,1,8,0:0:0:0:
144,200,116619,1,0,0:0:0:0:
128,64,116783,1,2,1:2:0:0:
56,232,116948,5,0,1:0:0:0:
56,232,117031,1,0,1:0:0:0:
56,232,117113,1,8,0:0:0:0:
188,340,117278,1,8,0:0:0:0:
308,220,117443,1,2,1:2:0:0:
308,220,117608,1,0,1:0:0:0:
176,112,117772,1,8,0:0:0:0:
176,112,117937,1,0,1:0:0:0:
332,240,118102,6,0,P|401:240|454:181,1,143.999995605469,6|0,1:2|1:2,0:0:0:0:
401,83,118597,2,0,L|479:91,2,71.9999978027344,2|0|2,1:2|1:2|0:0,0:0:0:0:
372,166,119091,2,0,L|300:158,1,71.9999978027344,2|2,1:2|0:0,0:0:0:0:
208,95,119421,5,2,1:2:0:0:
192,195,119586,1,0,1:0:0:0:
300,158,119750,1,0,1:2:0:0:
208,95,119915,2,0,B|122:73|158:127|65:102,1,143.999995605469,2|2,1:2|1:2,0:0:0:0:
31,219,120410,2,0,L|-2:152,1,71.9999978027344,10|2,1:2|0:0,0:0:0:0:
124,195,120740,6,0,L|155:259,1,71.9999978027344,2|0,1:2|1:0,0:0:0:0:
222,377,121069,1,2,1:2:0:0:
239,274,121234,1,8,0:0:0:0:
125,331,121399,1,10,1:2:0:0:
222,377,121564,1,0,1:0:0:0:
239,274,121729,2,0,P|276:267|316:286,1,71.9999978027344,2|10,1:2|0:0,0:0:0:0:
348,306,121976,1,10,0:0:0:0:
348,306,122058,5,2,1:2:0:0:
410,245,122223,2,0,P|417:208|398:168,1,71.9999978027344,0|12,1:0|1:2,0:0:0:0:
314,134,122553,1,2,1:2:0:0:
314,134,122635,1,0,1:2:0:0:
314,134,122718,2,0,L|295:138,14,17.9999994506836,2|0|0|0|0|0|0|0|10|0|0|0|0|0|0,1:2|0:0|0:0|0:0|1:0|1:0|1:0|1:0|1:2|0:0|0:0|1:0|1:0|1:0|1:0,0:0:0:0:
277,60,123377,6,0,P|241:50|194:69,1,80,4|0,1:2|1:0,0:0:0:0:
155,157,123707,1,8,0:0:0:0:
86,80,123871,2,0,P|73:42|83:4,1,80,2|2,0:0|1:2,0:0:0:0:
155,157,124201,2,0,P|109:183|72:181,1,80,2|8,1:2|0:0,0:0:0:0:
277,60,124531,1,0,1:0:0:0:
277,60,124613,1,0,1:0:0:0:
277,60,124696,5,2,1:2:0:0:
367,159,124860,2,0,L|282:194,1,80,2|8,1:2|0:0,0:0:0:0:
463,229,125190,1,0,1:0:0:0:
463,229,125272,1,0,1:0:0:0:
463,229,125355,2,0,P|476:185|460:141,1,80,2|0,1:2|1:0,0:0:0:0:
363,256,125685,2,0,P|350:300|366:344,1,80,8|0,0:0|1:0,0:0:0:0:
255,153,126014,5,6,1:2:0:0:
155,287,126179,1,0,1:0:0:0:
155,287,126261,1,0,1:0:0:0:
155,287,126344,1,0,1:0:0:0:
62,147,126509,2,0,P|47:99|54:62,1,80,8|2,0:0|1:2,0:0:0:0:
67,31,126756,1,0,1:0:0:0:
67,31,126838,1,0,1:0:0:0:
255,47,127003,1,8,0:0:0:0:
255,47,127086,1,0,1:0:0:0:
255,47,127168,2,0,L|207:85,1,40,0|0,1:0|1:0,0:0:0:0:
276,132,127333,6,0,L|358:66,1,80,2|8,1:2|0:0,0:0:0:0:
397,36,127580,1,0,1:0:0:0:
397,36,127663,2,0,P|417:64|419:83,1,40,0|0,1:2|1:0,0:0:0:0:
464,155,127827,2,0,P|477:140|485:122,1,40,0|0,1:0|1:0,0:0:0:0:
377,170,127992,1,10,0:0:0:0:
304,332,128157,5,8,0:0:0:0:
257,342,128240,1,8,0:0:0:0:
219,312,128322,1,10,0:0:0:0:
219,264,128404,1,8,0:0:0:0:
257,234,128487,1,8,0:0:0:0:
304,245,128569,1,8,0:0:0:0:
324,288,128652,6,0,P|376:296|436:244,1,132.00000402832,6|0,1:2|2:0,0:0:0:0:
448,208,128981,1,8,0:0:0:0:
480,72,129146,1,0,0:0:0:0:
340,48,129311,1,2,1:2:0:0:
308,184,129476,1,0,1:0:0:0:
268,332,129641,6,0,B|243:356|199:336|199:336|157:315,1,120.000004577637,10|0,0:0|0:0,0:0:0:0:
116,304,129888,1,0,1:0:0:0:
116,304,129970,1,2,1:2:0:0:
24,192,130135,1,0,1:0:0:0:
24,192,130218,1,0,1:0:0:0:
24,192,130300,1,8,0:0:0:0:
116,80,130465,6,0,B|160:80|160:80|200:100|200:100|244:100,1,132.00000402832,2|0,1:2|2:0,0:0:0:0:
288,100,130794,1,0,1:0:0:0:
400,192,130959,1,8,0:0:0:0:
288,284,131124,1,0,0:0:0:0:
368,124,131289,2,0,P|420:124|480:176,1,132.00000402832,2|0,1:2|2:0,0:0:0:0:
400,192,131619,2,0,L|360:272,1,88.000002685547,8|0,0:0|2:0,0:0:0:0:
256,376,131948,1,2,1:2:0:0:
152,270,132113,1,0,1:0:0:0:
256,156,132278,6,0,B|257:109|257:109|256:60|219:47,1,120.000004577637,10|0,0:0|0:0,0:0:0:0:
256,248,132608,1,2,1:2:0:0:
176,124,132772,1,0,1:0:0:0:
176,124,132855,1,0,1:0:0:0:
176,124,132937,1,8,0:0:0:0:
336,68,133102,2,0,P|376:53|416:68,1,88.000002685547,0|2,1:0|1:2,0:0:0:0:
512,188,133432,1,0,1:0:0:0:
416,68,133597,1,8,0:0:0:0:
316,184,133761,5,0,1:0:0:0:
316,184,133844,1,0,1:0:0:0:
316,184,133926,2,0,B|284:224|284:224|284:260|284:260|256:296,1,132.00000402832,6|0,1:2|2:0,0:0:0:0:
228,328,134256,1,8,0:0:0:0:
376,256,134421,1,0,0:0:0:0:
228,156,134586,1,2,1:2:0:0:
228,328,134750,1,0,1:0:0:0:
335,188,134915,6,0,B|288:189|288:189|239:188|226:151,1,120.000004577637,10|0,0:0|0:0,0:0:0:0:
124,40,135245,1,2,1:2:0:0:
24,156,135410,1,0,1:0:0:0:
24,156,135492,1,0,1:0:0:0:
24,156,135575,1,8,0:0:0:0:
227,236,135740,2,0,P|242:196|227:156,1,88.000002685547,2|2,0:0|1:2,0:0:0:0:
124,40,136069,1,0,1:0:0:0:
24,156,136234,2,0,P|8:196|23:236,1,88.000002685547,8|0,0:0|2:0,0:0:0:0:
112,368,136564,6,0,L|200:268,1,132.00000402832,2|0,1:2|2:0,0:0:0:0:
227,236,136893,1,8,0:0:0:0:
352,320,137058,1,0,1:0:0:0:
352,320,137141,1,0,1:0:0:0:
352,320,137223,1,2,1:2:0:0:
436,196,137388,1,0,1:0:0:0:
311,112,137553,2,0,B|329:72|329:72|311:32,1,88.000002685547,8|0,0:0|2:0,0:0:0:0:
435,115,137882,6,0,B|417:155|417:155|435:195,1,88.000002685547,2|0,1:2|1:0,0:0:0:0:
352,320,138212,2,0,B|308:320|308:320|272:336|272:336|220:336,1,132.00000402832,8|0,0:0|2:0,0:0:0:0:
180,336,138542,1,2,1:2:0:0:
68,232,138707,1,0,1:0:0:0:
180,128,138871,1,8,0:0:0:0:
212,96,138954,1,8,0:0:0:0:
256,84,139036,1,8,0:0:0:0:
300,96,139119,1,8,0:0:0:0:
332,128,139201,6,0,B|434:152|395:83|514:121,1,176.000005371094,6|8,1:2|0:0,0:0:0:0:
337,255,139696,1,0,1:0:0:0:
337,255,139778,1,0,1:0:0:0:
337,255,139860,2,0,P|374:277|365:214,1,132.00000402832,2|0,1:2|2:0,0:0:0:0:
301,336,140190,2,0,P|345:356|437:330,1,132.00000402832,8|0,0:0|2:0,0:0:0:0:
470,281,140520,6,0,P|480:237|461:193,1,88.000002685547,2|0,1:2|1:0,0:0:0:0:
361,83,140849,1,8,0:0:0:0:
465,198,141014,1,0,1:0:0:0:
483,65,141179,1,2,1:2:0:0:
349,193,141344,1,0,1:0:0:0:
349,193,141426,1,0,1:0:0:0:
349,193,141509,2,0,L|259:180,1,88.000002685547,8|0,0:0|2:0,0:0:0:0:
66,267,141838,6,0,B|150:235|150:299|238:267,1,176.000005371094,2|8,1:2|0:0,0:0:0:0:
111,334,142333,1,0,0:0:0:0:
198,199,142498,1,2,1:2:0:0:
257,346,142663,1,0,1:0:0:0:
111,334,142827,2,0,P|54:346|-6:298,1,132.00000402832,8|0,0:0|2:0,0:0:0:0:
26,204,143157,6,0,P|83:192|143:240,1,132.00000402832,6|0,1:2|2:0,0:0:0:0:
66,267,143487,1,8,0:0:0:0:
231,343,143652,1,0,1:0:0:0:
231,343,143734,1,0,1:0:0:0:
231,343,143816,1,2,1:2:0:0:
373,232,143981,1,0,1:0:0:0:
373,232,144064,1,0,1:0:0:0:
373,232,144146,2,0,P|383:281|366:317,1,88.000002685547,8|0,0:0|2:0,0:0:0:0:
448,146,144476,6,0,L|253:113,1,176.000005371094,6|8,1:2|0:0,0:0:0:0:
138,89,144970,1,0,1:0:0:0:
138,89,145053,1,0,1:0:0:0:
138,89,145135,1,2,1:2:0:0:
231,2,145300,1,0,1:0:0:0:
274,116,145465,1,8,0:0:0:0:
162,11,145630,6,0,P|90:28|64:123,1,176.000005371094,2|0,0:0|1:0,0:0:0:0:
203,194,146124,1,8,0:0:0:0:
62,267,146289,1,0,1:0:0:0:
62,117,146454,1,2,1:2:0:0:
154,262,146619,1,0,1:0:0:0:
144,117,146783,2,0,P|202:105|271:139,1,132.00000402832,8|0,0:0|2:0,0:0:0:0:
290,169,147113,5,6,1:2:0:0:
483,169,147278,1,0,1:0:0:0:
327,282,147443,1,8,0:0:0:0:
386,99,147608,1,0,1:0:0:0:
446,282,147772,1,10,1:2:0:0:
290,169,147937,1,0,1:0:0:0:
483,169,148102,1,8,0:0:0:0:
327,282,148267,6,0,B|216:256|259:315|136:293,1,176.000005371094,6|2,1:2|1:2,0:0:0:0:
51,191,148761,1,8,0:0:0:0:
51,191,148844,1,8,0:0:0:0:
51,191,148926,1,8,0:0:0:0:
203,137,149091,5,10,1:2:0:0:
244,161,149174,1,8,0:0:0:0:
292,152,149256,1,8,0:0:0:0:
323,115,149338,1,8,0:0:0:0:
323,67,149421,1,8,0:0:0:0:
292,30,149503,1,8,0:0:0:0:
244,21,149586,1,8,0:0:0:0:
203,46,149668,1,8,0:0:0:0:
186,91,149750,6,0,B|120:72|120:116|56:92,1,132.00000402832,6|0,1:2|2:0,0:0:0:0:
12,92,150080,1,8,0:0:0:0:
156,248,150245,2,0,P|171:208|156:168,1,88.000002685547,2|2,0:0|1:2,0:0:0:0:
96,24,150575,1,0,1:0:0:0:
256,116,150740,6,0,B|275:144|322:132|322:132|367:119,1,120.000004577637,10|0,0:0|0:0,0:0:0:0:
412,112,150987,1,0,1:0:0:0:
412,112,151069,1,2,1:2:0:0:
464,260,151234,1,0,1:0:0:0:
464,260,151316,1,0,1:0:0:0:
464,260,151399,1,8,0:0:0:0:
412,112,151564,2,0,B|394:72|394:72|412:32,1,88.000002685547,2|2,0:0|1:2,0:0:0:0:
256,116,151893,1,0,1:0:0:0:
256,116,152058,2,0,B|274:156|274:156|256:196,1,88.000002685547,8|0,0:0|2:0,0:0:0:0:
296,344,152388,6,0,L|348:223,1,132.00000402832,2|0,1:2|2:0,0:0:0:0:
364,184,152718,1,8,0:0:0:0:
332,36,152882,1,0,0:0:0:0:
180,36,153047,1,2,1:2:0:0:
148,184,153212,1,0,1:0:0:0:
364,184,153377,6,0,B|375:216|424:217|424:217|471:216,1,120.000004577637,10|0,0:0|0:0,0:0:0:0:
508,20,153707,1,2,1:2:0:0:
420,124,153871,1,0,1:0:0:0:
420,124,153954,1,0,1:0:0:0:
420,124,154036,1,8,0:0:0:0:
348,8,154201,2,0,B|300:28|300:28|280:56|280:56|240:76,1,132.00000402832,2|0,1:2|2:0,0:0:0:0:
200,96,154531,1,0,1:0:0:0:
64,32,154696,1,8,0:0:0:0:
24,176,154860,1,0,0:0:0:0:
192,300,155025,6,0,B|256:280|256:328|320:300,1,132.00000402832,6|0,1:2|2:0,0:0:0:0:
284,236,155355,2,0,P|299:196|284:156,1,88.000002685547,8|0,0:0|2:0,0:0:0:0:
208,20,155685,1,2,1:2:0:0:
208,20,155849,1,0,1:0:0:0:
364,64,156014,6,0,B|406:43|406:43|451:23|474:47,1,120.000004577637,10|0,0:0|0:0,0:0:0:0:
436,200,156344,1,2,1:2:0:0:
364,64,156509,1,0,1:0:0:0:
364,64,156591,1,0,1:0:0:0:
364,64,156674,1,8,0:0:0:0:
256,164,156838,2,0,B|212:136|212:136|196:108|196:108|156:80,1,132.00000402832,2|0,1:2|2:0,0:0:0:0:
124,56,157168,2,0,P|100:96|56:104,1,88.000002685547,2|8,1:2|0:0,0:0:0:0:
4,236,157498,1,2,0:0:0:0:
100,340,157663,6,0,L|208:260,1,132.00000402832,2|0,1:2|2:0,0:0:0:0:
248,320,157992,2,0,L|177:374,1,88.000002685547,12|0,0:0|2:0,0:0:0:0:
16,324,158322,1,2,1:2:0:0:
16,324,158487,1,0,1:0:0:0:
96,176,158652,2,0,L|167:122,1,88.000002685547,8|8,0:0|1:2,0:0:0:0:
296,20,158981,1,2,1:2:0:0:
256,188,159146,1,8,0:0:0:0:
144,36,159311,1,8,0:0:0:0:
316,108,159476,1,0,1:0:0:0:
204,248,159641,5,10,1:2:0:0:
184,288,159723,1,8,0:0:0:0:
188,332,159805,1,8,0:0:0:0:
212,368,159888,1,8,0:0:0:0:
256,380,159970,1,8,0:0:0:0:
300,368,160053,1,8,0:0:0:0:
324,332,160135,1,8,0:0:0:0:
328,288,160218,1,8,0:0:0:0:
306,249,160300,6,0,P|256:213|200:261,1,132.00000402832,6|0,1:2|2:0,0:0:0:0:
129,234,160630,2,0,P|84:234|43:202,1,88.000002685547,8|0,0:0|1:0,0:0:0:0:
12,151,160877,1,0,1:0:0:0:
12,151,160959,1,2,1:2:0:0:
142,86,161124,1,0,1:0:0:0:
30,25,161289,2,0,L|70:110,1,88.000002685547,8|0,0:0|2:0,0:0:0:0:
226,88,161619,6,0,P|184:76|140:86,1,88.000002685547,2|0,1:2|1:0,0:0:0:0:
201,179,161948,1,8,0:0:0:0:
295,30,162113,2,0,L|194:188,1,176.000005371094,2|0,1:2|1:0,0:0:0:0:
274,200,162525,1,0,1:0:0:0:
274,200,162608,2,0,L|328:118,1,88.000002685547,8|0,0:0|2:0,0:0:0:0:
423,271,162937,6,0,B|312:245|348:306|235:279,1,176.000005371094,2|8,1:2|0:0,0:0:0:0:
376,340,163432,1,0,0:0:0:0:
424,188,163597,2,0,P|463:199|497:232,1,88.000002685547,2|0,1:2|1:0,0:0:0:0:
423,271,163844,1,0,1:0:0:0:
423,271,163926,1,8,0:0:0:0:
374,114,164091,1,0,1:0:0:0:
374,114,164174,1,0,1:0:0:0:
374,114,164256,6,0,P|422:102|504:124,2,132.00000402832,6|4|4,1:2|1:2|1:2,0:0:0:0:
283,193,164915,1,2,1:2:0:0:
202,85,165080,1,0,1:0:0:0:
202,85,165163,1,0,1:0:0:0:
202,85,165245,1,8,0:0:0:0:
119,193,165410,1,8,0:0:0:0:
119,193,165492,1,8,0:0:0:0:
119,193,165575,6,0,P|91:274|130:350,1,176.000005371094,6|8,1:2|0:0,0:0:0:0:
258,280,166069,1,0,1:0:0:0:
130,350,166234,1,2,1:2:0:0:
258,280,166399,1,0,1:0:0:0:
258,280,166481,1,0,1:0:0:0:
258,280,166564,2,0,L|168:271,1,88.000002685547,8|0,0:0|1:0,0:0:0:0:
375,124,166893,5,10,0:0:0:0:
381,283,167058,1,10,0:0:0:0:
217,191,167223,1,10,0:0:0:0:
217,191,167718,5,2,1:2:0:0:
375,124,167882,1,8,0:0:0:0:
381,283,168047,1,0,1:0:0:0:
381,283,168130,1,0,1:0:0:0:
381,283,168212,6,0,B|264:259|316:321|201:293,1,176.000005371094,6|8,1:2|0:0,0:0:0:0:
25,295,168707,1,0,1:0:0:0:
175,186,168871,1,10,1:2:0:0:
118,363,169036,1,0,1:0:0:0:
60,186,169201,1,8,0:0:0:0:
210,295,169366,6,0,B|316:321|264:259|381:283,1,176.000005371094,14|0,0:0|1:0,0:0:0:0:
487,295,169860,1,8,0:0:0:0:
337,186,170025,1,8,0:0:0:0:
394,363,170190,1,2,1:2:0:0:
452,186,170355,1,8,0:0:0:0:
394,363,170520,1,8,0:0:0:0:
337,186,170685,1,8,0:0:0:0:
337,186,170767,1,8,0:0:0:0:
337,186,170849,6,0,L|272:76,1,120,4|0,1:2|2:0,0:0:0:0:
252,48,171179,1,8,0:0:0:0:
132,112,171344,1,0,1:0:0:0:
132,112,171426,1,0,1:0:0:0:
132,112,171509,2,0,P|95:96|59:111,1,80,2|0,1:2|1:0,0:0:0:0:
60,256,171838,2,0,B|104:256|104:256|136:272|136:272|176:272,1,120,8|0,0:0|2:0,0:0:0:0:
220,272,172168,5,2,1:2:0:0:
308,164,172333,1,0,1:0:0:0:
396,272,172498,1,8,0:0:0:0:
220,144,172663,1,0,1:0:0:0:
308,252,172827,1,2,1:2:0:0:
396,144,172992,1,0,1:0:0:0:
308,36,173157,1,8,0:0:0:0:
220,144,173322,1,0,1:0:0:0:
220,144,173404,1,0,1:0:0:0:
220,144,173487,6,0,B|180:144|180:144|148:168,1,80,4|0,1:2|2:0,0:0:0:0:
180,304,173816,1,8,0:0:0:0:
308,252,173981,2,0,B|348:252|348:252|380:228,2,80,2|0|2,0:0|1:2|1:2,0:0:0:0:
220,144,174476,1,8,0:0:0:0:
180,304,174641,1,0,0:0:0:0:
20,272,174805,1,2,1:2:0:0:
60,112,174970,1,0,1:0:0:0:
220,144,175135,1,8,0:0:0:0:
180,304,175300,6,0,B|260:276|260:332|336:304,1,160,6|0,1:2|1:0,0:0:0:0:
220,376,175794,1,8,0:0:0:0:
300,232,175959,1,0,1:0:0:0:
300,232,176042,1,0,1:0:0:0:
300,232,176124,2,0,P|324:176|300:124,1,120,4|0,1:2|2:0,0:0:0:0:
264,100,176454,1,8,0:0:0:0:
428,20,176619,2,0,L|348:60,1,80,2|2,0:0|1:2,0:0:0:0:
300,232,176948,5,0,1:0:0:0:
300,232,177113,2,0,L|380:192,1,80,8|0,0:0|2:0,0:0:0:0:
496,132,177443,1,2,1:2:0:0:
380,60,177608,1,0,1:0:0:0:
371,196,177772,2,0,B|400:232|400:232|400:260|400:260|428:296,1,120,8|0,0:0|2:0,0:0:0:0:
452,328,178102,1,2,1:2:0:0:
371,196,178267,1,0,1:0:0:0:
292,328,178432,2,0,B|256:345|256:345|220:328,1,80,8|0,0:0|2:0,0:0:0:0:
84,296,178761,6,0,B|112:260|112:260|112:232|112:232|141:196,1,120,2|0,1:2|2:0,0:0:0:0:
168,164,179091,1,8,0:0:0:0:
256,60,179256,1,0,0:0:0:0:
344,164,179421,2,0,P|359:200|344:236,1,80,2|0,1:2|1:0,0:0:0:0:
167,236,179750,2,0,P|152:200|168:164,1,80,8|0,0:0|2:0,0:0:0:0:
340,40,180080,5,2,1:2:0:0:
256,164,180245,1,0,1:0:0:0:
256,164,180327,1,0,1:0:0:0:
256,164,180410,1,8,0:0:0:0:
172,40,180575,2,0,B|220:12|256:76|256:76|292:12|340:40,1,207.999990478516,6|0,1:2|1:0,0:0:0:0:
500,40,181069,1,8,0:0:0:0:
500,192,181234,1,8,0:0:0:0:
500,192,181316,1,8,0:0:0:0:
500,192,181399,6,0,B|394:163|441:221|320:195,1,160,6|8,1:2|0:0,0:0:0:0:
453,263,181893,1,0,0:0:0:0:
372,127,182058,2,0,P|335:111|299:126,1,80,2|0,1:2|1:0,0:0:0:0:
184,275,182388,2,0,P|220:289|256:273,1,80,8|0,0:0|2:0,0:0:0:0:
125,187,182718,5,2,1:2:0:0:
79,308,182882,1,0,1:0:0:0:
125,187,183047,2,0,P|88:171|52:186,1,80,8|0,0:0|1:0,0:0:0:0:
162,76,183377,2,0,P|206:84|282:52,1,120,2|0,1:2|2:0,0:0:0:0:
303,27,183707,1,8,0:0:0:0:
410,82,183871,1,0,0:0:0:0:
344,180,184036,6,0,P|267:182|200:232,1,160,2|8,1:2|0:0,0:0:0:0:
337,271,184531,1,0,0:0:0:0:
425,169,184696,1,2,1:2:0:0:
460,292,184860,1,0,1:0:0:0:
344,180,185025,2,0,P|329:143|345:107,1,80,8|0,0:0|2:0,0:0:0:0:
460,292,185355,6,0,L|396:360,1,80,2|0,1:2|1:0,0:0:0:0:
204,336,185685,2,0,B|262:321|320:347|320:347|325:324|340:302,1,160,8|2,0:0|1:2,0:0:0:0:
398,149,186179,1,0,1:0:0:0:
335,309,186344,1,8,0:0:0:0:
463,200,186509,1,0,1:0:0:0:
343,96,186674,5,4,1:2:0:0:
320,238,186838,1,0,1:0:0:0:
463,200,187003,2,0,P|488:161|491:117,1,80,8|0,0:0|1:0,0:0:0:0:
343,96,187333,2,0,P|318:135|315:179,1,80,2|8,1:2|0:0,0:0:0:0:
320,238,187580,1,8,0:0:0:0:
320,238,187663,1,8,0:0:0:0:
91,158,187827,6,0,B|149:173|207:147|207:147|212:170|227:192,2,160,6|2|2,1:2|1:2|1:2,0:0:0:0:
235,265,188652,1,2,1:2:0:0:
203,72,188816,1,0,1:0:0:0:
311,131,188981,1,8,0:0:0:0:
222,184,189146,1,2,0:0:0:0:
304,299,189311,6,0,B|395:278|372:330|474:308,1,160,2|8,1:2|0:0,0:0:0:0:
344,366,189805,1,0,1:0:0:0:
425,235,189970,1,2,1:2:0:0:
254,245,190135,1,0,1:2:0:0:
254,245,190218,1,0,1:2:0:0:
254,245,190300,1,8,1:2:0:0:
254,245,190382,1,0,1:2:0:0:
254,245,190465,6,0,B|165:264|188:212|97:233,1,160,6|8,1:2|0:0,0:0:0:0:
35,131,190959,1,8,0:0:0:0:
35,131,191042,1,0,1:0:0:0:
35,131,191124,1,0,1:0:0:0:
256,124,191289,5,10,1:2:0:0:
212,124,191371,1,8,0:0:0:0:
190,85,191454,1,8,0:0:0:0:
212,47,191536,1,8,0:0:0:0:
256,47,191619,1,8,0:0:0:0:
278,85,191701,1,8,0:0:0:0:
380,200,191948,6,0,P|348:276|248:264,1,192,6|0,1:2|2:0,0:0:0:0:
161,258,192608,2,0,P|193:182|293:194,1,192,2|0,0:0|2:0,0:0:0:0:
380,200,193267,1,2,0:0:0:0:
380,200,193432,2,0,L|416:76,2,128,0|2|0,0:0|0:0|0:0,0:0:0:0:
256,328,194421,1,0,0:0:0:0:
256,328,194586,6,0,B|184:328|184:328|136:304|136:304|68:304,1,192,2|0,0:0|2:0,0:0:0:0:
200,252,195245,2,0,B|272:252|272:252|320:276|320:276|388:276,1,192,2|0,0:0|2:0,0:0:0:0:
464,232,195904,1,2,0:0:0:0:
464,232,196069,2,0,B|476:184|476:184|496:164|496:164|504:112,2,128,0|2|0,0:0|0:0|0:0,0:0:0:0:
388,68,197058,1,0,0:0:0:0:
388,68,197223,6,0,P|312:56|232:136,1,192,2|0,0:0|2:0,0:0:0:0:
264,216,197882,2,0,P|201:284|109:278,1,192,2|0,0:0|2:0,0:0:0:0:
52,208,198542,1,2,0:0:0:0:
52,208,198707,2,0,P|8:160|12:100,2,128,0|2|0,0:0|0:0|0:0,0:0:0:0:
208,124,199696,1,0,0:0:0:0:
208,124,199860,2,0,B|240:100|240:100|256:100|256:100|288:72,1,96,2|0,0:0|2:0,0:0:0:0:
320,44,200190,5,14,0:0:0:0:
468,192,200499,2,0,L|383:107,2,120,14|14|14,0:0|0:0|0:0,0:0:0:0:
388,268,201178,1,14,0:0:0:0:
383,107,201343,1,8,0:0:0:0:
260,212,201508,1,8,0:0:0:0:
228,188,201590,1,8,0:0:0:0:
196,164,201673,1,8,0:0:0:0:
164,140,201755,1,8,0:0:0:0:
132,116,201837,5,10,1:2:0:0:
32,216,202002,1,8,0:0:0:0:
32,216,202085,1,8,0:0:0:0:
32,216,202167,1,8,0:0:0:0:
124,324,202332,1,8,0:0:0:0:
124,324,202414,1,8,0:0:0:0:
124,324,202497,6,0,P|160:352|208:344,1,96,2|0,1:2|2:0,0:0:0:0:
235,324,202826,6,0,B|285:348|285:348|322:341|322:341|368:362,1,143.999995605469,6|0,1:2|2:0,0:0:0:0:
368,362,203156,1,2,1:2:0:0:
447,224,203321,1,0,1:0:0:0:
471,359,203486,1,8,0:0:0:0:
345,250,203651,1,0,1:0:0:0:
345,250,203733,1,0,1:0:0:0:
345,250,203815,6,0,P|283:241|246:195,1,120,2|0,1:2|2:0,0:0:0:0:
229,178,204145,2,0,L|108:168,1,120,8|0,0:0|2:0,0:0:0:0:
64,164,204475,1,2,1:2:0:0:
170,76,204640,1,0,1:0:0:0:
154,245,204804,2,0,P|152:290|174:319,1,80,8|0,0:0|1:0,0:0:0:0:
309,340,205134,6,0,B|356:340|378:304|378:304|421:294,1,120,2|0,1:2|2:0,0:0:0:0:
449,284,205464,2,0,B|466:248|466:248|449:212,1,80,8|0,0:0|2:0,0:0:0:0:
388,87,205793,1,2,1:2:0:0:
483,129,205958,1,0,1:0:0:0:
338,209,206123,2,0,B|320:166|320:166|325:138|325:138|306:92,1,120,8|0,0:0|2:0,0:0:0:0:
291,54,206453,5,2,1:2:0:0:
179,192,206618,1,0,1:0:0:0:
93,64,206782,1,8,0:0:0:0:
179,192,206947,1,0,1:0:0:0:
179,192,207030,1,0,1:0:0:0:
179,192,207112,2,0,P|142:205|102:197,1,80,2|0,1:2|1:0,0:0:0:0:
16,69,207442,2,0,P|55:57|93:64,1,80,8|0,0:0|2:0,0:0:0:0:
264,107,207771,6,0,B|185:85|219:135|116:113,1,120,6|0,1:2|2:0,0:0:0:0:
92,63,208101,1,8,0:0:0:0:
41,154,208266,2,0,P|35:192|60:236,1,80,2|2,0:0|1:2,0:0:0:0:
190,266,208596,2,0,P|196:228|171:184,1,80,2|8,1:2|0:0,0:0:0:0:
94,336,208925,1,0,0:0:0:0:
241,326,209090,6,0,L|179:253,1,80,2|0,1:2|1:0,0:0:0:0:
349,171,209420,2,0,L|297:231,1,80,8|0,0:0|1:0,0:0:0:0:
204,191,209749,1,2,1:2:0:0:
280,101,209914,1,0,1:0:0:0:
337,304,210079,2,0,L|388:243,1,80,8|0,0:0|1:0,0:0:0:0:
412,215,210326,1,0,1:0:0:0:
412,215,210409,6,0,P|448:200|484:215,1,80,6|0,1:2|1:0,0:0:0:0:
326,50,210739,1,8,0:0:0:0:
257,177,210903,1,0,1:0:0:0:
186,50,211068,1,2,1:2:0:0:
351,136,211233,1,0,1:0:0:0:
163,131,211398,1,8,0:0:0:0:
257,7,211563,6,0,L|351:136,1,160,6|0,1:2|1:0,0:0:0:0:
423,242,212057,1,8,0:0:0:0:
423,242,212140,1,8,0:0:0:0:
423,242,212222,1,8,0:0:0:0:
341,354,212387,1,2,1:2:0:0:
255,238,212552,1,8,0:0:0:0:
255,238,212634,1,8,0:0:0:0:
255,238,212717,1,8,0:0:0:0:
171,354,212881,1,8,0:0:0:0:
171,354,212964,1,8,0:0:0:0:
171,354,213046,6,0,P|130:369|90:354,1,88.000002685547,6|0,1:2|1:0,0:0:0:0:
24,208,213376,1,8,0:0:0:0:
90,354,213541,1,0,0:0:0:0:
156,208,213706,1,2,1:2:0:0:
90,354,213870,1,0,1:0:0:0:
87,142,214035,6,0,B|119:151|148:111|148:111|174:72,1,120.000004577637,10|0,0:0|0:0,0:0:0:0:
200,40,214282,1,0,1:0:0:0:
200,40,214365,1,2,1:2:0:0:
332,120,214530,1,0,1:0:0:0:
200,200,214695,1,8,0:0:0:0:
364,120,214859,2,0,P|420:120|472:172,1,132.00000402832,2|0,1:2|2:0,0:0:0:0:
480,216,215189,1,0,1:0:0:0:
332,276,215354,1,8,0:0:0:0:
364,120,215519,1,0,0:0:0:0:
216,180,215684,6,0,B|176:152|176:152|160:120|160:120|120:96,1,132.00000402832,6|0,1:2|2:0,0:0:0:0:
84,72,216013,1,8,0:0:0:0:
248,96,216178,1,0,0:0:0:0:
140,228,216343,2,0,B|122:268|122:268|140:308,1,88.000002685547,2|0,1:2|1:0,0:0:0:0:
315,338,216673,6,0,B|347:347|376:307|376:307|402:268,1,120.000004577637,10|0,0:0|0:0,0:0:0:0:
428,236,216920,1,0,1:0:0:0:
428,236,217002,1,2,1:2:0:0:
508,108,217167,1,0,1:0:0:0:
508,108,217249,1,0,1:0:0:0:
508,108,217332,1,8,0:0:0:0:
372,44,217497,1,0,1:0:0:0:
372,44,217579,1,0,1:0:0:0:
372,44,217662,5,2,1:2:0:0:
292,172,217826,1,0,1:0:0:0:
212,44,217991,2,0,P|171:28|131:43,1,88.000002685547,8|0,0:0|2:0,0:0:0:0:
40,196,218321,2,0,L|112:312,1,132.00000402832,4|0,1:2|2:0,0:0:0:0:
136,344,218651,1,8,0:0:0:0:
256,256,218815,1,0,0:0:0:0:
376,344,218980,1,2,1:2:0:0:
256,232,219145,1,0,1:0:0:0:
404,344,219310,6,0,B|436:353|465:313|465:313|491:274,1,120.000004577637,10|0,0:0|0:0,0:0:0:0:
424,124,219640,1,2,1:2:0:0:
491,275,219804,1,0,1:0:0:0:
424,96,219969,1,8,0:0:0:0:
268,204,220134,1,0,1:0:0:0:
268,204,220217,1,0,1:0:0:0:
268,204,220299,2,0,P|244:240|204:256,1,88.000002685547,2|0,1:2|1:0,0:0:0:0:
100,124,220629,2,0,P|124:88|164:72,1,88.000002685547,8|0,0:0|2:0,0:0:0:0:
344,44,220958,6,0,L|236:124,1,132.00000402832,6|0,1:2|2:0,0:0:0:0:
204,148,221288,1,8,0:0:0:0:
76,240,221453,1,0,1:0:0:0:
204,332,221618,1,2,1:2:0:0:
204,148,221782,1,0,1:0:0:0:
52,240,221947,1,8,0:0:0:0:
204,332,222112,6,0,P|256:332|308:276,1,132.00000402832,12|0,0:0|2:0,0:0:0:0:
324,236,222442,1,8,0:0:0:0:
392,88,222607,1,8,0:0:0:0:
392,88,222771,1,0,1:0:0:0:
324,236,222936,1,2,1:2:0:0:
256,88,223101,1,8,0:0:0:0:
256,88,223184,1,8,0:0:0:0:
256,88,223266,1,8,0:0:0:0:
436,200,223431,1,8,0:0:0:0:
436,200,223513,1,8,0:0:0:0:
436,200,223596,6,0,B|409:254|409:254|411:298|411:298|371:358,1,176.000005371094,6|8,1:2|0:0,0:0:0:0:
151,281,224090,2,0,B|254:244|225:315|328:273,1,176.000005371094,2|0,0:0|1:0,0:0:0:0:
194,371,224585,1,8,0:0:0:0:
115,201,224749,1,0,0:0:0:0:
29,366,224914,6,0,L|-3:284,1,88.000002685547,2|0,1:2|1:0,0:0:0:0:
147,119,225244,2,0,L|114:200,1,88.000002685547,8|0,0:0|1:0,0:0:0:0:
255,191,225574,1,2,1:2:0:0:
147,119,225739,1,0,1:0:0:0:
250,26,225903,2,0,L|282:107,1,88.000002685547,8|0,0:0|2:0,0:0:0:0:
399,174,226233,6,0,B|335:176|283:226|283:226|272:198|246:186,1,176.000005371094,6|8,1:2|0:0,0:0:0:0:
171,255,226728,1,0,0:0:0:0:
127,133,226892,1,2,1:2:0:0:
279,122,227057,1,8,0:0:0:0:
279,122,227140,1,8,0:0:0:0:
279,122,227222,2,0,L|188:88,1,88.000002685547,8|0,0:0|1:0,0:0:0:0:
127,133,227469,1,0,1:0:0:0:
127,133,227552,6,0,B|103:168|101:223|101:223|87:211|58:209,2,132.00000402832,6|2|2,1:2|1:2|1:2,0:0:0:0:
54,291,228211,1,2,1:2:0:0:
33,125,228376,1,0,1:0:0:0:
186,192,228541,2,0,L|268:222,1,88.000002685547,8|0,0:0|1:0,0:0:0:0:
465,294,228870,6,0,P|415:287|340:338,1,132.00000402832,4|0,1:2|2:0,0:0:0:0:
327,365,229200,1,8,0:0:0:0:
465,294,229365,2,0,P|475:245|462:199,1,88.000002685547,2|2,1:2|1:2,0:0:0:0:
357,96,229695,1,0,1:0:0:0:
357,96,229777,1,0,1:0:0:0:
357,96,229859,1,8,0:0:0:0:
256,192,230024,1,0,1:0:0:0:
466,208,230189,5,10,0:0:0:0:
326,21,230354,1,10,0:0:0:0:
165,190,230519,1,10,0:0:0:0:
165,190,231013,5,0,1:2:0:0:
165,190,231096,1,0,1:2:0:0:
165,190,231178,2,0,B|159:222|159:222|168:249|168:249|161:286,1,83.9999974365235,8|0,0:0|2:0,0:0:0:0:
85,303,231508,6,0,L|277:294,1,176.000005371094,4|8,1:2|0:0,0:0:0:0:
398,287,232002,1,0,1:0:0:0:
260,294,232167,2,0,P|259:344|282:378,1,88.000002685547,2|0,1:2|1:0,0:0:0:0:
398,287,232497,1,8,0:0:0:0:
316,199,232662,6,0,P|263:179|188:200,1,132.00000402832,6|0,1:2|2:0,0:0:0:0:
164,224,232991,1,8,0:0:0:0:
79,132,233156,1,8,0:0:0:0:
43,253,233321,1,2,0:0:0:0:
167,199,233486,1,2,1:2:0:0:
55,141,233651,1,0,1:0:0:0:
63,267,233815,1,8,0:0:0:0:
101,287,233898,1,8,0:0:0:0:
143,278,233980,1,8,0:0:0:0:
169,244,234063,1,8,0:0:0:0:
167,199,234145,6,0,P|164:144|204:92,1,120,6|0,1:2|2:0,0:0:0:0:
240,68,234475,1,8,0:0:0:0:
240,68,234640,1,0,0:0:0:0:
324,184,234804,2,0,L|244:168,1,80,2|0,1:2|1:0,0:0:0:0:
352,80,235134,2,0,L|471:104,1,120,8|0,0:0|2:0,0:0:0:0:
512,112,235464,5,2,1:2:0:0:
492,248,235629,1,0,1:0:0:0:
356,224,235793,2,0,B|320:207|320:207|284:224,1,80,8|0,0:0|1:0,0:0:0:0:
320,344,236123,1,2,1:2:0:0:
283,224,236288,1,0,1:0:0:0:
172,284,236453,2,0,B|136:252|136:252|128:220|128:220|100:192,1,120,8|0,0:0|2:0,0:0:0:0:
68,160,236782,5,2,1:2:0:0:
161,56,236947,1,0,0:0:0:0:
256,160,237112,2,0,L|312:104,1,80,8|0,0:0|2:0,0:0:0:0:
420,204,237442,2,0,L|364:260,1,80,2|0,1:2|1:0,0:0:0:0:
256,160,237771,1,8,0:0:0:0:
363,260,237936,1,0,0:0:0:0:
392,116,238101,5,2,1:2:0:0:
288,232,238266,1,0,1:0:0:0:
392,116,238431,2,0,P|364:64|304:56,1,120,8|0,0:0|2:0,0:0:0:0:
264,60,238760,1,2,1:2:0:0:
232,200,238925,1,0,1:0:0:0:
136,96,239090,2,0,P|100:112|80:148,1,80,8|0,0:0|2:0,0:0:0:0:
176,250,239420,6,0,P|212:234|232:198,1,80,4|0,1:2|2:0,0:0:0:0:
80,146,239749,1,8,0:0:0:0:
60,304,239914,1,0,0:0:0:0:
152,172,240079,1,2,1:2:0:0:
132,330,240244,1,0,1:0:0:0:
224,200,240409,1,8,0:0:0:0:
204,358,240574,1,0,0:0:0:0:
292,224,240739,6,0,B|352:204|352:248|408:224,1,120,2|0,1:2|2:0,0:0:0:0:
448,224,241068,1,8,0:0:0:0:
320,300,241233,1,0,1:0:0:0:
320,300,241315,1,0,1:0:0:0:
320,300,241398,1,2,1:2:0:0:
380,152,241563,1,0,1:0:0:0:
228,196,241728,2,0,P|180:196|132:248,1,120,8|0,0:0|2:0,0:0:0:0:
140,288,242057,5,2,1:2:0:0:
60,148,242222,1,0,1:0:0:0:
60,148,242304,1,0,1:0:0:0:
60,148,242387,1,8,0:0:0:0:
208,84,242552,1,0,1:0:0:0:
208,84,242634,1,0,1:0:0:0:
208,84,242717,1,2,1:2:0:0:
288,224,242881,1,0,1:0:0:0:
288,224,242964,1,0,1:0:0:0:
288,224,243046,1,8,0:0:0:0:
120,88,243211,1,0,1:0:0:0:
120,88,243293,1,0,1:0:0:0:
120,88,243376,6,0,L|176:196,1,120,2|8,1:2|0:0,0:0:0:0:
196,232,243706,1,8,0:0:0:0:
272,368,243870,1,8,0:0:0:0:
311,366,243953,1,8,0:0:0:0:
348,350,244035,1,10,1:2:0:0:
376,322,244118,1,8,0:0:0:0:
391,285,244200,1,8,0:0:0:0:
315,149,244365,1,8,0:0:0:0:
276,151,244447,1,8,0:0:0:0:
239,167,244530,1,8,0:0:0:0:
211,195,244612,1,8,0:0:0:0:
196,232,244695,6,0,P|160:276|100:276,1,120,6|0,1:2|2:0,0:0:0:0:
60,260,245024,2,0,L|73:156,1,80,12|0,0:0|2:0,0:0:0:0:
196,232,245354,2,0,L|183:336,1,80,2|0,1:2|1:0,0:0:0:0:
325,297,245684,2,0,L|450:320,1,120,8|0,0:0|2:0,0:0:0:0:
494,326,246013,6,0,P|486:280|467:247,1,80,2|0,1:2|1:0,0:0:0:0:
501,139,246343,2,0,P|463:144|426:171,1,80,8|0,0:0|1:0,0:0:0:0:
325,297,246673,2,0,P|365:281|394:241,1,80,2|0,1:2|1:0,0:0:0:0:
353,370,247002,1,8,0:0:0:0:
318,223,247167,1,0,0:0:0:0:
248,319,247332,6,0,L|339:292,1,80,6|0,1:2|1:0,0:0:0:0:
170,261,247662,2,0,L|152:347,1,80,8|0,0:0|2:0,0:0:0:0:
318,223,247991,1,10,1:2:0:0:
275,232,248074,1,8,0:0:0:0:
240,205,248156,1,8,0:0:0:0:
240,161,248239,1,8,0:0:0:0:
275,133,248321,1,8,0:0:0:0:
318,143,248403,1,8,0:0:0:0:
337,183,248486,1,8,0:0:0:0:
186,82,248651,6,0,B|107:67|135:104|62:90,2,120,6|0|0,1:2|1:0|1:0,0:0:0:0:
87,23,249310,1,2,1:2:0:0:
153,160,249475,1,0,1:0:0:0:
235,18,249640,1,8,0:0:0:0:
87,23,249804,1,0,1:0:0:0:
153,160,249969,2,0,P|194:150|225:115,1,80,6|8,1:2|0:0,0:0:0:0:
312,37,250299,2,0,L|229:16,1,80,8|0,0:0|1:0,0:0:0:0:
301,131,250629,2,0,L|429:171,1,120,2|0,1:2|2:0,0:0:0:0:
448,182,250958,2,0,P|451:225|431:262,1,80,8|0,0:0|1:0,0:0:0:0:
319,349,251288,5,10,0:0:0:0:
435,257,251453,1,8,1:2:0:0:
319,349,251618,2,0,P|265:334|202:360,1,120,10|0,0:0|2:0,0:0:0:0:
135,363,251947,2,0,L|114:281,1,80,2|0,1:2|1:0,0:0:0:0:
16,173,252277,2,0,P|70:188|133:162,1,120,8|0,0:0|2:0,0:0:0:0:
200,159,252607,6,0,L|221:241,1,80,6|0,1:2|2:0,0:0:0:0:
287,47,252936,1,8,0:0:0:0:
283,190,253101,1,2,0:0:0:0:
203,71,253266,1,2,1:2:0:0:
331,116,253431,1,0,1:0:0:0:
200,159,253596,1,8,0:0:0:0:
287,47,253760,6,0,P|370:45|417:113,1,160,6|0,1:2|1:0,0:0:0:0:
395,243,254255,1,8,0:0:0:0:
331,116,254420,1,8,0:0:0:0:
331,116,254502,1,8,0:0:0:0:
331,116,254585,1,2,1:2:0:0:
215,66,254749,1,0,1:0:0:0:
214,194,254914,1,8,0:0:0:0:
331,116,255079,1,0,1:0:0:0:
0,231,255244,86,0,B|44:193|95:204|95:204|136:185|168:197|168:197|202:132|299:163|362:196|389:210|389:210|403:190|428:171|428:171|481:130|442:53|404:52|360:83|360:83|302:62|260:80|216:177|380:253|370:327|318:340|268:340|268:340|236:370|200:368|178:316|178:316|185:281|163:236|101:272|101:272|26:246|21:321|53:370|99:358|118:390|118:390|126:354|170:366|219:262|227:226|227:226|252:246|284:228|390:298|390:298|444:251|552:214|556:117|504:-52|352:13|352:13|304:2|252:35,1,2393.99993607331,6|2,1:2|0:0,0:0:0:0:
