osu file format v14

[General]
AudioFilename: audio.mp3
AudioLeadIn: 0
PreviewTime: 54989
Countdown: 0
SampleSet: Soft
StackLeniency: 0.7
Mode: 0
LetterboxInBreaks: 0
WidescreenStoryboard: 1

[Editor]
DistanceSpacing: 1.3
BeatDivisor: 4
GridSize: 32
TimelineZoom: 0.8999996

[Metadata]
Title:Don't think,Smile!! (TV Size)
TitleUnicode:Don't think,スマイル!! (TV Size)
Artist:KiRaRe
ArtistUnicode:KiRaRe
Creator:_kotachi_
Version:Akitoshi's Hard
Source:Re:ステージ! ドリームデイズ♪
Tags:Re:ステージ!プリズムステップ re:stage! prism step restage dream days rst japanese video game anime キラリ 式宮舞菜 Shikimiya Mana 月坂紗由 Tsukisaka Sayu 市杵島瑞葉 Ichikishima Mizuha 柊かえ Hiiragi Kae 本城香澄 Honjou Kasumi 長谷川みい Hasegawa Mii 牧野天音 Makino Amane 鬼頭明里 Kitou Akari 田澤茉純 Tazawa Masumi 立花芽恵夢 Tachibana Meemu 岩橋由佳 Iwahashi Yuka 空見ゆき Sorami Yuki yotm Akitoshi Hinsvar Reillia -Brethia
BeatmapID:2265728
BeatmapSetID:1065902

[Difficulty]
HPDrainRate:5
CircleSize:3.5
OverallDifficulty:6
ApproachRate:7.8
SliderMultiplier:1.4
SliderTickRate:1

[Events]
//Background and Video events
0,0,"BG.jpg",0,0
//Break Periods
//Storyboard Layer 0 (Background)
//Storyboard Layer 1 (Fail)
//Storyboard Layer 2 (Pass)
//Storyboard Layer 3 (Foreground)
//Storyboard Layer 4 (Overlay)
//Storyboard Sound Samples

[TimingPoints]
-134,346.820809248555,4,2,1,50,1,0
1253,-166.666666666667,4,2,1,50,0,0
7496,-100,4,2,1,50,0,0
8016,-100,4,2,1,70,0,0
8536,-100,4,2,1,70,0,0
14692,-100,4,2,1,70,0,0
14779,-100,4,2,1,70,0,0
15819,-100,4,2,2,70,0,0
16513,-125,4,2,1,60,0,0
26744,-125,4,2,2,60,0,0
26831,-125,4,2,1,5,0,0
27091,-125,4,2,1,60,0,0
27438,-111.111111111111,4,2,1,60,0,0
34027,-111.111111111111,4,2,2,60,0,0
34201,-111.111111111111,4,2,1,60,0,0
35415,-111.111111111111,4,2,2,60,0,0
35588,-111.111111111111,4,2,1,60,0,0
37149,-111.111111111111,4,2,2,60,0,0
37322,-111.111111111111,4,2,1,60,0,0
38709,-100,4,2,1,70,0,0
46339,-100,4,2,1,70,0,0
47207,-100,4,2,1,70,0,0
47293,-100,4,2,1,70,0,0
47467,-100,4,2,1,70,0,0
47553,-100,4,2,2,70,0,0
47813,-100,4,2,1,70,0,0
48247,-100,4,2,1,70,0,0
48767,-100,4,2,1,70,0,0
55183,-90.9090909090909,4,2,1,75,0,1
69143,-90.9090909090909,4,2,1,5,0,1
69230,-90.9090909090909,4,2,1,75,0,1
80155,-100,4,2,1,70,0,0
80675,-100,4,2,1,70,0,0
81368,-100,4,2,1,70,0,0
85877,-100,4,2,2,70,0,0
86050,-100,4,2,1,70,0,0
88478,-100,4,2,1,70,0,0
88825,-100,4,2,1,5,0,0

[Colours]
Combo1 : 153,201,21
Combo2 : 247,153,8
Combo3 : 20,178,239
Combo4 : 236,67,19
Combo5 : 235,75,156
Combo6 : 184,141,199

[HitObjects]
68,187,1253,6,0,B|236:204|236:204|194:180|176:128,1,251.999992309571,2|0,0:0|0:0,0:0:0:0:
182,143,2640,6,0,B|311:112|293:219|435:162,1,251.999992309571,2|0,0:0|0:0,0:0:0:0:
423,166,4027,6,0,B|399:118|345:121|345:121|286:199|351:273,1,251.999992309571,2|0,0:0|0:0,0:0:0:0:
343,263,5415,6,0,B|294:283|243:279|243:279|208:322|208:322|157:318|112:344,1,251.999992309571,2|0,0:0|0:0,0:0:0:0:
8,277,6802,5,2,0:0:0:0:
8,277,7496,2,0,L|0:229,4,35,8|0|0|8|0,0:3|0:0|3:0|0:0|0:0,0:0:0:0:
83,327,8016,6,0,B|132:314|132:314|155:289|155:289|215:274,1,140,12|2,0:1|0:0,0:0:0:0:
296,249,8536,2,0,P|297:205|287:176,1,70,8|0,0:0|0:0,0:0:0:0:
202,151,8883,2,0,P|201:107|211:78,1,70,10|2,0:1|0:0,0:0:0:0:
260,7,9230,1,8,0:0:0:0:
344,41,9403,6,0,P|384:80|466:68,1,140,2|2,0:0|0:0,0:0:0:0:
506,150,9923,1,8,0:0:0:0:
431,202,10097,2,0,P|439:245|445:277,1,70,2|8,0:0|0:1,0:0:0:0:
396,350,10444,1,2,0:0:0:0:
358,267,10617,1,8,0:0:0:0:
281,316,10790,6,0,B|204:304|219:342|141:335,1,140,2|2,0:0|0:0,0:0:0:0:
65,289,11311,2,0,P|73:254|66:216,1,70,10|0,0:0|0:0,0:0:0:0:
17,144,11657,1,10,0:1:0:0:
101,108,11831,2,0,P|135:113|169:105,1,70,2|8,0:0|0:0,0:0:0:0:
235,42,12178,6,0,B|203:81|203:81|234:170,1,140,2|0,0:0|0:0,0:0:0:0:
308,215,12698,1,8,0:0:0:0:
367,146,12871,2,0,P|419:155|441:161,1,70,2|8,0:0|0:1,0:0:0:0:
490,245,13218,1,10,0:0:0:0:
490,245,13305,1,8,0:0:0:0:
490,245,13392,2,0,L|479:288,3,35,10|8|8|4,0:0|0:0|0:3|0:3,0:0:0:0:
474,313,13738,6,0,B|419:320|419:320|398:343|398:343|339:355,1,140,12|8,0:1|0:0,0:0:0:0:
254,364,14259,2,0,P|226:320|250:235,1,140,8|8,0:0|0:3,0:0:0:0:
314,178,14779,1,8,0:0:0:0:
314,178,14952,6,0,P|307:131|303:106,1,70,0|4,3:0|0:3,0:0:0:0:
216,80,15299,2,0,P|210:114|205:149,1,70,8|8,0:0|0:1,0:0:0:0:
118,178,15646,2,0,P|112:143|107:108,1,70,0|8,1:0|1:2,0:0:0:0:
35,212,15993,1,8,1:3:0:0:
100,275,16166,1,8,1:0:0:0:
187,249,16339,1,4,1:3:0:0:
229,169,16513,6,0,P|274:171|352:213,1,112,12|0,0:1|3:0,0:0:0:0:
392,258,17033,2,0,P|437:256|515:214,1,112,8|0,1:0|3:1,0:0:0:0:
506,145,17553,2,0,P|495:94|480:32,1,112,0|0,1:0|0:0,0:0:0:0:
400,10,18074,2,0,P|386:64|374:119,1,112,8|0,1:0|3:0,0:0:0:0:
305,163,18594,5,0,1:0:0:0:
305,163,18767,1,0,0:0:0:0:
232,120,18941,2,0,P|199:122|163:135,1,56,8|0,1:0|3:0,0:0:0:0:
104,170,19287,6,0,B|122:242|122:242|94:283,1,112,8|0,1:0|3:0,0:0:0:0:
39,331,19808,2,0,P|80:321|154:371,1,112,8|0,1:0|3:0,0:0:0:0:
221,372,20328,2,0,P|246:355|281:349,1,56,0|0,1:0|3:0,0:0:0:0:
358,342,20675,5,0,3:0:0:0:
358,342,20848,2,0,P|346:275|335:226,1,112,8|0,1:0|3:0,0:0:0:0:
286,164,21368,2,0,P|278:133|285:97,1,56,8|0,1:0|0:0,0:0:0:0:
364,100,21715,2,0,P|371:126|369:154,1,56,0|0,1:0|3:0,0:0:0:0:
336,232,22062,6,0,P|288:212|228:226,1,112,8|0,1:0|3:0,0:0:0:0:
159,268,22582,2,0,P|111:288|51:274,1,112,8|0,1:0|3:0,0:0:0:0:
4,207,23102,2,0,P|12:148|21:91,1,112,0|0,1:0|3:0,0:0:0:0:
97,62,23623,2,0,P|105:117|113:172,1,112,8|0,1:0|3:0,0:0:0:0:
168,243,24143,5,0,1:0:0:0:
168,243,24316,1,0,0:0:0:0:
245,210,24490,2,0,P|250:184|245:148,1,56,8|0,1:0|3:0,0:0:0:0:
225,73,24837,6,0,P|283:64|350:50,1,112,8|0,1:0|3:0,0:0:0:0:
406,99,25357,2,0,P|385:144|407:204,1,112,8|0,1:0|3:0,0:0:0:0:
467,255,25877,1,0,1:0:0:0:
392,293,26050,6,0,P|344:288|314:286,1,56,0|4,3:0|0:3,0:0:0:0:
252,281,26397,1,0,1:0:0:0:
252,281,26571,1,8,0:0:0:0:
175,316,26744,2,0,P|163:349|159:377,1,56,12|0,0:1|0:0,0:0:0:0:
76,382,27091,2,0,P|70:354|60:328,1,56,12|2,0:0|0:0,0:0:0:0:
4,259,27438,6,0,P|13:205|29:131,1,125.999996154785,12|10,0:1|0:1,0:0:0:0:
109,101,27958,2,0,P|125:144|125:170,1,62.9999980773926,8|0,0:0|0:0,0:0:0:0:
211,198,28305,1,10,0:1:0:0:
211,198,28478,2,0,P|214:166|227:138,1,62.9999980773926,10|8,0:1|0:0,0:0:0:0:
304,93,28825,6,0,P|339:97|380:105,1,62.9999980773926,10|0,0:1|0:0,0:0:0:0:
398,184,29172,2,0,P|363:188|322:196,1,62.9999980773926,10|8,0:1|0:0,0:0:0:0:
304,275,29519,2,0,P|339:279|380:287,1,62.9999980773926,10|0,0:1|0:0,0:0:0:0:
398,366,29866,2,0,P|363:370|322:378,1,62.9999980773926,10|8,0:1|0:0,0:0:0:0:
249,359,30212,6,0,P|199:326|128:339,1,125.999996154785,10|10,0:1|0:1,0:0:0:0:
50,360,30733,2,0,P|37:317|34:293,1,62.9999980773926,8|2,0:0|0:0,0:0:0:0:
41,211,31079,1,10,0:1:0:0:
127,194,31253,2,0,P|140:151|143:127,1,62.9999980773926,10|8,0:1|0:0,0:0:0:0:
224,100,31600,6,0,P|229:131|239:160,1,62.9999980773926,10|0,0:1|0:0,0:0:0:0:
290,232,31946,1,10,0:1:0:0:
371,193,32120,1,8,0:0:0:0:
371,193,32293,2,0,P|417:191|455:208,1,62.9999980773926,0|10,0:0|0:1,0:0:0:0:
432,284,32640,2,0,P|401:290|370:286,1,62.9999980773926,10|8,0:1|0:0,0:0:0:0:
283,268,32987,6,0,B|272:221|272:221|279:197|279:197|265:139,1,125.999996154785,12|8,0:1|0:1,0:0:0:0:
234,65,33507,2,0,P|203:71|172:68,1,62.9999980773926,8|10,0:0|0:1,0:0:0:0:
90,48,33854,1,8,0:0:0:0:
90,48,34027,2,0,P|81:87|76:112,1,62.9999980773926,12|0,0:1|0:0,0:0:0:0:
6,164,34374,6,0,B|17:211|17:211|10:235|10:235|24:293,1,125.999996154785,12|8,0:1|0:1,0:0:0:0:
40,372,34894,2,0,P|78:376|110:367,1,62.9999980773926,8|10,0:0|0:1,0:0:0:0:
175,321,35241,1,8,0:0:0:0:
175,321,35415,2,0,P|181:281|185:255,1,62.9999980773926,12|0,0:1|0:0,0:0:0:0:
196,171,35761,6,0,B|266:159|255:203|332:189,1,125.999996154785,12|8,0:1|0:1,0:0:0:0:
383,130,36282,2,0,P|388:94|393:65,1,62.9999980773926,8|0,0:0|0:0,0:0:0:0:
474,34,36629,2,0,P|479:65|483:96,1,62.9999980773926,8|10,0:1|0:1,0:0:0:0:
500,182,36975,1,8,0:0:0:0:
424,228,37149,6,0,B|385:235|349:211|349:211|329:227|295:228,1,125.999996154785,12|8,0:1|0:1,0:0:0:0:
225,188,37669,1,8,0:0:0:0:
138,206,37842,2,0,P|130:246|130:276,1,62.9999980773926,10|8,0:1|0:0,0:0:0:0:
66,337,38189,1,8,0:1:0:0:
62,326,38276,1,8,0:0:0:0:
58,315,38363,2,0,L|42:262,3,31.4999990386963,8|8|4|4,0:3|0:3|0:3|0:3,0:0:0:0:
38,252,38709,6,0,P|58:202|51:131,2,105,12|8|10,0:1|0:0|0:0,0:0:0:0:
129,268,39403,2,0,P|150:317|142:389,2,105,10|10|10,0:1|0:0|0:0,0:0:0:0:
175,189,40097,6,0,P|215:201|288:175,1,105,10|8,0:1|0:0,0:0:0:0:
300,160,40444,2,0,P|297:123|293:89,1,70,8|10,0:1|0:0,0:0:0:0:
226,28,40790,2,0,B|195:53|195:53|114:33,1,105,10|10,0:1|0:0,0:0:0:0:
103,16,41137,2,0,P|68:24|27:36,1,70,10|10,0:1|0:0,0:0:0:0:
10,121,41484,6,0,P|7:170|3:226,2,105,10|8|10,0:1|0:0|0:0,0:0:0:0:
101,123,42178,2,0,P|113:172|94:228,2,105,10|10|10,0:1|0:0|0:0,0:0:0:0:
131,37,42871,6,0,P|180:52|231:40,1,105,10|8,0:1|0:0,0:0:0:0:
261,23,43218,2,0,P|297:27|337:33,1,70,10|8,0:1|0:0,0:0:0:0:
399,92,43565,1,10,0:1:0:0:
332,151,43738,1,2,0:0:0:0:
332,151,43825,1,8,0:0:0:0:
332,151,43912,2,0,L|341:207,3,35,10|2|10|10,0:1|0:0|0:0|0:0,0:0:0:0:
357,214,44259,6,0,B|336:277|336:277|348:288|366:333,2,105,12|8|8,0:1|0:0|0:0,0:0:0:0:
443,240,44952,2,0,P|472:278|480:342,1,105,10|10,0:1|0:0,0:0:0:0:
477,368,45299,2,0,P|434:373|403:380,1,70,10|10,0:1|0:0,0:0:0:0:
316,378,45646,6,0,P|273:371|202:358,2,105,10|8|10,0:1|0:0|0:0,0:0:0:0:
347,292,46339,2,0,P|292:247|198:257,1,140,8|8,0:0|0:1,0:0:0:0:
142,283,46860,1,10,0:0:0:0:
142,283,46946,1,2,0:0:0:0:
142,283,47033,6,0,P|126:222|125:193,1,70,14|8,0:1|0:0,0:0:0:0:
97,193,47293,2,0,P|113:132|114:103,1,70,8|0,0:1|0:0,0:0:0:0:
113,90,47553,2,0,P|170:119|239:83,1,140,12|8,0:1|0:3,0:0:0:0:
299,24,48074,1,4,0:3:0:0:
370,80,48247,6,0,P|356:142|343:218,1,140,12|8,0:1|0:1,0:0:0:0:
269,271,48767,2,0,P|232:278|197:272,1,70,8|8,0:0|0:1,0:0:0:0:
320,345,49114,2,0,P|354:340|388:347,1,70,8|10,0:0|0:1,0:0:0:0:
476,371,49461,1,8,0:0:0:0:
510,286,49634,6,0,P|499:213|486:138,1,140,10|10,0:1|0:1,0:0:0:0:
417,89,50155,2,0,P|397:133|398:165,1,70,8|10,0:0|0:1,0:0:0:0:
309,180,50501,2,0,P|305:145|288:114,1,70,8|0,0:0|0:0,0:0:0:0:
218,55,50848,1,8,0:0:0:0:
134,91,51022,6,0,B|112:170|112:170|132:192|141:231,1,140,10|10,0:1|0:1,0:0:0:0:
96,302,51542,2,0,P|60:314|25:315,1,70,8|10,0:0|0:1,0:0:0:0:
173,361,51889,1,8,0:0:0:0:
173,361,52062,2,0,P|207:362|240:374,1,70,2|8,0:1|0:0,0:0:0:0:
328,347,52409,6,0,B|337:296|337:296|324:263|324:263|336:198,1,140,12|0,0:1|1:0,0:0:0:0:
351,121,52929,1,8,1:0:0:0:
426,171,53102,1,8,1:0:0:0:
485,103,53276,1,0,1:0:0:0:
485,103,53363,1,0,1:0:0:0:
485,103,53449,2,0,L|471:56,3,35,8|8|0|2,0:3|0:1|1:0|0:0,0:0:0:0:
472,34,53796,6,0,B|388:15|388:15|372:34|319:44,1,140,12|10,0:1|0:1,0:0:0:0:
250,23,54316,1,12,0:0:0:0:
197,99,54490,1,0,1:0:0:0:
197,99,54576,1,0,1:0:0:0:
197,99,54663,2,0,P|203:140|207:169,1,70,8|0,0:0|1:0,0:0:0:0:
278,241,55010,1,8,1:2:0:0:
278,241,55097,1,8,1:2:0:0:
278,241,55183,6,0,B|361:224|361:224|399:232|415:273,1,154.000004699707,12|2,0:1|0:0,0:0:0:0:
378,361,55704,2,0,P|323:350|289:343,1,77.0000023498536,8|2,0:0|0:0,0:0:0:0:
208,313,56050,1,10,0:1:0:0:
278,241,56224,2,0,P|283:203|271:158,1,77.0000023498536,2|8,0:1|0:0,0:0:0:0:
218,82,56571,1,2,0:0:0:0:
124,116,56744,6,0,P|117:160|111:196,1,77.0000023498536,10|2,0:1|0:0,0:0:0:0:
19,109,57091,1,8,0:0:0:0:
72,24,57264,2,0,P|110:11|153:16,1,77.0000023498536,2|8,0:0|0:1,0:0:0:0:
241,59,57611,1,2,0:0:0:0:
241,59,57785,1,8,0:0:0:0:
222,157,57958,6,0,P|302:145|389:132,1,154.000004699707,2|2,0:0|0:0,0:0:0:0:
464,178,58478,2,0,P|451:216|449:261,1,77.0000023498536,8|2,0:0|0:0,0:0:0:0:
365,305,58825,1,10,0:1:0:0:
365,305,58998,2,0,P|361:266|350:230,1,77.0000023498536,2|8,0:0|0:0,0:0:0:0:
294,146,59345,1,2,0:0:0:0:
204,191,59519,6,0,P|164:186|117:180,1,77.0000023498536,10|2,0:1|0:0,0:0:0:0:
27,169,59866,1,8,0:0:0:0:
59,74,60039,2,0,P|104:47|202:67,1,154.000004699707,2|2,0:0|0:0,0:0:0:0:
285,117,60559,1,8,0:0:0:0:
314,20,60733,1,2,0:0:0:0:
405,60,60906,6,0,P|415:120|427:189,1,115.50000352478,12|0,0:1|0:0,0:0:0:0:
448,204,61253,2,0,P|441:242|433:287,1,77.0000023498536,8|2,0:0|0:0,0:0:0:0:
339,309,61600,2,0,P|291:284|225:307,1,115.50000352478,10|2,0:1|0:0,0:0:0:0:
200,317,61946,2,0,P|158:316|119:296,1,77.0000023498536,8|2,0:0|0:0,0:0:0:0:
58,227,62293,5,10,0:1:0:0:
137,164,62467,1,0,0:0:0:0:
137,164,62553,1,2,0:0:0:0:
137,164,62640,2,0,P|177:169|234:176,1,77.0000023498536,8|2,0:0|0:0,0:0:0:0:
313,183,62987,1,10,0:1:0:0:
396,126,63160,1,0,0:0:0:0:
396,126,63247,1,2,0:0:0:0:
396,126,63334,2,0,P|390:75|373:46,1,77.0000023498536,8|2,0:0|0:0,0:0:0:0:
285,13,63681,6,0,P|278:55|271:103,1,77.0000023498536,8|2,0:1|0:0,0:0:0:0:
213,173,64027,1,12,0:0:0:0:
157,89,64201,2,0,P|70:88|8:142,1,154.000004699707,0|2,0:0|0:0,0:0:0:0:
4,225,64721,1,8,0:0:0:0:
69,300,64894,6,0,P|135:283|225:268,1,154.000004699707,0|8,0:0|0:0,0:0:0:0:
319,256,65415,1,12,0:0:0:0:
268,170,65588,1,0,1:0:0:0:
268,170,65675,1,0,1:0:0:0:
268,170,65761,2,0,P|276:124|282:86,1,77.0000023498536,8|2,0:0|0:0,0:0:0:0:
356,27,66108,1,4,0:3:0:0:
450,85,66282,1,8,0:0:0:0:
450,85,66368,1,8,0:0:0:0:
450,85,66455,6,0,B|462:122|462:122|451:165,1,77.0000023498536,12|0,0:1|0:0,0:0:0:0:
424,255,66802,2,0,P|472:265|509:273,1,77.0000023498536,8|2,0:0|0:0,0:0:0:0:
392,359,67149,1,8,0:1:0:0:
313,297,67322,2,0,P|265:307|228:315,1,77.0000023498536,2|8,0:0|0:0,0:0:0:0:
139,333,67669,1,2,0:0:0:0:
60,271,67842,6,0,P|51:230|66:185,1,77.0000023498536,8|2,0:1|0:0,0:0:0:0:
115,113,68189,1,8,0:0:0:0:
212,137,68363,2,0,P|218:178|224:221,1,77.0000023498536,2|10,0:0|0:1,0:0:0:0:
238,313,68709,1,8,0:0:0:0:
324,363,68883,2,0,P|370:329|432:330,1,115.50000352478,8|0,0:0|0:0,0:0:0:0:
463,340,69230,5,12,0:0:0:0:
494,229,69403,1,10,0:1:0:0:
494,229,69750,2,0,B|403:213|403:213|384:237|348:255,1,154.000004699707,12|0,1:2|1:0,0:0:0:0:
255,259,70270,1,8,0:0:0:0:
179,192,70444,6,0,P|129:169|35:218,1,154.000004699707,12|8,0:1|0:1,0:0:0:0:
27,304,70964,1,10,0:0:0:0:
118,263,71137,1,2,0:0:0:0:
146,359,71311,2,0,P|195:348|240:338,1,77.0000023498536,8|0,0:3|0:1,0:0:0:0:
317,314,71657,1,4,0:3:0:0:
271,236,71831,1,8,0:0:0:0:
271,236,71918,1,8,0:0:0:0:
271,236,72004,6,0,P|278:194|287:136,1,77.0000023498536,12|2,0:1|0:0,0:0:0:0:
337,75,72351,1,12,0:0:0:0:
430,109,72524,2,0,P|464:177|454:263,1,154.000004699707,2|2,0:0|0:0,0:0:0:0:
413,343,73045,1,8,0:0:0:0:
317,314,73218,6,0,P|235:325|154:337,1,154.000004699707,2|2,0:0|0:0,0:0:0:0:
64,347,73738,1,8,0:0:0:0:
89,249,73912,2,0,P|128:228|169:222,1,77.0000023498536,2|8,0:0|0:1,0:0:0:0:
260,220,74259,1,2,0:0:0:0:
209,133,74432,1,10,0:0:0:0:
308,127,74605,6,0,P|368:150|454:111,1,154.000004699707,2|2,0:0|0:0,0:0:0:0:
433,18,75126,2,0,P|391:24|354:30,1,77.0000023498536,10|2,0:0|0:0,0:0:0:0:
257,41,75472,1,10,0:1:0:0:
308,127,75646,1,2,0:0:0:0:
219,173,75819,2,0,P|157:174|118:154,1,77.0000023498536,10|2,0:0|0:0,0:0:0:0:
47,140,76166,6,0,P|32:189|25:220,1,77.0000023498536,10|2,0:1|0:0,0:0:0:0:
6,312,76513,1,8,0:0:0:0:
103,292,76686,2,0,P|140:283|178:288,1,77.0000023498536,2|8,0:0|0:1,0:0:0:0:
265,337,77033,1,8,0:3:0:0:
334,264,77207,2,0,L|326:219,3,38.5000011749268,12|8|4|8,0:0|0:3|0:3|0:1,0:0:0:0:
318,188,77553,6,0,P|372:191|426:117,1,154.000004699707,12|8,1:0|0:1,0:0:0:0:
366,34,78074,2,0,P|312:31|258:105,1,154.000004699707,12|4,0:0|0:3,0:0:0:0:
158,115,78594,6,0,P|104:112|50:186,1,154.000004699707,12|8,0:0|0:1,0:0:0:0:
110,269,79115,2,0,P|183:262|217:197,1,154.000004699707,12|8,0:0|0:0,0:0:0:0:
258,105,79634,6,0,P|294:100|336:96,1,77.0000023498536,4|0,1:2|1:0,0:0:0:0:
434,82,79981,1,8,1:2:0:0:
480,160,80155,6,0,B|451:225|451:225|479:255|485:298,1,140,12|2,0:1|0:0,0:0:0:0:
418,350,80675,2,0,P|375:350|343:337,1,70,12|0,0:0|0:0,0:0:0:0:
264,373,81022,2,0,P|242:335|237:301,1,70,10|0,0:1|0:0,0:0:0:0:
154,274,81368,2,0,P|175:236|202:215,1,70,8|0,0:0|0:0,0:0:0:0:
281,183,81715,5,8,0:1:0:0:
281,183,81889,1,2,0:0:0:0:
208,127,82062,2,0,P|152:120|119:115,1,70,8|2,0:0|0:0,0:0:0:0:
48,102,82409,1,8,0:1:0:0:
102,29,82582,2,0,P|138:20|176:21,1,70,2|8,0:0|0:0,0:0:0:0:
257,49,82929,6,0,B|307:42|307:42|339:17|339:17|399:9,1,140,2|2,0:0|0:0,0:0:0:0:
469,51,83449,2,0,B|446:122|446:122|470:138|482:177,1,140,10|8,0:0|0:1,0:0:0:0:
447,262,83970,1,2,0:0:0:0:
447,262,84143,2,0,P|407:254|370:249,1,70,8|2,0:0|0:0,0:0:0:0:
286,247,84490,6,0,P|272:285|276:320,1,70,8|2,0:1|0:0,0:0:0:0:
189,339,84837,1,8,0:0:0:0:
189,339,85010,2,0,P|190:304|177:272,1,70,2|8,3:2|0:1,0:0:0:0:
102,219,85357,2,0,P|112:159|126:71,1,140,2|0,0:0|0:0,0:0:0:0:
209,46,85877,6,0,B|250:64|250:64|323:42,1,105,12|8,1:1|0:0,0:0:0:0:
341,36,86224,2,0,P|352:79|360:113,1,70,8|8,0:1|0:0,0:0:0:0:
434,153,86571,2,0,P|423:196|415:230,1,70,8|0,0:0|3:0,0:0:0:0:
336,264,86918,6,0,B|294:248|294:248|215:268,1,105,12|8,1:1|0:0,0:0:0:0:
202,273,87264,2,0,P|184:314|180:341,1,70,8|8,0:1|0:0,0:0:0:0:
91,361,87611,2,0,P|84:326|69:295,1,70,8|0,0:0|3:0,0:0:0:0:
18,219,87958,2,0,P|25:182|32:148,1,70,10|2,1:1|1:2,0:0:0:0:
59,63,88305,1,10,1:2:0:0:
124,125,88478,1,12,0:1:0:0:
