osu file format v14

[General]
AudioFilename: audio.mp3
AudioLeadIn: 0
PreviewTime: 127138
Countdown: 0
SampleSet: Soft
StackLeniency: 0.5
Mode: 0
LetterboxInBreaks: 0
WidescreenStoryboard: 0

[Editor]
DistanceSpacing: 3.1
BeatDivisor: 4
GridSize: 4
TimelineZoom: 2.7

[Metadata]
Title:Don't think,Smile!!
TitleUnicode:Don't think,スマイル!!
Artist:KiRaRe
ArtistUnicode:KiRaRe
Creator:-Brethia
Version:DRe:AM START!!
Source:Re:ステージ! ドリームデイズ♪
Tags:Re:ステージ!プリズムステップ re:stage! prism step restage dream days rst pop dont japanese video game anime キラリ 式宮舞菜 Shikimiya Mana 月坂紗由 Tsukisaka Sayu 市杵島瑞葉 Ichikishima Mizuha 柊かえ Hiiragi Kae 本城香澄 Honjou Kasumi 長谷川みい Hasegawa Mii 牧野天音 Makino Amane 鬼頭明里 Kitou Akari 田澤茉純 Tazawa Masumi 立花芽恵夢 Tachibana Meemu 岩橋由佳 Iwahashi Yuka 空見ゆき Sorami Yuki kotachi _kotachi_ newton-
BeatmapID:2327619
BeatmapSetID:1114236

[Difficulty]
HPDrainRate:5
CircleSize:3.8
OverallDifficulty:9
ApproachRate:9.3
SliderMultiplier:1.76
SliderTickRate:1

[Events]
//Background and Video events
0,0,"BG.jpg",0,0
//Break Periods
2,110851,115473
//Storyboard Layer 0 (Background)
//Storyboard Layer 1 (Fail)
//Storyboard Layer 2 (Pass)
//Storyboard Layer 3 (Foreground)
//Storyboard Layer 4 (Overlay)
//Storyboard Sound Samples

[TimingPoints]
-331,346.820809248555,4,2,1,70,1,0
882,-133.333333333333,4,2,1,50,0,0
7299,-100,4,2,1,70,0,0
11374,-100,4,2,1,5,0,0
11460,-100,4,2,1,70,0,0
13541,-100,4,2,2,70,0,0
13715,-100,4,2,1,70,0,0
16316,-133.333333333333,4,2,1,50,0,0
26547,-100,4,2,2,60,0,0
26634,-100,4,2,1,5,0,0
26721,-100,4,2,1,60,0,0
27241,-100,4,2,1,60,0,0
28888,-100,4,2,1,5,0,0
28975,-100,4,2,1,60,0,0
30275,-100,4,2,1,5,0,0
30362,-100,4,2,1,60,0,0
32790,-83.3333333333333,4,2,1,70,0,0
33830,-100,4,2,2,70,0,0
34004,-100,4,2,2,5,0,0
34177,-83.3333333333333,4,2,1,70,0,0
35218,-100,4,2,2,70,0,0
35391,-100,4,2,2,5,0,0
35564,-100,4,2,1,60,0,0
36952,-100,4,2,2,60,0,0
37125,-100,4,2,1,5,0,0
37299,-100,4,2,1,60,0,0
38686,-100,4,2,1,5,0,0
38773,-100,4,2,1,60,0,0
39379,-100,4,2,1,5,0,0
39466,-100,4,2,1,60,0,0
41460,-100,4,2,1,5,0,0
41547,-100,4,2,1,60,0,0
42154,-100,4,2,1,5,0,0
42241,-100,4,2,1,60,0,0
44235,-100,4,2,1,5,0,0
44322,-100,4,2,1,60,0,0
44929,-100,4,2,1,5,0,0
45015,-100,4,2,1,60,0,0
45449,-100,4,2,2,60,0,0
45622,-100,4,2,1,60,0,0
46836,-66.6666666666667,4,2,1,60,0,0
47270,-66.6666666666667,4,2,1,5,0,0
47356,-66.6666666666667,4,2,2,60,0,0
47616,-66.6666666666667,4,2,2,5,0,0
47703,-100,4,2,1,60,0,0
48050,-100,4,2,1,70,0,0
48310,-100,4,2,1,5,0,0
48397,-100,4,2,1,70,0,0
52212,-100,4,2,2,70,0,0
52472,-100,4,2,2,5,0,0
52559,-100,4,2,2,40,0,0
52732,-100,4,2,2,50,0,0
52905,-100,4,2,2,60,0,0
53079,-100,4,2,2,70,0,0
54986,-90.9090909090909,4,2,1,80,0,1
65218,-90.9090909090909,4,2,2,80,0,1
65391,-90.9090909090909,4,2,1,80,0,1
66518,-90.9090909090909,4,2,1,5,0,1
66605,-90.9090909090909,4,2,1,80,0,1
69553,-76.9230769230769,4,2,1,80,0,1
69813,-76.9230769230769,4,2,1,5,0,1
69900,-76.9230769230769,4,2,1,80,0,1
70767,-90.9090909090909,4,2,1,80,0,1
72154,-76.9230769230769,4,2,1,80,0,1
72414,-76.9230769230769,4,2,1,5,0,1
72501,-90.9090909090909,4,2,1,80,0,1
77356,-66.6666666666667,4,2,1,80,0,1
79958,-100,4,2,1,60,0,0
80478,-66.6666666666667,4,2,1,60,0,0
80738,-66.6666666666667,4,2,1,5,0,0
80825,-100,4,2,1,60,0,0
88455,-133.333333333333,4,2,1,50,0,0
97992,-100,4,2,1,50,0,0
98686,-100,4,2,2,50,0,0
99033,-200,4,2,2,50,0,0
99293,-200,4,2,2,5,0,0
99379,-100,4,2,10,60,0,0
99726,-100,4,2,1,60,0,0
100767,-100,4,2,10,60,0,0
100940,-100,4,2,1,60,0,0
101460,-100,4,2,10,60,0,0
101634,-100,4,2,1,60,0,0
102154,-100,4,2,10,60,0,0
102501,-100,4,2,1,60,0,0
104929,-83.3333333333333,4,2,1,70,0,0
107703,-100,4,2,1,60,0,0
109090,-100,4,2,2,60,0,0
109437,-100,4,2,1,60,0,0
110651,-133.333333333333,4,2,1,50,0,0
116374,-133.333333333333,4,2,1,5,0,0
116460,-133.333333333333,4,2,1,50,0,0
116634,-133.333333333333,4,2,1,5,0,0
116721,-133.333333333333,4,2,1,50,0,0
116807,-133.333333333333,4,2,1,5,0,0
116894,-133.333333333333,4,2,1,50,0,0
118975,-66.6666666666667,4,2,1,60,0,0
119408,-66.6666666666667,4,2,1,5,0,0
119495,-66.6666666666667,4,2,2,60,0,0
119755,-66.6666666666667,4,2,2,5,0,0
119842,-100,4,2,1,60,0,0
121229,-100,4,2,2,60,0,0
121576,-100,4,2,1,60,0,0
121836,-100,4,2,1,5,0,0
121923,-83.3333333333333,4,2,1,60,0,0
122010,-83.3333333333333,4,2,1,5,0,0
122096,-83.3333333333333,4,2,1,60,0,0
122270,-83.3333333333333,4,2,1,60,0,0
122356,-83.3333333333333,4,2,1,5,0,0
122443,-83.3333333333333,4,2,1,60,0,0
122963,-100,4,2,1,60,0,0
124351,-83.3333333333333,4,2,1,70,0,0
124611,-83.3333333333333,4,2,1,5,0,0
124697,-100,4,2,1,40,0,0
124784,-100,4,2,1,5,0,0
124871,-76.9230769230769,4,2,1,50,0,0
124958,-76.9230769230769,4,2,1,5,0,0
125044,-66.6666666666667,4,2,1,60,0,0
125131,-66.6666666666667,4,2,1,5,0,0
125218,-66.6666666666667,4,2,1,70,0,0
125304,-66.6666666666667,4,2,1,5,0,0
125391,-66.6666666666667,4,2,1,70,0,0
125564,-100,4,2,1,70,0,0
125738,-83.3333333333333,4,2,1,70,0,0
125998,-83.3333333333333,4,2,1,5,0,0
126085,-83.3333333333333,4,2,1,70,0,0
126432,-58.8235294117647,4,2,1,70,0,0
126605,-76.9230769230769,4,2,1,70,0,0
126692,-76.9230769230769,4,2,1,40,0,0
126778,-71.4285714285714,4,2,1,50,0,0
126952,-66.6666666666667,4,2,1,60,0,0
127125,-83.3333333333333,4,2,1,80,0,1
127472,-90.9090909090909,4,2,1,80,0,1
136229,-90.9090909090909,4,2,1,5,0,1
136316,-90.9090909090909,4,2,1,80,0,1
138657,-90.9090909090909,4,2,1,5,0,1
138744,-90.9090909090909,4,2,1,80,0,1
141692,-76.9230769230769,4,2,1,80,0,1
141952,-76.9230769230769,4,2,1,5,0,1
142038,-76.9230769230769,4,2,1,80,0,1
143079,-90.9090909090909,4,2,1,80,0,1
144293,-76.9230769230769,4,2,1,80,0,1
144553,-76.9230769230769,4,2,1,5,0,1
144640,-90.9090909090909,4,2,1,80,0,1
149495,-66.6666666666667,4,2,1,80,0,1
151576,-66.6666666666667,4,2,2,80,0,1
151749,-66.6666666666667,4,2,1,80,0,1
152096,-111.111111111111,4,2,1,60,0,0
157819,-100,4,2,1,70,0,0
158079,-100,4,2,1,5,0,0
158166,-100,4,2,1,70,0,0
158512,-76.9230769230769,4,2,1,70,0,0
158946,-76.9230769230769,4,2,1,5,0,0
159033,-76.9230769230769,4,2,1,70,0,0
159206,-100,4,2,1,70,0,0
159900,-76.9230769230769,4,2,1,70,0,0
159986,-76.9230769230769,4,2,1,5,0,0
160073,-76.9230769230769,4,2,1,70,0,0
160160,-76.9230769230769,4,2,1,5,0,0
160247,-76.9230769230769,4,2,1,70,0,0
160333,-76.9230769230769,4,2,1,5,0,0
160420,-76.9230769230769,4,2,1,70,0,0
160507,-76.9230769230769,4,2,1,5,0,0
160593,-100,4,2,1,70,0,0
161981,-76.9230769230769,4,2,1,70,0,0
162241,-76.9230769230769,4,2,1,5,0,0
162327,-76.9230769230769,4,2,1,70,0,0
162414,-76.9230769230769,4,2,1,5,0,0
162501,-76.9230769230769,4,2,1,70,0,0
162934,-76.9230769230769,4,2,1,5,0,0
163021,-76.9230769230769,4,2,1,70,0,0
163368,-100,4,2,1,70,0,0
164582,-76.9230769230769,4,2,1,70,0,0
164669,-76.9230769230769,4,2,1,5,0,0
164755,-76.9230769230769,4,2,1,70,0,0
165102,-76.9230769230769,4,2,1,70,0,0
165189,-76.9230769230769,4,2,1,5,0,0
165275,-76.9230769230769,4,2,1,70,0,0
165362,-76.9230769230769,4,2,1,5,0,0
165449,-76.9230769230769,4,2,1,70,0,0
165709,-76.9230769230769,4,2,1,5,0,0
165796,-100,4,2,1,70,0,0
166056,-100,4,2,1,5,0,0
166142,-100,4,2,1,70,0,0
167356,-76.9230769230769,4,2,1,70,0,0
167616,-76.9230769230769,4,2,1,5,0,0
167703,-76.9230769230769,4,2,1,70,0,0
168744,-76.9230769230769,4,2,1,50,0,0
168830,-76.9230769230769,4,2,1,60,0,0
168917,-100,4,2,1,70,0,0
169264,-76.9230769230769,4,2,1,70,0,0
169524,-76.9230769230769,4,2,1,5,0,0
169611,-76.9230769230769,4,2,1,70,0,0
169697,-76.9230769230769,4,2,1,5,0,0
169784,-76.9230769230769,4,2,1,70,0,0
169958,-100,4,2,1,70,0,0
170304,-76.9230769230769,4,2,1,70,0,0
170564,-76.9230769230769,4,2,1,5,0,0
170651,-76.9230769230769,4,2,1,70,0,0
170738,-76.9230769230769,4,2,1,5,0,0
170825,-76.9230769230769,4,2,1,70,0,0
170911,-76.9230769230769,4,2,1,5,0,0
170998,-76.9230769230769,4,2,1,70,0,0
171692,-100,4,2,1,70,0,0
171952,-100,4,2,1,5,0,0
172038,-76.9230769230769,4,2,1,70,0,0
173859,-76.9230769230769,4,2,1,5,0,0
173946,-76.9230769230769,4,2,1,70,0,0
174726,-76.9230769230769,4,2,1,5,0,0
174813,-100,4,2,1,70,0,0
175853,-76.9230769230769,4,2,1,70,0,0
176200,-76.9230769230769,4,2,1,70,0,0
176287,-76.9230769230769,4,2,1,5,0,0
176374,-76.9230769230769,4,2,1,70,0,0
176460,-76.9230769230769,4,2,1,5,0,0
176547,-76.9230769230769,4,2,1,70,0,0
177848,-76.9230769230769,4,2,1,5,0,0
177934,-76.9230769230769,4,2,1,70,0,0
178021,-76.9230769230769,4,2,1,5,0,0
178108,-76.9230769230769,4,2,1,70,0,0
178195,-76.9230769230769,4,2,1,5,0,0
178281,-76.9230769230769,4,2,1,70,0,0
178368,-76.9230769230769,4,2,1,5,0,0
178455,-76.9230769230769,4,2,1,70,0,0
178715,-76.9230769230769,4,2,1,5,0,0
178801,-76.9230769230769,4,2,1,70,0,0
178888,-76.9230769230769,4,2,1,5,0,0
178975,-76.9230769230769,4,2,1,70,0,0
179235,-76.9230769230769,4,2,1,5,0,0
179322,-76.9230769230769,4,2,1,70,0,0
180015,-133.333333333333,4,2,1,50,0,0
188946,-133.333333333333,4,2,1,5,0,0
189033,-133.333333333333,4,2,1,50,0,0
189986,-133.333333333333,4,2,1,5,0,0
190073,-133.333333333333,4,2,1,50,0,0
190247,-83.3333333333333,4,2,1,50,0,0
190507,-83.3333333333333,4,2,1,5,0,0
190593,-83.3333333333333,4,2,1,50,0,0
190767,-100,4,2,1,50,0,0
191027,-100,4,2,1,5,0,0
191114,-133.333333333333,4,2,1,50,0,0
202212,-133.333333333333,4,2,2,50,0,0
202385,-133.333333333333,4,2,1,50,0,0
213310,-111.111111111111,4,2,1,60,0,0
216085,-111.111111111111,4,2,2,60,0,0
216432,-111.111111111111,4,2,1,60,0,0
218859,-166.666666666667,4,2,1,60,0,0
220940,-100,4,2,1,60,0,0
221027,-100,4,2,1,5,0,0
221114,-100,4,2,1,60,0,0
221200,-100,4,2,1,5,0,0
221287,-133.333333333333,4,2,1,60,0,0
223021,-100,4,2,1,60,0,0
224322,-100,4,2,1,5,0,0
224408,-100,4,2,1,60,0,0
226836,346.820809248555,4,2,1,70,1,0
229610,-100,4,2,1,50,0,0
229697,-100,4,2,1,5,0,0
229783,-100,4,2,1,50,0,0
229870,-100,4,2,1,5,0,0
229957,-83.3333333333333,4,2,1,55,0,0
230304,-76.9230769230769,4,2,1,60,0,0
230651,-71.4285714285714,4,2,1,65,0,0
232385,-133.333333333333,4,2,1,70,0,0
232645,-133.333333333333,4,2,1,5,0,0
232731,-66.6666666666667,4,2,1,85,0,1
233078,-83.3333333333333,4,2,1,85,0,1
234986,-200,4,2,1,85,0,1
235506,-66.6666666666667,4,2,1,85,0,1
235766,-66.6666666666667,4,2,1,5,0,1
235853,-83.3333333333333,4,2,1,85,0,1
241315,-83.3333333333333,4,2,1,5,0,1
241402,-83.3333333333333,4,2,1,85,0,1
243483,-66.6666666666667,4,2,1,85,0,1
243743,-66.6666666666667,4,2,1,5,0,1
243830,-83.3333333333333,4,2,1,85,0,1
246604,-66.6666666666667,4,2,1,85,0,1
247038,-66.6666666666667,4,2,1,5,0,1
247125,-66.6666666666667,4,2,1,85,0,1
247385,-66.6666666666667,4,2,1,5,0,1
247471,-66.6666666666667,4,2,1,85,0,1
249032,-83.3333333333333,4,2,1,85,0,1
249379,-66.6666666666667,4,2,1,85,0,1
249639,-66.6666666666667,4,2,1,5,0,1
249726,-83.3333333333333,4,2,1,85,0,1
255968,-83.3333333333333,4,2,2,85,0,1
256142,-83.3333333333333,4,2,1,85,0,1
261518,-66.6666666666667,4,2,1,85,0,1
264119,-90.9090909090909,4,2,1,70,0,0
264639,-66.6666666666667,4,2,1,70,0,0
264899,-66.6666666666667,4,2,1,5,0,0
264986,-90.9090909090909,4,2,1,70,0,0
268627,-90.9090909090909,4,2,1,70,0,0
268714,-90.9090909090909,4,2,1,5,0,0
268801,-90.9090909090909,4,2,1,70,0,0
268888,-90.9090909090909,4,2,1,5,0,0
268974,-90.9090909090909,4,2,1,70,0,0
269321,-90.9090909090909,4,2,1,70,0,0
269408,-90.9090909090909,4,2,1,5,0,0
269494,-66.6666666666667,4,2,1,70,0,0
269755,-66.6666666666667,4,2,1,5,0,0
269841,-90.9090909090909,4,2,1,70,0,0
271489,-90.9090909090909,4,2,1,5,0,0
271575,-90.9090909090909,4,2,1,70,0,0
272616,-83.3333333333333,4,2,1,70,0,0
277992,-76.9230769230769,4,2,1,100,0,0
278859,-100,4,2,1,30,0,0

[Colours]
Combo1 : 138,255,138
Combo2 : 255,181,106
Combo3 : 145,194,255
Combo4 : 255,132,255
Combo5 : 206,157,255
Combo6 : 255,125,125

[HitObjects]
399,97,882,5,2,0:0:0:0:
399,97,1056,2,0,L|405:163,1,66.0000025177003,0|2,0:0|0:0,0:0:0:0:
415,258,1403,2,0,P|382:255|351:266,1,66.0000025177003
285,323,1749,1,2,0:0:0:0:
285,323,1923,2,0,P|254:334|161:274,1,132.000005035401,0|2,0:0|0:0,0:0:0:0:
243,247,2443,5,2,0:0:0:0:
172,199,2616,1,2,0:0:0:0:
169,293,2790,1,2,0:0:0:0:
86,249,2963,2,0,P|48:202|99:167,1,132.000005035401,2|0,0:0|0:0,0:0:0:0:
172,199,3484,1,2,0:0:0:0:
153,95,3657,6,0,L|300:84,1,132.000005035401
372,140,4177,1,2,0:0:0:0:
381,46,4351,1,0,0:0:0:0:
358,152,4524,1,2,0:0:0:0:
460,113,4697,2,0,L|449:266,1,132.000005035401,2|2,0:0|0:0,0:0:0:0:
320,281,5218,5,2,0:0:0:0:
257,176,5391,1,0,0:0:0:0:
236,260,5565,1,2,0:0:0:0:
340,197,5738,1,2,0:0:0:0:
146,184,7299,6,0,L|153:228,1,44,8|0,0:3|0:0,0:0:0:0:
176,318,7472,1,0,1:0:0:0:
176,318,7559,1,0,1:0:0:0:
176,318,7645,1,8,0:0:0:0:
363,83,7819,22,0,B|297:74|297:74|263:96|263:96|194:87,1,176,12|2,0:1|0:0,0:0:0:0:
305,274,8339,2,0,P|318:229|336:191,1,88,8|0,0:0|0:0,0:0:0:0:
487,128,8686,1,10,0:1:0:0:
394,263,8859,1,2,0:0:0:0:
364,83,9033,1,8,0:0:0:0:
482,227,9206,1,2,0:0:0:0:
232,170,9379,5,8,0:1:0:0:
414,176,9553,1,2,0:0:0:0:
283,31,9726,1,8,0:0:0:0:
304,273,9900,1,2,0:0:0:0:
321,172,10073,2,0,P|318:214|311:263,1,88,8|2,0:1|0:0,0:0:0:0:
160,355,10420,2,0,P|153:309|150:267,1,88,8|2,0:0|0:0,0:0:0:0:
119,66,10767,5,8,0:1:0:0:
227,219,10940,1,2,0:0:0:0:
31,165,11114,2,0,B|101:132|92:190|172:152,1,132,8|0,0:0|0:0,0:0:0:0:
173,149,11460,1,10,0:1:0:0:
64,332,11634,2,0,P|70:288|73:244,1,88,2|8,0:1|0:0,0:0:0:0:
22,67,11981,1,2,0:0:0:0:
173,149,12154,6,0,L|264:135,1,88,10|2,0:1|0:0,0:0:0:0:
356,51,12501,1,8,0:0:0:0:
311,259,12674,1,2,0:0:0:0:
259,135,12848,1,4,0:3:0:0:
243,327,13022,1,2,1:0:0:0:
280,349,13108,1,0,1:2:0:0:
323,353,13195,1,10,1:2:0:0:
364,337,13282,1,8,1:2:0:0:
393,305,13368,1,4,0:3:0:0:
356,51,13541,6,0,B|340:93|340:93|360:142,1,88,12|0,0:1|1:0,0:0:0:0:
356,132,13801,1,8,0:0:0:0:
356,132,13888,1,8,0:1:0:0:
451,90,14062,5,8,0:0:0:0:
264,27,14235,1,8,0:1:0:0:
264,27,14322,1,8,0:0:0:0:
264,27,14408,1,8,0:3:0:0:
266,223,14582,22,0,B|282:181|282:181|262:132,1,88,8|0,0:0|0:0,0:0:0:0:
265,141,14842,1,8,0:0:0:0:
265,141,14929,1,8,0:1:0:0:
171,184,15103,5,8,0:0:0:0:
358,247,15276,1,8,0:3:0:0:
358,247,15363,1,8,0:0:0:0:
358,247,15449,1,0,1:0:0:0:
359,22,15622,5,8,0:1:0:0:
307,4,15708,1,8,0:0:0:0:
254,13,15795,1,0,3:3:0:0:
212,48,15882,1,8,0:3:0:0:
192,98,15969,5,8,1:0:0:0:
159,94,16055,1,8,0:3:0:0:
127,91,16142,1,4,0:3:0:0:
90,87,16229,1,8,0:1:0:0:
59,83,16316,54,0,L|70:161,1,66.0000025177003,12|0,0:1|3:0,0:0:0:0:
68,148,16576,1,8,0:0:0:0:
68,148,16663,1,8,0:1:0:0:
209,242,16836,1,8,1:0:0:0:
104,262,17010,85,0,3:0:0:0:
104,262,17096,1,0,3:0:0:0:
104,262,17183,1,0,3:0:0:0:
222,151,17356,2,0,L|308:141,1,66.0000025177003,8|0,0:0|3:0,0:0:0:0:
287,143,17616,1,0,3:0:0:0:
287,143,17703,1,0,3:0:0:0:
401,224,17877,5,8,1:0:0:0:
395,81,18050,2,0,L|390:113,1,33.0000012588501,0|0,3:0|3:0,0:0:0:0:
479,150,18223,2,0,L|483:182,1,33.0000012588501,0|0,3:0|3:0,0:0:0:0:
395,289,18397,2,0,L|402:203,1,66.0000025177003,8|0,0:0|0:0,0:0:0:0:
324,347,18744,85,8,1:0:0:0:
297,328,18830,1,0,3:0:0:0:
265,317,18917,1,0,3:0:0:0:
233,316,19004,1,0,3:0:0:0:
201,324,19090,1,8,1:0:0:0:
52,347,19264,6,0,L|16:337,2,33.0000012588501,0|0|0,3:0|3:0|3:0,0:0:0:0:
174,345,19611,1,8,1:0:0:0:
56,238,19784,2,0,L|24:229,2,33.0000012588501,0|0|0,3:0|3:0|3:0,0:0:0:0:
189,235,20131,1,8,0:0:0:0:
105,84,20304,85,0,3:0:0:0:
105,84,20391,1,0,3:0:0:0:
105,84,20478,1,0,3:0:0:0:
202,215,20651,2,0,L|272:205,1,66.0000025177003,8|0,1:0|3:0,0:0:0:0:
267,205,20911,1,0,3:0:0:0:
267,205,20998,1,0,3:0:0:0:
401,128,21171,5,8,0:0:0:0:
353,273,21345,1,0,0:0:0:0:
309,126,21518,1,8,1:0:0:0:
427,224,21692,5,0,3:0:0:0:
427,224,21778,1,0,3:0:0:0:
427,224,21865,2,0,L|497:214,1,66.0000025177003,8|0,1:0|3:0,0:0:0:0:
492,214,22125,1,0,3:0:0:0:
492,214,22212,1,0,3:0:0:0:
462,358,22385,1,8,1:0:0:0:
353,273,22559,69,0,3:0:0:0:
353,273,22645,1,0,3:0:0:0:
353,273,22732,1,0,3:0:0:0:
471,368,22905,2,0,L|403:358,1,66.0000025177003,8|0,0:0|3:0,0:0:0:0:
405,358,23166,1,0,3:0:0:0:
405,358,23252,1,0,3:0:0:0:
215,225,23426,22,0,L|225:264,1,33.0000012588501,8|0,1:0|3:0,0:0:0:0:
253,350,23599,1,0,3:0:0:0:
253,350,23687,1,0,3:0:0:0:
253,350,23773,1,0,3:0:0:0:
319,195,23946,2,0,L|303:127,1,66.0000025177003,8|0,0:0|0:0,0:0:0:0:
240,57,24293,69,8,1:0:0:0:
213,76,24379,1,0,3:0:0:0:
181,87,24466,1,0,3:0:0:0:
149,88,24553,1,0,3:0:0:0:
117,80,24639,1,8,1:0:0:0:
118,249,24813,22,0,L|122:294,2,33.0000012588501,0|0|0,3:0|3:0|3:0,0:0:0:0:
43,161,25160,1,8,1:0:0:0:
217,221,25333,2,0,L|249:230,2,33.0000012588501,0|0|0,3:0|3:0|3:0,0:0:0:0:
118,249,25680,1,8,0:0:0:0:
247,123,25853,2,0,L|231:79,1,33.0000012588501,0|0,3:0|3:0,0:0:0:0:
151,17,26027,69,4,0:3:0:0:
179,58,26114,1,0,3:0:0:0:
224,77,26200,1,0,1:0:0:0:
272,70,26287,1,0,1:0:0:0:
309,38,26374,1,8,0:0:0:0:
86,168,26547,22,0,L|36:159,1,44,12|0,0:1|0:0,0:0:0:0:
101,154,26894,2,0,L|51:145,1,44,10|2,0:0|0:0,0:0:0:0:
205,237,27067,2,0,L|248:229,1,44,2|2,0:0|0:0,0:0:0:0:
396,149,27241,6,0,P|355:75|271:69,1,176,12|10,0:1|0:1,0:0:0:0:
248,229,27761,2,0,P|258:271|268:314,1,88,8|0,0:0|0:0,0:0:0:0:
309,148,28108,1,10,0:1:0:0:
142,190,28281,2,0,P|102:182|54:177,1,88,10|8,0:1|0:0,0:0:0:0:
140,345,28628,54,0,P|203:327|268:313,1,132,10|0,0:1|0:0,0:0:0:0:
291,315,28975,2,0,P|280:272|270:229,1,88,10|8,0:1|0:0,0:0:0:0:
85,159,29322,2,0,P|127:171|169:183,1,88,10|0,0:1|0:0,0:0:0:0:
321,55,29668,2,0,P|289:85|257:115,1,88,10|8,0:1|0:0,0:0:0:0:
379,259,30015,38,0,P|427:219|413:158,1,132,10|0,0:1|0:0,0:0:0:0:
400,149,30362,1,10,0:1:0:0:
270,229,30536,1,8,0:0:0:0:
460,308,30709,1,2,0:0:0:0:
321,166,30882,53,10,0:1:0:0:
382,360,31056,1,10,0:1:0:0:
487,188,31229,1,8,0:0:0:0:
262,250,31403,38,0,P|219:249|162:261,1,88,10|0,0:1|0:0,0:0:0:0:
85,347,31749,1,10,0:1:0:0:
128,161,31923,1,8,0:0:0:0:
222,341,32096,2,0,P|265:333|322:330,1,88,10|0,0:1|0:0,0:0:0:0:
227,77,32443,2,0,L|214:163,1,88,10|8,0:1|0:0,0:0:0:0:
213,164,32790,6,0,P|329:160|334:81,1,211.199993554688,12|10,0:1|0:1,0:0:0:0:
147,31,33310,1,8,0:0:0:0:
293,265,33484,1,10,0:1:0:0:
245,83,33657,37,8,0:0:0:0:
146,295,33830,2,0,L|55:274,1,88,12|0,0:1|0:0,0:0:0:0:
60,275,34177,54,0,B|187:242|145:350|255:337,1,211.199993554688,12|10,0:1|0:1,0:0:0:0:
91,360,34697,1,8,0:0:0:0:
249,232,34871,1,10,0:1:0:0:
35,152,35044,37,8,0:0:0:0:
249,338,35218,2,0,P|296:329|350:323,1,88,12|0,0:1|0:0,0:0:0:0:
454,168,35564,54,0,B|360:198|384:117|286:156,1,176,12|8,0:1|0:1,0:0:0:0:
443,11,36085,2,0,P|430:49|417:98,1,88,8|0,0:0|0:0,0:0:0:0:
438,260,36432,1,8,0:1:0:0:
274,187,36605,1,10,0:1:0:0:
417,95,36778,1,8,0:0:0:0:
344,284,36952,38,0,P|352:325|361:373,1,88,12|0,0:1|0:0,0:0:0:0:
397,178,37299,1,8,0:1:0:0:
331,275,37472,1,8,0:0:0:0:
296,86,37645,1,12,0:1:0:0:
185,191,37819,53,0,1:0:0:0:
167,201,37905,2,0,L|62:183,1,88,0|0,1:0|1:0,0:0:0:0:
13,146,38166,2,0,P|7:119|19:93,1,44,0|0,1:0|1:0,0:0:0:0:
110,8,38339,2,0,L|162:17,1,44,4|0,0:3|0:3,0:0:0:0:
318,98,38512,6,0,P|355:103|406:88,1,88,12|0,0:1|0:0,0:0:0:0:
402,97,38773,2,0,L|400:154,1,44,10|10,0:0|0:1,0:0:0:0:
417,277,39033,2,0,L|369:275,1,44,10|2,0:0|0:1,0:0:0:0:
197,316,39206,22,0,B|228:285|270:269,1,88,10|0,0:1|0:0,0:0:0:0:
273,273,39466,2,0,L|262:211,1,44,10|8,0:0|0:1,0:0:0:0:
210,71,39726,2,0,L|196:116,1,44,10|2,0:0|0:0,0:0:0:0:
134,217,39900,70,0,P|85:202|41:197,1,88,10|0,0:1|0:0,0:0:0:0:
48,197,40160,1,8,0:0:0:0:
48,197,40247,1,10,0:1:0:0:
152,361,40420,2,0,P|158:341|165:318,1,44,10|2,0:0|0:0,0:0:0:0:
267,201,40593,21,10,0:1:0:0:
285,213,40680,2,0,P|334:200|386:193,1,88,2|8,0:0|0:0,0:0:0:0:
442,240,40940,2,0,P|457:213|459:196,1,44,10|0,0:1|0:0,0:0:0:0:
396,83,41114,2,0,L|352:77,1,44,10|2,0:0|0:0,0:0:0:0:
248,117,41287,70,0,L|229:18,1,88,10|0,0:1|0:0,0:0:0:0:
234,30,41548,2,0,L|175:41,1,44,10|10,0:0|0:1,0:0:0:0:
70,165,41808,2,0,L|113:156,1,44,10|2,0:0|0:1,0:0:0:0:
247,290,41981,22,0,B|228:192,1,88,10|0,0:1|0:0,0:0:0:0:
233,203,42241,2,0,L|286:193,1,44,10|8,0:0|0:1,0:0:0:0:
106,322,42501,2,0,L|61:330,1,44,10|2,0:0|0:0,0:0:0:0:
258,319,42674,70,0,P|292:304|336:320,1,88,10|0,0:1|0:0,0:0:0:0:
337,321,42934,1,8,0:0:0:0:
337,321,43021,2,0,L|391:313,1,44,10|0,0:1|0:0,0:0:0:0:
455,205,43195,2,0,L|447:157,1,44,8|0,0:0|0:0,0:0:0:0:
411,53,43368,21,10,0:1:0:0:
376,24,43454,1,0,0:0:0:0:
333,22,43541,1,2,0:0:0:0:
296,44,43628,1,10,0:0:0:0:
279,84,43714,1,2,0:0:0:0:
261,122,43801,1,2,0:0:0:0:
224,145,43888,1,10,0:0:0:0:
182,142,43975,1,10,0:0:0:0:
149,116,44062,86,0,P|138:75|130:23,1,88,12|0,0:1|0:0,0:0:0:0:
134,29,44322,2,0,P|107:27|82:22,1,44,8|10,0:0|0:1,0:0:0:0:
35,201,44582,2,0,P|56:197|86:194,1,44,10|2,0:0|0:0,0:0:0:0:
174,237,44755,6,0,P|178:276|185:322,1,88,10|0,0:1|0:0,0:0:0:0:
188,323,45015,2,0,P|213:324|239:329,1,44,8|10,0:0|0:1,0:0:0:0:
389,202,45275,2,0,L|339:193,1,44,10|2,0:0|0:0,0:0:0:0:
235,129,45449,86,0,L|250:40,1,88,12|0,0:1|0:0,0:0:0:0:
249,42,45709,1,8,0:0:0:0:
249,42,45796,1,8,0:1:0:0:
162,217,45969,1,8,0:0:0:0:
351,109,46142,5,10,0:0:0:0:
125,37,46316,1,8,0:3:0:0:
125,37,46403,1,8,0:3:0:0:
125,37,46489,1,8,0:3:0:0:
260,243,46663,1,4,0:3:0:0:
265,199,46749,1,2,0:0:0:0:
270,155,46836,6,0,P|208:143|163:188,1,132.000005035401,12|8,0:1|0:0,0:0:0:0:
138,298,47096,6,0,P|179:249|162:188,1,132.000005035401,8|0,0:1|0:3,0:3:0:0:
80,111,47356,6,0,P|130:186|209:133,1,198.000007553101,12|0,0:1|0:0,0:0:0:0:
142,25,47703,2,0,L|84:30,1,44,8|8,0:3|0:3,0:0:0:0:
216,122,47877,2,0,L|274:117,1,44,4|4,0:3|0:3,0:0:0:0:
449,36,48050,6,0,B|395:27|395:27|376:40|376:40|298:30,1,132,12|0,0:1|0:0,0:0:0:0:
322,33,48397,1,10,0:1:0:0:
426,268,48570,5,10,0:0:0:0:
216,122,48744,1,8,0:1:0:0:
414,118,48917,5,8,0:0:0:0:
199,232,49090,1,0,0:0:0:0:
322,33,49264,1,8,0:0:0:0:
277,283,49437,6,0,P|271:329|264:375,1,88,10|8,0:1|0:0,0:0:0:0:
199,109,49784,5,2,0:0:0:0:
418,248,49958,2,0,P|463:237|504:230,1,88,10|0,0:0|0:0,0:0:0:0:
192,322,50304,5,10,0:0:0:0:
324,118,50478,1,10,0:1:0:0:
423,338,50651,1,10,0:0:0:0:
180,205,50825,6,0,P|134:194|93:187,1,88,10|8,0:1|0:0,0:0:0:0:
273,41,51171,5,2,0:0:0:0:
111,275,51345,1,8,0:0:0:0:
317,224,51518,1,4,0:3:0:0:
145,41,51692,5,8,0:0:0:0:
234,319,51865,1,8,0:1:0:0:
419,149,52038,21,8,0:0:0:0:
111,275,52212,2,0,L|124:135,1,132,12|0,0:1|0:0,0:0:0:0:
112,131,52559,5,0,1:0:0:0:
317,224,52732,1,0,1:0:0:0:
235,16,52905,1,0,1:0:0:0:
253,284,53079,5,0,1:0:0:0:
289,308,53165,1,0,1:0:0:0:
332,311,53252,1,8,0:3:0:0:
372,293,53339,1,4,0:3:0:0:
398,258,53425,1,10,0:0:0:0:
403,215,53512,1,2,0:0:0:0:
387,175,53599,6,0,B|373:33,1,132,12|0,0:1|0:0,0:0:0:0:
387,34,53946,2,0,L|327:22,1,44,10|0,0:1|0:0,0:0:0:0:
199,212,54119,1,8,0:0:0:0:
480,150,54293,5,0,1:0:0:0:
480,150,54379,1,0,1:0:0:0:
480,150,54466,1,8,0:0:0:0:
237,8,54640,2,0,L|245:52,1,44,0|0,1:0|1:0,0:0:0:0:
361,205,54813,2,0,L|369:162,1,44,8|8,0:0|0:0,0:0:0:0:
402,86,54986,6,0,B|293:58|329:156|211:133,1,193.600005908203,12|2,0:1|0:0,0:0:0:0:
59,22,55507,2,0,P|123:43|149:62,1,96.8000029541017,8|2,0:0|0:0,0:0:0:0:
243,247,55853,1,8,0:1:0:0:
20,220,56027,2,0,P|73:187|120:175,1,96.8000029541017,2|8,0:0|0:0,0:0:0:0:
375,319,56374,21,2,0:0:0:0:
225,134,56547,1,10,0:1:0:0:
430,217,56721,1,2,0:0:0:0:
218,338,56894,1,10,0:0:0:0:
336,125,57067,2,0,L|347:19,1,96.8000029541017,2|8,0:0|0:1,0:0:0:0:
139,167,57414,2,0,L|148:263,1,96.8000029541017,2|8,0:0|0:0,0:0:0:0:
240,21,57761,2,0,L|172:29,1,48.4000014770508,2|0,0:0|0:0,0:0:0:0:
98,37,57934,5,8,0:1:0:0:
229,206,58108,1,2,0:0:0:0:
26,172,58281,1,8,0:0:0:0:
234,117,58455,1,2,0:0:0:0:
59,276,58628,2,0,P|72:324|81:375,1,96.8000029541017,10|2,0:1|0:0,0:0:0:0:
234,117,58975,1,8,0:0:0:0:
223,295,59148,1,2,0:0:0:0:
135,138,59322,5,10,0:1:0:0:
343,240,59495,1,2,0:0:0:0:
271,22,59669,1,8,0:0:0:0:
154,231,59842,1,2,0:0:0:0:
336,106,60015,5,10,0:1:0:0:
176,33,60189,1,2,0:0:0:0:
278,188,60362,1,10,0:0:0:0:
271,22,60536,1,2,0:0:0:0:
154,231,60709,6,0,L|53:218,1,96.8000029541017,12|2,0:1|0:0,0:0:0:0:
57,218,60969,1,2,0:0:0:0:
57,218,61056,1,8,0:0:0:0:
203,332,61229,1,0,0:0:0:0:
278,188,61403,2,0,P|289:118|206:78,1,145.200004431152,10|2,0:1|0:0,0:0:0:0:
221,79,61749,2,0,L|102:97,1,96.8000029541017,8|2,0:0|0:0,0:0:0:0:
293,275,62096,6,0,L|388:289,1,96.8000029541017,10|0,0:1|0:0,0:0:0:0:
467,300,62356,2,0,L|460:244,1,48.4000014770508,2|8,0:0|0:0,0:0:0:0:
296,109,62616,2,0,L|288:159,1,48.4000014770508,2|0,0:0|0:0,0:0:0:0:
182,254,62790,22,0,L|75:237,1,96.8000029541017,10|0,0:1|0:0,0:0:0:0:
86,238,63050,1,2,0:0:0:0:
86,238,63137,1,8,0:0:0:0:
218,93,63310,1,2,0:0:0:0:
293,275,63484,5,8,0:1:0:0:
128,131,63657,2,0,L|86:100,1,48.4000014770508,2|0,0:0|0:0,0:0:0:0:
243,0,63830,2,0,L|214:113,1,96.8000029541017,12|2,0:0|0:0,0:0:0:0:
218,93,64090,1,0,0:0:0:0:
218,93,64177,1,8,0:1:0:0:
169,263,64351,1,2,0:0:0:0:
148,29,64524,1,12,0:0:0:0:
322,141,64697,1,2,0:0:0:0:
81,248,64871,5,8,0:1:0:0:
276,24,65044,1,10,0:0:0:0:
341,311,65218,1,12,1:1:0:0:
128,131,65391,5,0,1:1:0:0:
128,131,65478,1,0,1:0:0:0:
128,131,65564,2,0,L|144:195,1,48.4000014770508,12|0,0:0|0:0,0:0:0:0:
341,311,65738,1,0,1:0:0:0:
399,307,65824,1,8,0:0:0:0:
440,264,65911,1,4,0:3:0:0:
439,205,65998,1,4,0:3:0:0:
397,163,66085,2,0,L|337:172,1,48.4000014770508,8|8,0:3|0:3,0:0:0:0:
224,257,66258,6,0,B|167:247|167:247|139:256|139:256|73:246,1,145.200004431152,12|0,0:1|0:0,0:0:0:0:
49,171,66605,2,0,L|62:283,1,96.8000029541017,10|0,0:0|0:0,0:0:0:0:
239,159,66952,1,10,0:1:0:0:
20,16,67125,2,0,P|81:30|125:45,1,96.8000029541017,2|8,0:0|0:0,0:0:0:0:
323,234,67472,5,2,0:0:0:0:
143,134,67645,1,10,0:1:0:0:
346,44,67819,1,2,0:0:0:0:
172,224,67992,1,8,0:0:0:0:
198,0,68166,1,2,0:0:0:0:
323,234,68339,21,10,0:1:0:0:
61,106,68512,1,8,0:0:0:0:
410,135,68686,5,8,0:0:0:0:
169,350,68859,1,0,1:0:0:0:
169,350,68946,1,0,1:0:0:0:
169,350,69033,1,12,0:0:0:0:
214,16,69206,1,10,0:1:0:0:
221,15,69553,6,0,P|239:77|144:50,1,171.599992144776,12|0,0:0|0:0,0:0:0:0:
137,68,69900,2,0,P|130:114|134:145,1,57.1999973815919,0|0,1:0|0:0,0:0:0:0:
154,223,70073,2,0,P|194:245|225:252,1,57.1999973815919,0|0,1:0|0:0,0:0:0:0:
382,269,70247,6,0,B|256:243|307:363|152:338,1,228.799989526368,12|10,0:1|0:1,0:0:0:0:
29,204,70767,1,10,0:0:0:0:
36,251,70853,1,2,0:0:0:0:
44,299,70940,2,0,L|89:273,1,48.4000014770508,2|0,0:0|0:0,0:0:0:0:
238,144,71114,6,0,B|296:154|296:154|317:172|317:172|384:184,1,145.200004431152,4|8,0:3|0:0,0:0:0:0:
458,235,71460,1,8,0:1:0:0:
488,184,71546,1,0,0:0:0:0:
482,125,71633,1,8,0:0:0:0:
441,81,71720,1,8,0:0:0:0:
382,72,71807,6,0,L|272:53,1,96.8000029541017,12|2,0:1|0:0,0:0:0:0:
92,200,72154,2,0,P|159:195|139:101,1,171.599992144776,12|0,0:0|0:0,0:0:0:0:
74,31,72501,2,0,P|62:81|57:131,1,96.8000029541017,8|2,0:1|0:0,0:0:0:0:
206,33,72848,1,8,0:0:0:0:
132,295,73021,22,0,L|36:281,1,96.8000029541017,2|8,0:1|0:1,0:0:0:0:
304,184,73368,1,2,0:0:0:0:
196,351,73541,1,8,0:0:0:0:
142,160,73715,1,2,0:0:0:0:
270,265,73888,1,8,0:1:0:0:
244,26,74062,1,2,0:0:0:0:
244,26,74235,1,8,0:0:0:0:
304,184,74408,6,0,L|410:166,1,96.8000029541017,2|8,0:0|0:1,0:0:0:0:
225,111,74755,1,2,0:0:0:0:
391,267,74929,1,8,0:0:0:0:
383,49,75102,1,2,0:0:0:0:
187,265,75275,5,10,0:1:0:0:
377,145,75449,1,2,0:0:0:0:
170,35,75622,1,8,0:0:0:0:
270,265,75796,1,2,0:0:0:0:
280,12,75969,5,10,0:1:0:0:
78,191,76142,1,2,0:0:0:0:
78,191,76229,1,2,0:0:0:0:
78,191,76316,1,8,0:0:0:0:
354,245,76489,2,0,L|456:227,1,96.8000029541017,2|8,0:0|0:1,0:0:0:0:
196,318,76836,5,8,0:3:0:0:
383,89,77010,1,4,0:3:0:0:
383,89,77096,1,8,0:0:0:0:
383,89,77183,1,8,0:1:0:0:
176,310,77356,6,0,L|45:288,1,132.000005035401,12|4,0:0|0:3,0:0:0:0:
46,289,77616,1,8,0:0:0:0:
46,289,77703,2,0,L|57:215,1,66.0000025177003,8|0,0:1|0:0,0:0:0:0:
110,33,77876,22,0,P|170:16|239:60,1,132.000005035401,12|4,0:0|0:3,0:0:0:0:
229,46,78136,1,8,0:0:0:0:
229,46,78223,2,0,L|295:31,1,66.0000025177003,8|0,0:1|0:0,0:0:0:0:
470,39,78397,6,0,B|440:24|440:24|463:139,1,132.000005035401,12|8,0:0|0:0,0:0:0:0:
459,120,78657,1,8,0:0:0:0:
459,120,78744,2,0,L|394:130,1,66.0000025177003,8|0,0:1|0:0,0:0:0:0:
277,295,78917,6,0,P|337:312|406:268,1,132.000005035401,12|4,0:0|0:3,0:0:0:0:
396,282,79177,1,4,0:3:0:0:
396,281,79264,1,8,0:0:0:0:
386,44,79437,5,12,0:1:0:0:
336,28,79523,1,0,0:0:0:0:
285,39,79610,1,8,0:0:0:0:
246,74,79697,1,8,0:0:0:0:
207,109,79784,1,8,0:0:0:0:
156,120,79871,1,8,0:0:0:0:
107,105,79958,6,0,L|93:308,1,176,12|0,0:1|0:0,0:0:0:0:
312,285,80478,2,0,P|315:202|239:235,1,198.000007553101,12|0,0:0|0:0,0:0:0:0:
312,285,80825,2,0,L|414:273,1,88,10|0,0:1|0:0,0:0:0:0:
485,120,81171,2,0,L|397:109,1,88,8|0,0:0|0:0,0:0:0:0:
177,130,81518,5,8,0:1:0:0:
322,192,81692,1,2,0:0:0:0:
261,32,81865,1,8,0:0:0:0:
190,256,82038,2,0,L|200:343,1,88,2|8,0:0|0:1,0:0:0:0:
322,192,82385,2,0,L|311:104,1,88,2|8,0:0|0:0,0:0:0:0:
130,24,82732,2,0,P|92:44|71:88,1,88,2|8,0:0|0:1,0:0:0:0:
236,188,83079,1,2,0:0:0:0:
79,266,83252,22,0,B|146:278|146:278|170:312|170:312|248:322,1,176,8|8,0:0|0:1,0:0:0:0:
385,70,83773,2,0,P|340:76|305:115,1,88,2|8,0:1|0:0,0:0:0:0:
404,232,84119,1,2,0:0:0:0:
236,188,84293,6,0,L|147:162,1,88,10|0,0:1|0:0,0:0:0:0:
311,365,84640,2,0,L|323:260,1,88,8|2,0:0|0:0,0:0:0:0:
220,93,84986,1,8,0:1:0:0:
404,232,85160,1,4,0:3:0:0:
300,16,85333,2,0,L|309:103,1,88,12|0,0:0|0:0,0:0:0:0:
320,277,85680,5,12,0:1:0:0:
418,102,85853,1,2,0:0:0:0:
418,102,85940,1,8,0:3:0:0:
418,102,86027,1,0,0:0:0:0:
236,188,86200,1,8,0:1:0:0:
404,232,86374,1,8,0:0:0:0:
300,60,86547,6,0,L|311:114,1,44,10|2,0:1|0:0,0:0:0:0:
236,188,86721,2,0,L|244:144,1,44,14|2,0:0|0:0,0:0:0:0:
167,40,86894,2,0,L|178:94,1,44,2|8,0:0|0:3,0:0:0:0:
219,273,87067,5,2,0:0:0:0:
308,103,87241,1,10,0:1:0:0:
125,189,87414,1,10,0:0:0:0:
325,267,87588,1,8,0:1:0:0:
182,120,87761,5,10,0:0:0:0:
174,114,87848,1,2,0:0:0:0:
162,107,87935,1,10,0:1:0:0:
143,101,88021,1,2,0:0:0:0:
118,100,88108,1,14,0:0:0:0:
87,108,88195,1,2,0:0:0:0:
55,134,88281,1,2,0:0:0:0:
36,181,88368,1,2,0:0:0:0:
52,241,88455,38,0,L|61:315,1,66.0000025177003,12|0,0:1|3:0,0:0:0:0:
59,306,88715,1,0,3:0:0:0:
59,306,88801,1,0,3:1:0:0:
136,188,88975,1,8,1:0:0:0:
189,306,89149,21,0,3:0:0:0:
189,306,89235,1,0,3:0:0:0:
189,306,89322,1,0,3:0:0:0:
135,176,89495,2,0,L|221:166,1,66.0000025177003,8|0,1:0|3:0,0:0:0:0:
200,168,89755,1,0,3:0:0:0:
200,168,89842,1,0,3:0:0:0:
300,255,90016,69,8,1:0:0:0:
383,140,90189,2,0,L|394:190,3,33.0000012588501,0|0|0|0,3:0|3:0|3:0|3:0,0:0:0:0:
396,189,90536,2,0,L|405:99,1,66.0000025177003,8|0,1:1|0:0,0:0:0:0:
445,19,90883,21,8,1:0:0:0:
413,11,90969,1,0,3:0:0:0:
381,12,91056,1,0,3:0:0:0:
349,23,91143,1,0,3:0:0:0:
322,42,91229,1,8,1:0:0:0:
402,123,91403,70,0,L|398:161,2,33.0000012588501,0|0|0,3:0|3:0|3:0,0:0:0:0:
299,222,91750,1,8,1:0:0:0:
242,98,91923,1,0,3:0:0:0:
242,98,92010,1,0,3:0:0:0:
242,98,92096,1,0,3:0:0:0:
299,195,92270,1,8,1:0:0:0:
214,298,92443,21,0,3:0:0:0:
214,298,92530,1,0,3:0:0:0:
214,298,92617,1,0,3:0:0:0:
300,173,92790,2,0,L|370:163,1,66.0000025177003,8|0,1:0|3:0,0:0:0:0:
365,163,93050,1,0,3:0:0:0:
365,163,93137,1,0,3:0:0:0:
344,267,93310,69,8,1:1:0:0:
263,96,93484,1,0,0:0:0:0:
213,266,93657,1,8,1:0:0:0:
213,274,93744,1,0,1:0:0:0:
214,282,93830,1,0,1:0:0:0:
214,290,93917,1,0,1:0:0:0:
214,298,94004,6,0,L|144:300,1,66.0000025177003,8|0,1:0|3:0,0:0:0:0:
133,305,94264,1,0,3:0:0:0:
133,305,94351,1,0,3:0:0:0:
272,213,94524,1,8,1:0:0:0:
163,169,94698,5,0,3:0:0:0:
163,169,94784,1,0,3:0:0:0:
163,169,94871,1,0,3:0:0:0:
255,304,95044,2,0,L|333:298,1,66.0000025177003,8|0,1:0|3:0,0:0:0:0:
320,298,95305,1,0,3:0:0:0:
320,298,95391,1,0,3:0:0:0:
347,97,95565,86,0,L|335:49,2,33.0000012588501,8|0|0,1:0|3:0|3:0,0:0:0:0:
353,118,95826,1,0,3:0:0:0:
353,118,95912,1,0,3:0:0:0:
418,272,96085,2,0,L|432:207,1,66.0000025177003,8|0,1:0|0:0,0:0:0:0:
461,87,96432,5,8,1:0:0:0:
434,68,96518,1,0,3:0:0:0:
402,57,96605,1,0,3:0:0:0:
370,56,96692,1,0,3:0:0:0:
338,64,96778,1,8,1:0:0:0:
201,165,96952,85,0,3:0:0:0:
201,165,97038,1,0,3:0:0:0:
201,165,97125,1,0,3:0:0:0:
348,149,97299,1,8,1:0:0:0:
231,48,97472,1,0,3:0:0:0:
231,48,97559,1,0,3:0:0:0:
231,48,97645,1,0,3:0:0:0:
279,208,97819,1,8,1:0:0:0:
381,56,97992,6,0,L|330:65,1,44,0|0,1:0|1:0,0:0:0:0:
149,94,98166,1,8,1:0:0:0:
279,208,98339,86,0,L|335:197,2,44,0|8|8,1:0|0:0|0:1,0:0:0:0:
57,333,98686,5,12,0:1:0:0:
69,342,99033,86,0,L|61:265,1,66,12|0,0:3|0:0,0:0:0:0:
0,221,99379,22,0,P|72:223|61:132,1,176,14|8,0:1|0:1,0:0:0:0:
200,257,99900,2,0,P|248:247|297:240,1,88,8|2,0:0|0:0,0:0:0:0:
435,258,100247,1,10,0:1:0:0:
285,350,100420,1,8,0:1:0:0:
358,182,100593,1,8,0:0:0:0:
411,340,100767,86,0,P|454:342|494:325,1,88,10|0,0:1|0:0,0:0:0:0:
346,95,101114,2,0,L|359:183,1,88,10|8,0:1|0:0,0:0:0:0:
165,288,101461,2,0,L|153:201,1,88,10|0,0:1|0:0,0:0:0:0:
100,43,101807,2,0,P|57:41|17:58,1,88,10|8,0:1|0:0,0:0:0:0:
244,259,102154,6,0,B|315:247|315:247|343:267|343:267|414:254,1,176,14|8,0:0|0:1,0:0:0:0:
346,95,102674,2,0,P|312:122|304:165,1,88,8|2,0:0|0:0,0:0:0:0:
372,339,103021,1,10,0:1:0:0:
384,162,103195,1,8,0:1:0:0:
244,259,103368,1,8,0:0:0:0:
499,285,103541,86,0,P|443:270|328:246,1,176,10|8,0:1|0:1,0:0:0:0:
144,331,104062,2,0,P|124:292|127:249,1,88,8|8,0:0|0:1,0:0:0:0:
196,99,104408,6,0,L|165:89,6,22,2|2|2|2|10|2|2,0:0|0:0|0:0|0:0|0:1|0:0|0:0,0:0:0:0:
217,107,104755,86,0,L|214:58,1,44,8|0,0:0|0:0,0:0:0:0:
320,27,104929,22,0,L|311:142,1,105.599996777344,12|0,0:1|0:0,0:0:0:0:
211,294,105275,1,8,0:1:0:0:
203,137,105449,69,12,0:0:0:0:
322,264,105622,1,10,0:1:0:0:
163,219,105796,21,12,0:0:0:0:
379,195,105969,1,10,0:1:0:0:
116,125,106142,69,12,0:0:0:0:
322,264,106316,1,10,0:1:0:0:
122,301,106489,21,12,0:0:0:0:
290,182,106663,1,8,0:1:0:0:
51,201,106836,69,12,0:0:0:0:
322,264,107010,1,8,0:1:0:0:
239,56,107183,21,12,0:0:0:0:
345,347,107356,1,8,1:3:0:0:
239,56,107530,1,8,1:3:0:0:
63,233,107703,70,0,B|162:179|139:270|236:221,1,176,12|8,0:1|0:1,0:0:0:0:
239,56,108223,2,0,P|221:96|205:137,1,88,8|2,0:0|0:0,0:0:0:0:
413,214,108570,1,10,0:1:0:0:
293,128,108744,1,8,0:1:0:0:
438,40,108917,1,8,0:0:0:0:
448,284,109090,6,0,P|369:281|343:183,1,176,12|8,0:1|0:1,0:0:0:0:
438,40,109611,1,8,0:0:0:0:
336,199,109784,2,0,L|239:190,1,88,12|0,0:0|0:0,0:0:0:0:
128,245,110131,5,8,0:0:0:0:
171,96,110304,2,0,L|153:47,2,44,8|8|8,0:0|0:0|0:3,0:0:0:0:
217,343,110651,5,12,0:1:0:0:
123,128,116027,5,8,0:3:0:0:
125,142,116114,1,4,0:3:0:0:
127,155,116200,2,0,P|159:144|191:141,1,66.0000025177003,12|0,0:1|3:0,0:0:0:0:
285,111,116460,38,0,P|273:142|268:183,1,66.0000025177003,2|0,0:0|3:0,0:0:0:0:
219,265,116721,54,0,P|212:246|196:224,1,33.0000012588501,2|0,0:0|0:0,0:0:0:0:
115,353,116894,38,0,P|154:344|180:343,1,66.0000025177003,0|0,1:0|3:0,0:0:0:0:
316,371,117154,54,0,P|286:354|273:324,1,66.0000025177003,8|0,0:0|3:0,0:0:0:0:
355,254,117414,38,0,L|346:291,2,33.0000012588501,0|0|0,1:0|0:0|0:0,0:0:0:0:
430,130,117761,1,0,1:0:0:0:
431,117,117848,1,0,3:0:0:0:
430,103,117934,1,0,1:0:0:0:
430,325,118108,54,0,L|443:364,1,33.0000012588501,0|8,3:0|0:0,0:0:0:0:
329,130,118281,1,8,0:1:0:0:
506,238,118455,37,8,0:3:0:0:
468,215,118541,1,8,0:3:0:0:
425,215,118628,1,0,1:0:0:0:
389,240,118715,1,0,1:0:0:0:
353,263,118801,1,8,0:3:0:0:
310,264,118888,1,4,0:3:0:0:
273,242,118975,6,0,L|127:266,1,132.000005035401,12|0,0:1|1:0,0:0:0:0:
71,181,119235,6,0,P|140:215|139:271,1,132.000005035401,10|0,0:1|0:0,0:0:0:0:
5,232,119495,6,0,P|1:138|87:100,1,198.000007553101,12|0,0:1|0:0,0:0:0:0:
215,148,119842,2,0,L|258:141,1,44,8|8,0:3|0:3,0:0:0:0:
305,69,120015,2,0,L|348:75,1,44,4|4,0:3|0:3,0:0:0:0:
477,152,120189,6,0,P|468:105|463:61,1,88,12|0,0:1|0:0,0:0:0:0:
297,246,120536,1,4,0:3:0:0:
348,75,120709,1,0,1:0:0:0:
348,75,120796,1,0,1:0:0:0:
348,75,120882,1,4,0:3:0:0:
373,333,121056,5,8,0:0:0:0:
348,75,121229,1,12,0:1:0:0:
361,59,121576,6,0,P|346:117|255:119,1,132,12|0,0:1|0:0,0:0:0:0:
193,60,121923,22,0,P|201:88|208:112,1,52.7999983886719,10|0,0:1|0:0,0:0:0:0:
162,314,122096,5,8,0:0:0:0:
162,314,122183,1,8,0:0:0:0:
162,314,122270,2,0,P|165:287|170:261,1,52.7999983886719,10|0,0:1|0:0,0:0:0:0:
124,127,122443,5,8,0:0:0:0:
351,238,122616,1,10,0:1:0:0:
193,60,122790,1,8,0:0:0:0:
431,11,122963,6,0,P|497:41|474:139,1,176,12|8,0:1|0:1,0:0:0:0:
472,137,123397,1,8,0:1:0:0:
460,143,123484,2,0,L|352:124,1,88,8|2,0:0|0:0,0:0:0:0:
193,60,123830,1,8,0:0:0:0:
432,12,124004,1,10,0:1:0:0:
432,12,124090,1,8,0:1:0:0:
432,12,124177,1,8,0:0:0:0:
249,218,124351,6,0,B|191:230|191:230|160:258|160:258|88:276,1,158.399995166016,12|0,0:1|0:0,0:0:0:0:
57,339,124697,22,0,P|36:319|29:304,1,44,0|0,1:0|0:0,0:0:0:0:
14,212,124871,6,0,P|13:183|24:156,1,57.1999973815919,0|0,1:0|0:0,0:0:0:0:
90,57,125044,6,0,P|114:41|155:38,1,66.0000025177003,0|0,1:0|0:0,0:0:0:0:
301,49,125218,6,0,P|327:59|352:90,1,66.0000025177003,8|0,1:0|0:0,0:0:0:0:
377,331,125391,5,0,1:0:0:0:
377,331,125478,1,2,0:0:0:0:
377,331,125564,2,0,L|386:270,1,44,8|2,0:0|0:0,0:0:0:0:
423,191,125738,6,0,B|362:197|362:197|342:219|342:219|272:226,1,158.399995166016,12|0,0:1|0:0,0:0:0:0:
208,157,126085,1,8,0:0:0:0:
377,331,126258,1,8,0:0:0:0:
497,88,126432,22,0,B|482:87|466:82|466:82|457:85|457:85|439:78|422:79,1,74.8000014266968,2|0,3:2|1:0,0:0:0:0:
194,243,126605,6,0,L|250:235,1,57.1999973815919,8|8,1:0|0:0,0:0:0:0:
218,97,126778,6,0,P|208:126|207:156,1,61.5999981201172,8|8,0:0|0:0,0:0:0:0:
383,287,126952,6,0,P|393:254|393:220,1,66.0000025177003,8|8,0:0|0:0,0:0:0:0:
238,6,127125,6,0,B|158:22|158:22|132:64|132:64|53:80,1,211.199993554688,12|2,0:1|0:0,0:0:0:0:
195,336,127645,2,0,B|208:304|208:304|192:238,1,96.8000029541017,8|2,0:0|0:0,0:0:0:0:
55,176,127992,1,10,0:1:0:0:
55,176,128079,1,2,0:0:0:0:
55,176,128166,1,2,0:0:0:0:
282,253,128339,2,0,P|308:244|384:226,1,96.8000029541017,8|2,0:0|0:0,0:0:0:0:
223,105,128686,5,10,0:1:0:0:
420,300,128859,1,2,0:0:0:0:
377,11,129033,21,8,0:0:0:0:
282,253,129206,1,2,0:0:0:0:
440,151,129379,5,8,0:1:0:0:
177,8,129553,2,0,P|233:15|284:24,1,96.8000029541017,2|8,0:0|0:0,0:0:0:0:
175,277,129900,2,0,P|222:269|270:261,1,96.8000029541017,2|8,0:0|0:1,0:0:0:0:
79,148,130247,5,2,0:0:0:0:
150,370,130420,2,0,P|162:321|180:258,1,96.8000029541017,8|0,0:0|0:0,0:0:0:0:
307,129,130767,1,10,0:1:0:0:
74,234,130940,2,0,P|68:186|57:139,1,96.8000029541017,2|8,0:0|0:0,0:0:0:0:
260,24,131287,5,2,0:0:0:0:
260,24,131460,1,8,0:1:0:0:
162,247,131634,1,2,0:0:0:0:
98,28,131807,1,8,0:0:0:0:
307,129,131981,1,2,0:0:0:0:
377,11,132154,5,10,0:1:0:0:
197,108,132327,1,2,0:0:0:0:
276,6,132501,5,10,0:0:0:0:
323,252,132674,1,2,0:0:0:0:
184,105,132848,22,0,L|83:92,1,96.8000029541017,12|2,0:1|0:0,0:0:0:0:
87,92,133108,1,2,0:0:0:0:
87,92,133195,1,8,0:0:0:0:
275,14,133368,1,0,0:0:0:0:
197,215,133542,2,0,L|214:315,1,96.8000029541017,10|0,0:1|0:0,0:0:0:0:
213,310,133801,1,2,0:0:0:0:
213,310,133888,2,0,L|94:328,1,96.8000029541017,8|2,0:0|0:0,0:0:0:0:
347,150,134235,22,0,L|449:128,1,96.8000029541017,10|0,0:1|0:0,0:0:0:0:
441,129,134495,1,2,0:0:0:0:
441,129,134582,1,8,0:0:0:0:
175,13,134755,2,0,L|186:62,1,48.4000014770508,2|0,0:0|0:0,0:0:0:0:
165,150,134929,22,0,L|63:128,1,96.8000029541017,10|0,0:1|0:0,0:0:0:0:
71,129,135189,1,2,0:0:0:0:
71,129,135276,1,8,0:0:0:0:
336,13,135449,2,0,L|325:62,1,48.4000014770508,2|0,0:0|0:0,0:0:0:0:
168,240,135622,5,10,0:1:0:0:
256,20,135796,1,2,0:0:0:0:
344,240,135969,2,0,P|292:232|195:227,1,145.200004431152,12|0,0:0|0:0,0:0:0:0:
199,227,136316,21,10,0:1:0:0:
345,89,136489,1,2,0:0:0:0:
145,26,136663,1,12,0:0:0:0:
240,113,136836,1,2,0:0:0:0:
118,294,137010,5,8,0:1:0:0:
276,27,137183,1,8,0:0:0:0:
308,329,137356,1,12,1:1:0:0:
132,123,137530,1,0,1:0:0:0:
132,123,137616,1,0,1:0:0:0:
132,123,137703,2,0,L|143:185,1,48.4000014770508,10|0,0:0|0:0,0:0:0:0:
309,338,137877,5,2,1:2:0:0:
352,318,137963,1,0,1:0:0:0:
375,276,138050,1,10,1:1:0:0:
368,229,138137,1,0,1:0:0:0:
335,197,138223,1,4,1:3:0:0:
287,190,138310,1,8,0:0:0:0:
246,213,138397,6,0,B|301:200|301:200|334:215|334:215|394:201,1,145.200004431152,12|0,0:1|0:0,0:0:0:0:
478,140,138744,2,0,P|470:188|463:235,1,96.8000029541017,10|2,0:0|0:0,0:0:0:0:
356,97,139090,1,10,0:1:0:0:
478,331,139264,2,0,P|471:283|463:235,1,96.8000029541017,2|8,0:0|0:0,0:0:0:0:
266,39,139611,5,2,0:0:0:0:
385,204,139784,1,10,0:1:0:0:
386,0,139958,1,2,0:0:0:0:
266,165,140132,1,12,0:0:0:0:
459,102,140304,1,0,1:0:0:0:
459,102,140391,1,0,1:0:0:0:
459,102,140478,5,10,0:1:0:0:
213,262,140651,1,8,0:0:0:0:
268,27,140825,21,8,0:0:0:0:
320,338,140998,1,8,0:0:0:0:
320,338,141085,1,0,1:0:0:0:
320,338,141171,1,14,1:2:0:0:
62,166,141345,1,10,0:1:0:0:
48,142,141692,6,0,B|143:123|108:200|207:183,1,171.599992144776,12|0,0:0|0:0,0:0:0:0:
299,80,142038,2,0,P|290:113|282:142,1,57.1999973815919,0|0,1:0|0:0,0:0:0:0:
320,338,142212,2,0,P|306:305|297:284,1,57.1999973815919,0|0,1:0|0:0,0:0:0:0:
504,164,142385,6,0,B|460:181|412:166|412:166|388:200|388:200|346:191|297:211,1,228.799989526368,12|10,0:1|0:1,0:0:0:0:
110,147,142905,1,10,0:0:0:0:
103,107,142992,1,2,0:0:0:0:
120,72,143079,2,0,P|133:101|135:127,1,48.4000014770508,2|0,0:0|0:0,0:0:0:0:
107,297,143252,6,0,P|37:278|54:209,1,145.200004431152,4|8,0:3|0:0,0:0:0:0:
110,147,143599,1,0,1:0:0:0:
169,138,143685,1,0,1:0:0:0:
229,130,143772,1,0,1:0:0:0:
289,121,143859,1,0,1:0:0:0:
349,113,143946,6,0,L|452:94,1,96.8000029541017,12|2,0:1|0:0,0:0:0:0:
341,294,144293,2,0,B|293:285|293:285|261:318|261:318|177:335,1,171.599992144776,12|0,0:0|0:0,0:0:0:0:
91,354,144640,2,0,P|93:302|120:263,1,96.8000029541017,8|2,0:1|0:0,0:0:0:0:
233,182,144986,1,8,0:0:0:0:
52,103,145160,1,2,0:0:0:0:
253,191,145333,6,0,L|360:161,1,96.8000029541017,8|2,0:1|0:0,0:0:0:0:
182,12,145680,1,8,0:0:0:0:
123,236,145853,1,2,0:0:0:0:
263,83,146027,1,8,0:1:0:0:
32,81,146200,1,2,0:0:0:0:
32,81,146374,1,10,0:0:0:0:
204,287,146547,22,0,P|218:241|208:194,1,96.8000029541017,2|8,0:0|0:1,0:0:0:0:
70,159,146894,1,2,0:0:0:0:
120,323,147067,1,8,0:0:0:0:
178,98,147241,1,2,0:0:0:0:
204,286,147414,1,10,0:1:0:0:
291,62,147588,1,2,0:0:0:0:
291,268,147761,1,8,0:0:0:0:
404,48,147934,1,2,0:0:0:0:
418,304,148108,5,10,0:1:0:0:
251,176,148281,1,2,0:0:0:0:
251,176,148368,1,2,0:0:0:0:
251,176,148455,1,8,0:0:0:0:
402,30,148628,2,0,P|394:86|388:132,1,96.8000029541017,2|8,0:0|0:1,0:0:0:0:
273,258,148975,5,8,0:3:0:0:
225,262,149061,1,8,0:3:0:0:
183,240,149148,1,2,1:0:0:0:
159,199,149235,1,0,1:0:0:0:
162,151,149321,1,4,0:3:0:0:
439,23,149495,6,0,L|420:161,1,132.000005035401,12|4,0:0|0:3,0:0:0:0:
420,153,149755,1,8,0:0:0:0:
420,153,149842,2,0,L|498:143,1,66.0000025177003,10|0,0:1|0:0,0:0:0:0:
379,298,150015,6,0,B|310:318|322:267|246:289,1,132.000005035401,12|8,0:0|0:1,0:0:0:0:
251,287,150275,1,4,0:3:0:0:
251,287,150362,2,0,L|235:360,1,66.0000025177003,2|0,0:0|0:0,0:0:0:0:
69,259,150536,6,0,P|50:202|108:169,1,132.000005035401,12|8,0:0|0:0,0:0:0:0:
102,168,150796,1,8,0:3:0:0:
102,168,150882,1,4,0:3:0:0:
363,56,151056,22,0,B|306:43|306:43|268:84|268:84|179:94,1,198.000007553101,12|8,1:1|0:0,0:0:0:0:
184,93,151403,1,0,1:0:0:0:
346,202,151576,5,12,0:1:0:0:
221,7,151749,1,0,3:0:0:0:
221,7,151836,1,0,1:0:0:0:
221,7,151923,1,0,1:0:0:0:
99,210,152096,6,0,P|163:192|272:169,1,158.399995166016,12|2,0:1|0:0,0:0:0:0:
346,202,152616,1,2,0:0:0:0:
427,146,152790,1,10,0:1:0:0:
427,301,152963,2,0,P|429:222|440:144,1,158.399995166016,8|2,0:0|0:0,0:0:0:0:
501,42,153484,6,0,B|416:63|442:0|349:20,1,158.399995166016,10|10,0:1|0:0,0:0:0:0:
252,172,154004,2,0,P|260:130|267:82,1,79.1999975830079,2|10,0:0|0:1,0:0:0:0:
92,25,154351,1,8,0:0:0:0:
182,116,154524,1,10,0:1:0:0:
193,2,154697,1,2,0:0:0:0:
169,132,154871,1,10,0:1:0:0:
201,260,155044,6,0,P|162:253|122:248,1,79.1999975830079,12|2,0:1|0:0,0:0:0:0:
247,120,155391,2,0,P|207:126|168:131,1,79.1999975830079,10|2,0:1|0:0,0:0:0:0:
398,249,155738,1,8,0:0:0:0:
278,206,155911,1,8,0:1:0:0:
406,155,156085,1,4,0:3:0:0:
260,204,156258,1,8,0:1:0:0:
423,332,156432,5,8,0:0:0:0:
309,116,156605,1,8,0:1:0:0:
220,350,156778,21,12,0:0:0:0:
314,96,156951,1,8,0:1:0:0:
315,366,157125,5,4,0:3:0:0:
339,334,157211,1,0,1:0:0:0:
345,295,157298,1,0,1:0:0:0:
335,258,157385,1,0,1:0:0:0:
308,230,157471,5,8,1:1:0:0:
283,198,157558,1,0,1:2:0:0:
276,159,157645,1,8,1:2:0:0:
287,121,157732,1,8,1:2:0:0:
314,96,157819,6,0,L|168:88,1,132,12|0,0:1|0:0,0:0:0:0:
176,97,158166,2,0,L|85:90,1,88,10|0,0:0|0:0,0:0:0:0:
86,317,158512,6,0,B|133:298|134:241|134:241|162:275|220:273,1,171.599992144776,10|2,0:1|0:0,0:0:0:0:
252,170,158859,6,0,P|219:178|194:198,1,57.1999973815919,8|0,0:0|0:0,0:0:0:0:
173,347,159033,1,2,0:0:0:0:
337,213,159206,22,0,B|369:182|423:190|423:190|457:226|498:218,1,176,10|8,0:1|0:0,0:0:0:0:
353,28,159726,1,2,0:0:0:0:
353,28,159813,1,2,0:0:0:0:
353,28,159900,2,0,P|322:53|316:78,1,57.1999973815919,10|0,0:1|0:0,0:0:0:0:
473,62,160073,2,0,P|466:22|448:4,1,57.1999973815919,2|0,0:0|0:0,0:0:0:0:
383,144,160246,2,0,P|420:158|444:151,1,57.1999973815919,8|0,0:0|0:0,0:0:0:0:
316,68,160420,2,0,P|287:65|262:79,1,57.1999973815919,2|0,0:0|0:0,0:0:0:0:
211,204,160593,6,0,L|229:310,1,88,8|2,0:1|0:0,0:0:0:0:
112,132,160940,1,8,0:0:0:0:
307,205,161114,2,0,L|298:160,1,44,2|2,0:0|0:0,0:0:0:0:
200,23,161287,5,10,0:1:0:0:
128,223,161460,2,0,L|134:266,1,44,2|2,0:0|0:0,0:0:0:0:
24,40,161634,5,8,0:0:0:0:
201,174,161807,1,2,0:0:0:0:
76,327,161981,6,0,P|38:286|119:252,1,171.599992144776,10|0,0:1|0:0,0:0:0:0:
164,317,162327,2,0,P|163:344|151:379,1,57.1999973815919,10|0,0:0|0:0,0:0:0:0:
371,260,162501,6,0,B|334:264|334:264|332:259|332:259|334:264|334:264|259:274,1,114.399994763184,2|8,0:0|0:1,0:0:0:0:
150,85,162848,2,0,L|222:90,1,57.1999973815919,2|0,0:0|0:0,0:0:0:0:
309,96,163021,1,8,0:0:0:0:
195,217,163195,1,2,0:0:0:0:
473,60,163368,21,12,0:1:0:0:
473,60,163541,1,2,0:0:0:0:
316,7,163715,5,8,0:0:0:0:
334,12,163888,1,2,0:0:0:0:
195,109,164062,5,10,0:1:0:0:
217,76,164235,2,0,P|255:93|280:141,1,88,2|8,0:0|0:0,0:0:0:0:
117,305,164582,2,0,L|61:297,1,57.1999973815919,2|0,0:0|0:0,0:0:0:0:
31,292,164755,5,8,0:1:0:0:
213,316,164929,1,2,0:0:0:0:
116,152,165102,2,0,P|106:178|103:207,1,57.1999973815919,8|0,0:0|0:0,0:0:0:0:
213,316,165275,2,0,P|222:289|225:260,1,57.1999973815919,2|0,0:0|0:0,0:0:0:0:
195,109,165449,6,0,B|261:99|261:99|290:117|290:117|365:101,1,171.599992144776,8|0,0:1|0:0,0:0:0:0:
385,26,165796,6,0,B|369:3|369:3|336:47|361:108,1,132,8|0,0:0|0:0,0:0:0:0:
426,169,166142,21,10,0:1:0:0:
264,73,166316,1,2,0:0:0:0:
251,264,166489,1,8,0:0:0:0:
358,101,166663,5,2,0:0:0:0:
151,102,166836,1,8,0:1:0:0:
264,288,167010,1,2,0:0:0:0:
246,45,167183,5,10,0:0:0:0:
177,343,167356,2,0,B|268:365|244:281|337:315,1,171.599992144776,12|0,0:0|0:0,0:0:0:0:
465,347,167703,6,0,P|426:333|411:313,1,57.1999973815919,8|8,0:0|0:0,0:0:0:0:
373,239,167877,2,0,P|365:198|375:175,1,57.1999973815919,8|8,0:0|0:0,0:0:0:0:
419,109,168050,2,0,P|450:82|475:79,1,57.1999973815919,8|8,0:1|0:1,0:0:0:0:
500,213,168223,5,4,0:3:0:0:
467,239,168309,1,4,0:3:0:0:
425,243,168396,1,8,0:1:0:0:
388,222,168483,1,8,0:1:0:0:
369,184,168570,6,0,B|328:186|328:186|312:203|312:203|262:217,1,114.399994763184,12|4,0:0|0:3,0:0:0:0:
116,339,168830,1,4,0:3:0:0:
133,347,168917,22,0,B|139:319|139:319|128:260,1,88,12|0,0:1|0:0,0:0:0:0:
5,79,169264,2,0,B|41:45|83:68|83:68|134:94|172:57,1,171.599992144776,12|0,0:0|0:0,0:0:0:0:
270,9,169611,6,0,P|254:29|245:60,1,57.1999973815919,10|0,0:1|0:0,0:0:0:0:
274,196,169784,1,2,0:0:0:0:
425,90,169958,2,0,P|379:81|335:71,1,88,8|2,0:0|0:0,0:0:0:0:
203,281,170304,6,0,B|245:274|245:274|262:284|262:284|309:278|309:278|321:264|321:264|364:258,1,171.599992144776,10|0,0:1|0:0,0:0:0:0:
384,266,170651,2,0,P|375:242|371:201,1,57.1999973815919,10|0,0:0|0:0,0:0:0:0:
438,34,170825,2,0,P|434:62|424:89,1,57.1999973815919,2|0,0:0|0:0,0:0:0:0:
338,71,170998,5,10,0:1:0:0:
494,162,171171,2,0,B|459:170|459:170|450:178|450:178|375:198,1,114.399994763184,2|8,0:0|0:0,0:0:0:0:
275,195,171518,1,2,0:0:0:0:
314,349,171692,6,0,P|377:324|354:276,1,132,8|0,0:1|0:0,0:0:0:0:
265,207,172038,6,0,B|181:230|181:230|156:275|156:275|50:307,1,228.799989526368,12|8,0:0|0:1,0:0:0:0:
44,181,172559,2,0,P|67:188|106:216,1,57.1999973815919,2|2,0:0|0:0,0:0:0:0:
175,349,172732,1,8,0:0:0:0:
45,91,172905,1,6,0:0:0:0:
43,268,173079,21,8,0:1:0:0:
201,94,173252,1,8,0:0:0:0:
280,318,173426,2,0,P|334:304|401:294,1,114.399994763184,12|0,0:0|1:0,0:0:0:0:
468,314,173686,1,0,1:0:0:0:
482,322,173773,2,0,P|466:287|471:256,1,57.1999973815919,10|0,0:1|0:0,0:0:0:0:
496,83,173946,5,0,1:0:0:0:
464,111,174032,1,0,1:0:0:0:
422,121,174119,1,8,0:0:0:0:
381,110,174206,1,8,0:0:0:0:
349,82,174293,5,4,0:3:0:0:
352,53,174379,1,2,0:0:0:0:
359,27,174466,6,0,B|267:5|289:95|184:104,1,171.599992144776,12|0,0:1|0:0,0:0:0:0:
131,63,174813,2,0,P|137:110|143:169,1,88,8|2,0:0|0:0,0:0:0:0:
141,150,175073,1,2,0:0:0:0:
141,150,175160,1,10,0:1:0:0:
13,292,175333,1,0,0:0:0:0:
64,123,175507,1,8,0:0:0:0:
198,266,175680,1,2,0:0:0:0:
166,257,175767,1,2,0:0:0:0:
145,274,175853,6,0,P|197:252|252:234,1,114.399994763184,10|0,0:1|0:0,0:0:0:0:
341,300,176114,1,2,0:0:0:0:
340,325,176200,2,0,L|261:307,1,57.1999973815919,8|0,0:0|0:0,0:0:0:0:
387,164,176374,2,0,L|466:146,1,57.1999973815919,2|0,0:0|0:0,0:0:0:0:
457,155,176547,1,10,0:1:0:0:
204,67,176721,5,8,0:0:0:0:
469,159,176894,1,8,0:0:0:0:
323,24,177067,2,0,P|308:53|312:85,1,57.1999973815919,0|0,1:0|1:0,0:0:0:0:
412,252,177241,21,8,0:0:0:0:
121,204,177414,1,10,0:1:0:0:
268,246,177588,5,2,0:0:0:0:
275,233,177674,1,2,0:0:0:0:
280,221,177761,2,0,L|274:158,1,57.1999973815919,12|0,0:0|0:0,0:0:0:0:
265,84,177934,6,0,L|271:147,1,57.1999973815919
103,43,178108,6,0,P|139:48|159:56,1,57.1999973815919,8|0,1:2|0:0,0:0:0:0:
414,16,178282,6,0,P|378:21|358:29,1,57.1999973815919,8|0,1:2|0:0,0:0:0:0:
91,248,178455,6,12,P|147:136|195:143,1,171.599992144776,12|0,0:1|0:0,0:0:0:0:
238,195,178801,2,0,P|239:233|222:266,1,57.1999973815919,10|0,0:1|0:0,0:0:0:0:
171,329,178975,22,0,L|126:323,2,38.1333315877279,10|2|2,0:0|0:0|0:0,0:0:0:0:
246,274,179148,2,0,L|309:281,1,57.1999973815919,8|0,0:1|0:0,0:0:0:0:
427,357,179322,5,4,0:3:0:0:
471,331,179408,1,0,3:0:0:0:
495,287,179495,1,0,1:0:0:0:
491,235,179582,1,0,1:0:0:0:
459,190,179668,5,8,0:0:0:0:
406,171,179755,1,8,0:0:0:0:
351,184,179842,1,8,0:0:0:0:
313,225,179928,1,8,0:0:0:0:
302,280,180015,6,0,L|311:350,1,66.0000025177003,12|0,0:1|0:0,0:0:0:0:
223,324,180362,2,0,L|214:254,1,66.0000025177003,2|0,0:0|0:0,0:0:0:0:
340,162,180709,6,0,L|410:171,1,66.0000025177003,2|0,0:0|0:0,0:0:0:0:
384,83,181056,2,0,L|313:74,1,66.0000025177003,2|0,0:0|0:0,0:0:0:0:
185,62,181403,6,0,L|194:132,1,66.0000025177003,2|0,0:1|0:0,0:0:0:0:
106,106,181750,2,0,L|97:36,1,66.0000025177003,2|0,0:0|0:0,0:0:0:0:
214,258,182096,6,0,L|223:328,1,66.0000025177003,2|0,0:1|0:0,0:0:0:0:
135,302,182443,2,0,L|126:232,1,66.0000025177003,2|0,0:0|0:0,0:0:0:0:
274,153,182790,22,0,L|339:161,1,66.0000025177003,2|0,0:0|0:0,0:0:0:0:
294,239,183137,2,0,L|360:248,1,66.0000025177003,2|0,0:0|0:0,0:0:0:0:
147,150,183484,6,0,L|81:158,1,66.0000025177003,2|0,0:0|0:0,0:0:0:0:
126,236,183831,2,0,L|60:244,1,66.0000025177003,2|0,0:0|0:0,0:0:0:0:
294,239,184177,6,0,L|285:304,1,66.0000025177003,2|0,0:0|0:0,0:0:0:0:
198,325,184524,2,0,L|206:259,1,66.0000025177003,2|0,0:1|0:0,0:0:0:0:
306,83,184871,6,0,L|297:148,1,66.0000025177003,2|0,0:0|0:0,0:0:0:0:
210,169,185218,2,0,L|218:103,1,66.0000025177003,2|0,0:1|0:0,0:0:0:0:
218,103,185478,1,2,0:0:0:0:
218,103,185564,6,0,L|137:113,1,66.0000025177003,2|0,0:0|0:0,0:0:0:0:
306,83,185911,2,0,L|387:73,1,66.0000025177003,2|0,0:0|0:0,0:0:0:0:
339,232,186258,6,0,L|257:222,1,66.0000025177003,2|0,0:0|0:0,0:0:0:0:
428,250,186605,2,0,L|509:259,1,66.0000025177003,2|0,0:0|0:0,0:0:0:0:
302,372,186952,22,0,L|290:292,1,66.0000025177003,2|0,0:0|0:0,0:0:0:0:
329,166,187299,2,0,L|341:246,1,66.0000025177003,2|0,0:0|0:0,0:0:0:0:
203,315,187645,6,0,L|124:302,2,66.0000025177003,2|2|2,0:0|0:0|0:0,0:0:0:0:
184,215,188166,1,2,0:0:0:0:
72,348,188339,6,0,P|59:315|66:274,1,66.0000025177003,2|0,0:0|0:0,0:0:0:0:
184,215,188686,2,0,L|72:201,1,99.0000037765504,2|0,0:0|0:0,0:0:0:0:
78,207,189033,2,0,L|67:137,1,66.0000025177003,2|0,0:0|0:0,0:0:0:0:
200,56,189379,2,0,L|189:121,1,66.0000025177003,2|0,0:0|0:0,0:0:0:0:
259,257,189726,6,0,P|312:263|340:211,1,99.0000037765504,4|0,0:0|0:0,0:0:0:0:
337,219,190073,1,2,0:0:0:0:
348,78,190247,6,0,B|256:75|293:133|196:131,1,158.399995166016,8|0,0:3|0:3,0:3:0:0:
189,121,190593,1,8,0:3:0:0:
83,96,190767,6,0,B|61:72|81:42|81:42|112:77|82:121,1,132,4|0,0:3|0:0,0:0:0:0:
65,184,191114,22,0,P|32:178|0:175,1,66.0000025177003,12|0,0:1|0:0,0:0:0:0:
115,276,191460,2,0,P|82:282|50:285,1,66.0000025177003,10|2,0:1|0:0,0:0:0:0:
196,223,191807,2,0,P|204:258|210:298,2,66.0000025177003,10|0|10,0:1|0:0|0:1,0:0:0:0:
137,135,192327,1,2,0:0:0:0:
313,234,192501,86,0,P|263:225|175:212,1,132.000005035401,10|10,0:1|0:1,0:0:0:0:
344,121,193021,2,0,P|291:131|267:134,1,66.0000025177003,2|8,0:0|0:1,0:0:0:0:
417,69,193368,2,0,P|429:103|425:149,1,66.0000025177003,2|8,0:0|0:1,0:0:0:0:
390,216,193715,1,2,0:0:0:0:
315,42,193888,5,8,0:1:0:0:
315,42,194062,1,2,0:0:0:0:
417,69,194235,2,0,L|482:60,1,66.0000025177003,10|0,0:1|0:0,0:0:0:0:
343,120,194582,1,10,0:1:0:0:
455,224,194755,2,0,L|389:215,1,66.0000025177003,2|8,0:0|0:1,0:0:0:0:
304,279,195102,86,0,L|312:355,1,66.0000025177003,2|8,0:0|0:1,0:0:0:0:
229,207,195449,1,2,0:0:0:0:
214,302,195622,2,0,L|206:378,1,66.0000025177003,10|0,0:1|0:0,0:0:0:0:
37,178,195968,21,8,0:1:0:0:
128,160,196142,1,2,0:0:0:0:
147,252,196315,1,10,0:1:0:0:
55,269,196489,1,2,0:0:0:0:
37,178,196663,70,0,P|37:148|49:112,1,66.0000025177003,8|2,0:1|0:0,0:0:0:0:
170,46,197010,2,0,B|98:61|115:15|33:27,1,132.000005035401,10|8,0:1|0:1,0:0:0:0:
48,114,197530,1,2,0:0:0:0:
184,37,197703,1,10,0:1:0:0:
233,170,197877,22,0,L|240:89,1,66.0000025177003,2|8,0:0|0:1,0:0:0:0:
142,128,198223,1,2,0:0:0:0:
342,46,198397,2,0,B|414:61|397:15|479:27,1,132.000005035401,10|8,0:1|0:1,0:0:0:0:
467,170,198917,2,0,P|450:140|452:105,1,66.0000025177003,0|8,0:0|0:1,0:0:0:0:
450,109,199264,1,2,0:0:0:0:
486,270,199437,70,0,P|441:263|352:254,1,132.000005035401,10|8,0:1|0:1,0:0:0:0:
216,288,199958,2,0,P|213:318|230:350,1,66.0000025177003,2|8,0:0|0:1,0:0:0:0:
251,198,200304,1,2,0:0:0:0:
159,216,200478,2,0,P|123:207|94:202,1,66.0000025177003,8|2,0:1|0:0,0:0:0:0:
305,71,200825,22,0,P|317:111|322:143,1,66.0000025177003,8|2,0:1|0:0,0:0:0:0:
135,23,201171,2,0,L|203:37,1,66.0000025177003,8|2,0:1|0:0,0:0:0:0:
163,202,201518,2,0,P|169:169|179:138,1,66.0000025177003,8|2,0:1|0:0,0:0:0:0:
245,183,201778,1,0,0:0:0:0:
246,209,201864,1,8,0:1:0:0:
247,235,201951,1,0,0:0:0:0:
249,262,202038,1,2,0:0:0:0:
250,288,202124,1,2,0:0:0:0:
252,314,202211,53,12,0:1:0:0:
257,323,202559,1,10,0:1:0:0:
159,245,202732,2,0,P|131:238|79:232,1,66.0000025177003,2|8,0:0|0:1,0:0:0:0:
164,338,203079,1,2,0:0:0:0:
246,209,203252,2,0,L|254:140,1,66.0000025177003,10|2,0:1|0:0,0:0:0:0:
379,290,203599,6,0,P|294:298|243:336,1,132.000005035401,10|8,0:1|0:1,0:0:0:0:
447,341,204119,2,0,P|463:299|461:268,1,66.0000025177003,2|8,0:0|0:1,0:0:0:0:
401,105,204466,1,0,0:0:0:0:
481,197,204640,2,0,L|376:186,1,99.0000037765504,10|0,0:1|0:0,0:0:0:0:
370,184,204986,85,8,0:1:0:0:
357,182,205333,1,8,0:1:0:0:
448,31,205507,1,2,0:0:0:0:
310,109,205680,1,8,0:1:0:0:
401,105,205853,1,2,0:0:0:0:
261,36,206027,1,10,0:1:0:0:
269,190,206200,1,2,0:0:0:0:
459,159,206374,22,0,P|480:116|446:41,1,132.000005035401,10|10,0:1|0:1,0:0:0:0:
384,195,206894,1,2,0:0:0:0:
461,249,207067,2,0,L|510:241,2,44.0000016784669,8|2|2,0:1|0:0|0:0,0:0:0:0:
381,300,207414,2,0,L|332:292,2,44.0000016784669,10|2|2,0:1|0:0|0:0,0:0:0:0:
384,195,207761,38,0,L|372:54,1,132.000005035401,10|8,0:1|0:1,0:0:0:0:
298,5,208281,1,2,0:0:0:0:
192,152,208455,2,0,P|220:107|300:93,1,132.000005035401,10|8,0:1|0:1,0:0:0:0:
185,38,208975,1,2,0:0:0:0:
276,174,209148,54,0,L|266:280,1,99.0000037765504,10|2,0:1|0:0,0:0:0:0:
267,273,209495,1,8,0:1:0:0:
414,289,209669,2,0,P|381:296|350:306,1,66.0000025177003,2|8,0:0|0:1,0:0:0:0:
219,350,210015,2,0,P|251:357|282:367,1,66.0000025177003,2|8,0:0|0:1,0:0:0:0:
282,367,210362,1,2,0:0:0:0:
152,236,210536,38,0,B|75:227|105:282|30:277,1,132.000005035401,10|8,0:1|0:1,0:0:0:0:
36,179,211056,1,2,0:0:0:0:
149,325,211229,2,0,P|191:316|230:314,1,66.0000025177003,10|2,0:1|0:0,0:0:0:0:
158,170,211576,2,0,P|152:209|152:248,1,66.0000025177003,10|2,0:1|0:0,0:0:0:0:
312,353,211923,54,0,L|299:205,1,132.000005035401,10|8,0:1|0:1,0:0:0:0:
409,122,212443,2,0,P|374:129|324:139,1,66.0000025177003,2|8,0:0|0:1,0:0:0:0:
167,33,212790,53,8,0:3:0:0:
244,170,212963,1,8,0:1:0:0:
302,28,213137,1,4,0:3:0:0:
232,146,213310,38,0,P|162:147|153:227,1,158.399995166016,12|2,0:1|0:0,0:0:0:0:
213,288,213830,1,8,0:1:0:0:
60,243,214004,54,0,P|159:258|227:274,1,158.399995166016,8|2,0:0|0:0,0:0:0:0:
110,356,214524,1,8,0:1:0:0:
318,332,214697,38,0,L|306:212,2,118.799996374512,8|8|8,0:1|0:1|0:1,0:0:0:0:
394,257,215391,1,8,0:0:0:0:
215,271,215564,2,0,L|129:254,1,79.1999975830079,8|2,0:1|0:0,0:0:0:0:
306,213,215911,1,10,0:1:0:0:
199,108,216085,54,0,B|105:97|150:161|55:155,1,158.399995166016,12|2,0:1|0:0,0:0:0:0:
142,23,216605,1,8,0:1:0:0:
278,129,216778,2,0,P|271:71|226:31,2,118.799996374512,8|8|4,0:0|0:3|0:3,0:0:0:0:
198,282,217472,38,0,L|104:271,1,79.1999975830079,8|0,0:1|0:0,0:0:0:0:
119,272,217732,1,8,0:1:0:0:
119,272,217819,2,0,L|104:191,2,52.7999983886719,2|2|2,0:0|0:0|0:0,0:0:0:0:
140,351,218166,54,0,L|234:362,1,79.1999975830079,8|8,0:0|0:3,0:0:0:0:
308,370,218426,1,8,0:3:0:0:
308,370,218512,1,4,0:3:0:0:
208,221,218686,1,4,0:3:0:0:
450,274,218859,54,0,B|442:228|458:199|458:199|424:172|366:105|394:12|487:0|562:63|534:156|469:176|400:172|354:133|342:101|342:101|312:139|263:139,1,580.799982275391,12|8,0:1|0:1,0:0:0:0:
114,20,220940,22,0,L|126:70,1,44,4|0,0:3|0:0,0:0:0:0:
197,111,221114,2,0,L|185:161,1,44,8|0,0:1|0:0,0:0:0:0:
72,347,221287,86,0,B|146:284|188:206|139:97|19:109|-27:223|24:279|123:316|172:314|205:293|219:255|219:255|261:297|313:278,1,594.000022659303,12|0,0:1|0:0,0:0:0:0:
449,197,223021,21,10,0:1:0:0:
382,354,223195,2,0,L|389:257,1,88,8|0,0:3|0:0,0:0:0:0:
314,169,223541,1,4,0:3:0:0:
452,91,223715,85,8,0:3:0:0:
297,182,223888,1,8,0:1:0:0:
290,16,224062,2,0,P|351:29|356:91,1,132,12|0,0:0|0:0,0:0:0:0:
314,169,224408,22,0,P|214:159|120:154,1,176,12|2,0:1|0:0,0:0:0:0:
214,48,224929,1,2,0:0:0:0:
85,205,225102,1,12,0:1:0:0:
85,205,225275,2,0,P|64:152|156:84,1,176,2|0,0:1|0:0,0:0:0:0:
314,169,225796,6,0,L|377:156,1,44,12|2,0:1|0:0,0:0:0:0:
464,36,225969,22,0,P|441:25|401:23,1,44,8|2,0:3|0:0,0:0:0:0:
266,72,226142,6,0,L|310:81,1,44,10|2,0:1|0:0,0:0:0:0:
414,225,226316,6,0,L|401:280,1,44,10|2,0:1|0:0,0:0:0:0:
318,368,226489,5,8,0:0:0:0:
292,347,226575,1,2,0:0:0:0:
279,317,226662,1,2,0:0:0:0:
281,285,226749,1,2,0:0:0:0:
299,257,226836,6,0,L|288:161,1,88,12|8,0:1|0:3,0:0:0:0:
422,21,227182,2,0,L|433:117,1,88,10|0,0:1|0:3,0:0:0:0:
288,169,227529,6,0,P|236:163|194:157,1,88,10|0,0:1|0:0,0:0:0:0:
108,42,227876,2,0,P|160:36|202:30,1,88,10|0,0:1|0:0,0:0:0:0:
150,239,228223,22,0,P|117:205|107:166,1,88,10|0,0:1|0:0,0:0:0:0:
300,81,228570,2,0,L|287:173,1,88,10|0,0:1|0:0,0:0:0:0:
236,367,228916,2,0,L|221:270,1,88,10|0,0:1|0:0,0:0:0:0:
379,94,229263,1,0,1:0:0:0:
374,126,229349,1,0,1:0:0:0:
369,159,229437,2,0,L|361:210,1,44,8|0,0:3|0:0,0:0:0:0:
355,310,229610,6,0,L|388:282,1,44,12|0,0:1|0:0,0:0:0:0:
458,219,229783,2,0,L|497:180,1,44,8|0,0:1|0:0,0:0:0:0:
275,284,229957,6,0,L|291:226,1,52.7999983886719,10|2,1:0|0:0,0:0:0:0:
329,111,230130,2,0,L|344:60,1,52.7999983886719,10|2,0:1|0:1,0:0:0:0:
202,325,230304,6,0,L|194:261,1,57.1999973815919,10|2,1:0|0:0,0:3:0:0:
170,96,230477,2,0,L|161:39,1,57.1999973815919,10|2,0:1|0:1,0:3:0:0:
134,374,230651,6,0,L|110:318,1,61.5999981201172,10|2,1:1|0:0,0:3:0:0:
27,120,230824,2,0,L|0:64,1,61.5999981201172,10|2,0:1|0:1,0:3:0:0:
16,294,230997,5,10,0:1:0:0:
38,254,231083,1,2,0:0:0:0:
77,229,231170,1,10,0:1:0:0:
122,226,231257,1,2,0:0:0:0:
164,244,231343,21,14,0:0:0:0:
206,261,231431,1,2,0:0:0:0:
250,258,231518,1,2,0:0:0:0:
289,233,231605,1,2,0:0:0:0:
312,195,231691,5,8,0:3:0:0:
304,133,231777,1,0,3:3:0:0:
296,72,231864,1,0,1:0:0:0:
282,18,231951,1,0,1:0:0:0:
221,26,232037,1,0,1:0:0:0:
160,34,232124,1,0,1:0:0:0:
99,42,232211,6,0,L|37:32,1,61.5999981201172,2|0,1:0|1:0,0:0:0:0:
206,115,232385,6,0,L|309:133,1,99.0000037765504
390,97,232731,6,0,B|278:82|324:185|215:208,1,198.000007553101,12|0,1:1|0:0,0:0:0:0:
116,185,233078,5,4,0:3:0:0:
122,216,233164,1,0,0:0:0:0:
128,249,233251,1,0,1:0:0:0:
134,281,233338,1,0,1:0:0:0:
142,314,233425,2,0,L|153:368,1,52.7999983886719,8|8,0:0|0:0,0:0:0:0:
371,202,233599,2,0,L|359:260,1,52.7999983886719,8|8,0:3|0:3,0:0:0:0:
302,347,233772,5,8,0:0:0:0:
255,324,233858,1,8,0:0:0:0:
230,278,233945,1,8,0:3:0:0:
237,227,234032,1,8,0:3:0:0:
273,189,234118,1,4,0:3:0:0:
324,180,234205,1,4,0:3:0:0:
371,202,234292,22,0,L|368:141,1,52.7999983886719,8|8,0:0|0:3,0:0:0:0:
247,18,234466,2,0,L|250:70,1,52.7999983886719,4|8,0:3|0:1,0:0:0:0:
122,216,234639,2,0,L|118:163,1,52.7999983886719,10|10,0:1|0:1,0:0:0:0:
26,5,234812,5,12,0:0:0:0:
95,300,234986,2,0,L|128:201,1,88,2|0,0:0|0:0,0:0:0:0:
334,252,235506,6,0,B|275:263|275:263|245:327|245:327|165:361,1,198.000007553101,12|0,0:1|0:0,0:0:0:0:
187,265,235853,5,10,0:1:0:0:
333,336,236026,1,2,0:1:0:0:
324,120,236200,6,0,L|311:171,1,52.7999983886719,8|2,0:0|0:0,0:0:0:0:
258,366,236373,1,2,0:0:0:0:
437,230,236546,6,0,P|384:239|333:251,1,105.599996777344,10|2,0:1|0:0,0:0:0:0:
333,336,236807,1,0,0:0:0:0:
325,346,236893,2,0,P|299:339|273:333,1,52.7999983886719,10|0,0:1|0:0,0:0:0:0:
72,357,237067,2,0,L|80:304,1,52.7999983886719,2|0,1:0|1:0,0:0:0:0:
109,91,237240,21,8,0:2:0:0:
59,81,237326,1,8,0:2:0:0:
21,115,237413,1,8,0:3:0:0:
27,166,237500,1,4,0:3:0:0:
72,190,237587,2,0,L|176:174,1,105.599996777344,12|0,0:0|1:3,0:0:0:0:
266,122,237847,1,0,1:0:0:0:
266,122,237934,6,0,L|258:247,1,105.599996777344,12|2,0:1|0:0,0:0:0:0:
256,309,238194,1,2,0:0:0:0:
256,309,238281,1,8,0:0:0:0:
99,174,238454,1,2,0:0:0:0:
355,89,238627,2,0,B|410:98|410:98|442:140|442:140|519:152,1,158.399995166016,10|2,0:1|0:0,0:0:0:0:
503,150,238974,2,0,L|487:34,1,105.599996777344,8|2,0:0|0:0,0:0:0:0:
341,173,239321,6,0,L|356:283,1,105.599996777344,10|0,0:1|0:0,0:0:0:0:
362,356,239581,2,0,L|305:348,1,52.7999983886719,2|8,0:0|0:0,0:0:0:0:
491,147,239841,2,0,L|483:203,1,52.7999983886719,2|0,0:0|0:0,0:0:0:0:
240,214,240015,22,0,L|222:84,1,105.599996777344,10|0,0:1|0:0,0:0:0:0:
245,30,240275,1,2,0:0:0:0:
245,30,240362,2,0,L|178:38,1,52.7999983886719,8|0,0:0|0:0,0:0:0:0:
39,52,240535,1,2,0:0:0:0:
180,19,240708,5,8,0:1:0:0:
105,214,240881,2,0,L|90:277,1,52.7999983886719,2|0,0:0|0:0,0:0:0:0:
351,179,241055,2,0,L|170:152,1,158.399995166016,12|0,0:0|0:0,0:0:0:0:
194,155,241401,1,8,0:1:0:0:
174,294,241575,1,2,0:0:0:0:
40,141,241748,1,12,0:0:0:0:
100,356,241921,1,2,0:0:0:0:
273,243,242096,21,8,0:1:0:0:
293,40,242269,1,10,0:0:0:0:
116,221,242442,1,12,1:2:0:0:
416,316,242616,5,8,0:0:0:0:
418,289,242702,1,8,0:0:0:0:
420,263,242789,1,8,1:0:0:0:
423,237,242876,1,0,1:0:0:0:
425,210,242963,5,8,1:2:0:0:
373,205,243049,1,8,1:2:0:0:
332,173,243136,1,12,0:0:0:0:
315,124,243223,1,8,0:0:0:0:
328,73,243309,1,8,0:0:0:0:
367,38,243396,1,8,0:0:0:0:
420,32,243483,6,0,B|338:20|338:20|308:32|308:32|209:22,1,198.000007553101,12|0,0:1|0:0,0:0:0:0:
133,0,243830,2,0,L|131:110,1,105.599996777344,10|0,0:0|0:0,0:0:0:0:
140,337,244177,1,10,0:1:0:0:
140,337,244263,1,2,0:0:0:0:
140,337,244350,1,2,0:0:0:0:
35,130,244523,2,0,B|78:99|78:99|130:104,1,105.599996777344,8|2,0:0|0:0,0:0:0:0:
382,228,244870,5,10,0:1:0:0:
221,22,245044,1,2,0:0:0:0:
199,206,245217,1,12,0:0:0:0:
404,45,245390,1,2,0:0:0:0:
275,290,245564,5,10,0:1:0:0:
129,104,245737,2,0,L|181:112,1,52.7999983886719,8|0,0:3|0:0,0:0:0:0:
313,128,245911,2,0,L|323:77,1,52.7999983886719,8|8,0:0|0:0,0:0:0:0:
190,294,246084,2,0,L|181:347,1,52.7999983886719,4|4,0:3|0:3,0:0:0:0:
40,165,246257,22,0,L|91:177,1,52.7999983886719,0|0,1:2|1:2,0:0:0:0:
472,253,246431,1,10,1:2:0:0:
462,262,246778,6,0,P|471:175|385:181,1,198.000007553101,12|0,0:0|0:0,0:0:0:0:
309,248,247125,1,0,1:0:0:0:
311,271,247211,1,0,1:0:0:0:
313,294,247298,2,0,L|318:367,1,66.0000025177003,8|0,0:0|0:0,0:0:0:0:
233,101,247471,6,0,B|283:105|333:83|333:83|372:114|372:114|423:87|482:98,1,264.000010070801,12|8,0:1|0:1,0:0:0:0:
376,278,247992,2,0,L|300:269,1,66.0000025177003,12|2,0:0|0:0,0:0:0:0:
233,101,248165,1,10,0:1:0:0:
242,94,248252,1,8,0:0:0:0:
252,87,248338,6,0,P|289:85|318:93,1,66.0000025177003,4|0,0:3|3:0,0:0:0:0:
225,341,248512,2,0,P|192:339|161:328,1,66.0000025177003,0|0,1:0|1:0,0:0:0:0:
137,222,248684,5,10,1:1:0:0:
203,214,248771,1,0,1:0:0:0:
268,205,248858,1,10,0:0:0:0:
334,197,248945,1,8,0:0:0:0:
399,189,249032,6,0,L|387:83,1,105.599996777344,12|2,0:1|0:0,0:0:0:0:
216,294,249379,2,0,B|319:266|290:364|396:343,1,198.000007553101,12|0,0:0|0:0,0:0:0:0:
453,266,249726,2,0,P|437:208|391:188,1,105.599996777344,8|2,0:1|0:0,0:0:0:0:
228,304,250072,1,8,0:0:0:0:
370,264,250246,1,2,0:0:0:0:
163,131,250419,22,0,L|51:144,1,105.599996777344,8|2,0:1|0:0,0:0:0:0:
58,143,250679,1,2,0:0:0:0:
58,143,250766,1,8,0:0:0:0:
282,75,250940,1,2,0:0:0:0:
228,304,251113,1,8,0:1:0:0:
163,131,251286,1,2,0:0:0:0:
163,131,251460,1,10,0:0:0:0:
370,264,251633,6,0,L|494:245,1,105.599996777344,2|8,0:0|0:1,0:0:0:0:
353,30,251980,1,2,0:0:0:0:
218,206,252153,2,0,P|207:263|231:307,1,105.599996777344,8|2,0:0|0:0,0:0:0:0:
371,133,252500,1,10,0:1:0:0:
190,39,252674,1,2,0:0:0:0:
288,249,252847,1,8,0:0:0:0:
353,30,253020,1,2,0:0:0:0:
147,145,253194,5,10,0:1:0:0:
374,228,253367,1,2,0:0:0:0:
374,228,253454,1,2,0:0:0:0:
374,228,253541,2,0,L|368:167,1,52.7999983886719,10|0,0:0|0:0,0:0:0:0:
328,6,253714,2,0,L|334:67,1,52.7999983886719,6|0,0:0|0:0,0:0:0:0:
467,167,253888,5,10,0:1:0:0:
220,64,254061,1,2,0:0:0:0:
486,55,254234,5,12,0:0:0:0:
230,189,254408,1,8,0:3:0:0:
217,196,254494,1,8,0:3:0:0:
204,203,254581,2,0,L|218:98,1,105.599996777344,12|0,0:1|0:0,0:0:0:0:
59,259,254928,2,0,L|73:363,1,105.599996777344,8|2,0:0|0:0,0:0:0:0:
30,147,255275,1,8,0:1:0:0:
199,301,255448,2,0,P|253:283|304:270,1,105.599996777344,2|8,0:0|0:0,0:0:0:0:
396,67,255795,6,0,P|368:118|368:174,1,105.599996777344,2|12,0:0|0:1,0:0:0:0:
499,326,256142,1,2,0:0:0:0:
457,140,256315,1,8,0:0:0:0:
318,275,256489,1,2,0:0:0:0:
509,221,256662,21,8,0:1:0:0:
297,96,256836,1,0,1:0:0:0:
244,100,256922,1,0,1:0:0:0:
191,104,257009,1,8,0:0:0:0:
139,109,257096,1,8,0:0:0:0:
86,113,257182,1,8,0:3:0:0:
404,15,257356,5,4,1:0:0:0:
287,186,257529,1,10,0:1:0:0:
255,13,257703,5,12,0:0:0:0:
391,234,257876,1,8,0:1:0:0:
190,104,258049,5,10,0:0:0:0:
163,293,258223,1,10,0:1:0:0:
331,101,258396,6,0,L|264:92,1,52.7999983886719,8|2,0:0|0:0,0:0:0:0:
56,47,258570,1,10,0:1:0:0:
27,259,258743,5,4,1:1:0:0:
287,186,258916,1,8,0:1:0:0:
56,139,259090,21,8,0:0:0:0:
232,353,259263,1,8,0:1:0:0:
308,75,259437,5,8,0:0:0:0:
163,293,259610,1,8,0:1:0:0:
201,108,259783,5,12,0:0:0:0:
401,339,259957,2,0,L|411:279,1,52.7999983886719,10|2,0:1|0:0,0:0:0:0:
442,47,260130,5,12,0:0:0:0:
287,186,260304,1,0,1:0:0:0:
489,227,260477,1,8,1:2:0:0:
308,75,260651,1,8,1:0:0:0:
252,303,260824,5,8,1:2:0:0:
465,134,260997,1,8,1:2:0:0:
201,108,261171,1,8,1:2:0:0:
201,108,261257,1,8,0:3:0:0:
201,108,261344,2,0,L|129:87,1,52.7999983886719,4|0,0:3|0:0,0:0:0:0:
18,259,261518,6,0,B|71:246|71:246|96:258|96:258|156:242,1,132.000005035401,12|0,0:0|1:0,0:0:0:0:
212,198,261778,1,8,0:0:0:0:
212,198,261864,2,0,L|232:275,1,66.0000025177003,8|0,0:1|0:0,0:0:0:0:
410,360,262038,22,0,B|439:303|439:303|403:237,1,132.000005035401,12|8,0:0|0:1,0:0:0:0:
364,175,262298,1,8,0:3:0:0:
364,175,262385,2,0,P|397:170|431:155,1,66.0000025177003,8|0,0:1|0:0,0:0:0:0:
291,16,262558,6,0,B|224:28|224:28|197:68|197:68|96:93,1,198.000007553101,12|0,0:0|1:0,0:0:0:0:
117,87,262905,2,0,L|129:156,1,66.0000025177003,8|0,0:1|0:0,0:0:0:0:
197,329,263078,6,0,L|211:197,1,132.000005035401,12|8,0:0|0:1,0:0:0:0:
220,108,263338,1,2,0:0:0:0:
220,108,263425,2,0,L|229:35,1,66.0000025177003,8|0,0:0|0:0,0:0:0:0:
46,237,263599,6,0,L|122:250,1,66.0000025177003,8|0,0:0|0:0,0:0:0:0:
294,331,263772,1,2,1:0:0:0:
342,326,263858,1,2,1:0:0:0:
380,295,263945,1,2,1:0:0:0:
393,248,264032,1,2,1:0:0:0:
377,202,264119,6,0,L|365:2,1,193.600005908203,12|0,0:1|0:0,0:0:0:0:
137,70,264639,2,0,P|131:138|223:90,1,198.000007553101,12|0,0:0|0:0,0:0:0:0:
137,70,264986,2,0,L|41:84,1,96.8000029541017,10|0,0:1|0:0,0:0:0:0:
18,260,265333,2,0,L|114:246,1,96.8000029541017,8|0,0:0|0:0,0:0:0:0:
282,343,265679,6,0,B|326:293|287:231|287:231|304:194|295:155,1,193.600005908203,10|8,0:1|0:0,0:0:0:0:
211,32,266200,1,0,0:0:0:0:
384,167,266373,2,0,L|488:141,1,96.8000029541017,10|0,0:1|0:0,0:0:0:0:
320,268,266720,2,0,L|216:242,1,96.8000029541017,8|0,0:0|0:0,0:0:0:0:
17,216,267067,22,0,B|34:347|34:347|68:297,1,193.600005908203,10|8,0:1|0:0,0:0:0:0:
115,135,267587,2,0,P|61:130|11:124,1,96.8000029541017,2|8,0:0|0:1,0:0:0:0:
195,46,267934,1,2,0:0:0:0:
226,244,268107,2,0,P|280:239|330:233,1,96.8000029541017,8|2,0:0|0:0,0:0:0:0:
136,121,268454,5,8,0:1:0:0:
206,327,268627,2,0,L|219:255,1,48.4000014770508,2|0,0:0|0:0,0:0:0:0:
285,112,268801,2,0,L|272:184,1,48.4000014770508,8|0,0:0|0:0,0:0:0:0:
346,344,268974,2,0,L|453:329,1,96.8000029541017,2|8,0:0|0:1,0:0:0:0:
401,111,269321,2,0,L|411:180,1,48.4000014770508,2|0,0:0|0:0,0:0:0:0:
419,251,269494,2,0,P|354:198|420:107,1,198.000007553101,12|0,0:0|0:0,0:0:0:0:
480,77,269841,6,0,B|406:67|406:67|376:84|376:84|273:70,1,193.600005908203,12|8,0:1|0:0,0:0:0:0:
81,138,270362,1,2,0:0:0:0:
165,25,270535,2,0,P|205:60|211:112,1,96.8000029541017,8|2,0:1|0:0,0:0:0:0:
75,234,270882,2,0,L|81:129,1,96.8000029541017,8|0,0:0|0:0,0:0:0:0:
265,202,271229,6,0,L|274:357,1,145.200004431152,10|0,0:1|0:0,0:0:0:0:
278,357,271575,2,0,L|165:337,1,96.8000029541017,8|0,0:0|0:0,0:0:0:0:
182,340,271836,1,2,0:0:0:0:
182,340,271922,1,10,0:1:0:0:
384,242,272096,1,8,0:0:0:0:
170,153,272269,1,8,0:0:0:0:
282,256,272442,2,0,L|285:194,1,48.4000014770508,2|2,0:0|0:0,0:0:0:0:
325,32,272616,6,0,L|166:37,1,158.399995166016,12|0,0:0|1:0,0:0:0:0:
166,37,272963,1,8,0:1:0:0:
317,170,273136,1,8,0:0:0:0:
407,52,273309,2,0,L|403:-3,2,52.7999983886719,4|8|8,0:3|0:0|0:1,0:0:0:0:
317,170,273656,6,0,L|482:157,1,158.399995166016,8|0,0:0|1:0,0:0:0:0:
474,157,274003,1,8,0:1:0:0:
355,303,274176,1,8,0:0:0:0:
228,198,274350,2,0,L|224:143,2,52.7999983886719,4|0|8,0:3|1:0|0:0,0:0:0:0:
192,334,274697,22,0,L|27:321,1,158.399995166016,8|0,0:3|1:0,0:0:0:0:
41,246,275044,1,8,0:0:0:0:
44,219,275130,1,8,0:0:0:0:
48,193,275217,1,4,0:3:0:0:
14,49,275390,5,12,0:0:0:0:
197,178,275564,1,0,0:0:0:0:
205,183,275651,2,0,L|258:172,1,52.7999983886719,8|8,0:0|0:1,0:0:0:0:
131,52,275911,1,8,0:0:0:0:
124,283,276084,2,0,L|141:344,1,52.7999983886719,10|0,0:0|0:0,0:0:0:0:
256,172,276257,2,0,L|239:111,1,52.7999983886719,0|0,1:0|1:0,0:0:0:0:
427,273,276431,6,0,L|311:266,1,105.599996777344,12|2,0:0|0:0,0:0:0:0:
235,259,276691,1,0,1:0:0:0:
240,265,276778,2,0,L|261:326,1,52.7999983886719,8|0,0:0|0:0,0:0:0:0:
332,102,276951,2,0,L|311:41,1,52.7999983886719,8|0,0:0|0:0,0:0:0:0:
479,277,277125,6,0,L|426:272,1,52.7999983886719,12|0,0:0|0:0,0:0:0:0:
189,113,277298,2,0,L|241:121,1,52.7999983886719,0|0,1:2|1:2,0:0:0:0:
423,140,277471,5,12,1:0:0:0:
456,179,277557,1,0,1:0:0:0:
458,231,277644,1,8,1:2:0:0:
427,273,277731,1,8,1:2:0:0:
377,287,277817,1,8,1:2:0:0:
330,268,277904,1,8,1:2:0:0:
304,221,277992,6,0,B|323:167|264:128|281:168|215:117|215:117|233:289|233:289|175:249|46:326|185:402|237:320,1,571.999973815919,4|2,1:0|0:0,0:0:0:0:
