osu file format v14

[General]
AudioFilename: audio.mp3
AudioLeadIn: 0
PreviewTime: 143465
Countdown: 0
SampleSet: Soft
StackLeniency: 0.7
Mode: 0
LetterboxInBreaks: 0
WidescreenStoryboard: 0

[Editor]
Bookmarks: 262558
DistanceSpacing: 3
BeatDivisor: 16
GridSize: 4
TimelineZoom: 3.399999

[Metadata]
Title:367Days
TitleUnicode:367Days
Artist:KiRaRe
ArtistUnicode:KiRaRe
Creator:_kotachi_
Version:Over the Dreams
Source:Re:ステージ!プリズムステップ
Tags:re:stage! prism step restage dream days Re:ステージ! ドリームデイズ rst japanese video game anime キラリ 式宮舞菜 Shikimiya Mana 月坂紗由 Tsukisaka Sayu 市杵島瑞葉 Ichikishima Mizuha 柊かえ Hiiragi Kae 本城香澄 Honjou Kasumi 長谷川みい Hasegawa Mii 牧野天音 Makino Amane 鬼頭明里 Kitou Akari 田澤茉純 Tazawa Masumi 立花芽恵夢 Tachibana Meemu 岩橋由佳 Iwahashi Yuka 空見ゆき Sorami Yuki
BeatmapID:2183206
BeatmapSetID:1044333

[Difficulty]
HPDrainRate:5
CircleSize:3.9
OverallDifficulty:9.2
ApproachRate:9.3
SliderMultiplier:1.76
SliderTickRate:1

[Events]
//Background and Video events
0,0,"BG.jpg",0,0
//Break Periods
//Storyboard Layer 0 (Background)
//Storyboard Layer 1 (Fail)
//Storyboard Layer 2 (Pass)
//Storyboard Layer 3 (Foreground)
//Storyboard Layer 4 (Overlay)
//Storyboard Sound Samples

[TimingPoints]
512,333.333333333333,4,2,1,30,1,0
512,-133.333333333333,4,2,1,30,0,0
4178,-100,4,2,1,60,0,0
4261,-100,4,2,1,30,0,0
4345,-100,4,2,1,60,0,0
4678,-100,4,2,2,60,0,0
4845,-100,4,2,1,60,0,0
5011,-100,4,2,2,60,0,0
5178,-100,4,2,1,60,0,0
5345,-100,4,2,1,70,0,0
5511,333.333333333333,4,2,1,70,1,0
14010,-100,4,2,2,70,0,0
14177,-100,4,2,1,70,0,0
15510,-100,4,2,2,70,0,0
16177,-133.333333333333,4,2,1,50,0,0
26510,-100,4,2,1,50,0,0
26760,-100,4,2,1,5,0,0
26844,-111.111111111111,4,2,1,60,0,0
29510,-111.111111111111,4,2,2,60,0,0
29844,-111.111111111111,4,2,1,60,0,0
37510,-100,4,2,1,60,0,0
40677,-100,4,2,2,60,0,0
41010,-100,4,2,1,60,0,0
42010,-100,4,2,1,60,0,0
42177,-100,4,2,2,5,0,0
42344,-100,4,2,2,60,0,0
42844,-100,4,2,1,60,0,0
53344,-100,4,2,10,60,0,0
53510,-100,4,2,1,70,0,1
56177,-100,4,2,2,70,0,1
56344,-100,4,2,1,70,0,1
57510,-100,4,2,2,70,0,1
57677,-100,4,2,1,70,0,1
61510,-100,4,2,2,70,0,1
61677,-100,4,2,1,70,0,1
62844,-100,4,2,2,70,0,1
63177,-100,4,2,1,70,0,1
66844,-100,4,2,2,70,0,1
67177,-100,4,2,1,70,0,1
68177,-100,4,2,2,70,0,1
68510,-100,4,2,1,70,0,1
68844,-100,4,2,2,70,0,1
69510,-100,4,2,1,70,0,1
72177,-100,4,2,2,70,0,1
72510,-100,4,2,1,70,0,1
74510,-100,4,2,1,70,0,0
74844,-90.9090909090909,4,2,1,70,0,1
75177,-83.3333333333333,4,2,1,70,0,1
75510,-90.9090909090909,4,2,1,70,0,1
77760,-90.9090909090909,4,2,1,5,0,1
77844,-90.9090909090909,4,2,1,70,0,1
82177,-66.6666666666667,4,2,2,70,0,1
82844,-90.9090909090909,4,2,1,70,0,1
92510,-90.9090909090909,4,2,1,70,0,1
93094,-111.111111111111,4,2,1,5,0,1
93177,-100,4,2,1,70,0,1
93427,-100,4,2,1,5,0,1
93510,-90.9090909090909,4,2,1,70,0,1
96177,-100,4,2,1,70,0,0
100677,-100,4,2,2,70,0,0
101510,-100,4,2,1,70,0,0
106844,-133.333333333333,4,2,1,50,0,0
112177,-133.333333333333,4,2,2,50,0,0
112510,-133.333333333333,4,2,1,50,0,0
114677,-111.111111111111,4,2,1,50,0,0
115844,-111.111111111111,4,2,1,60,0,0
116344,-76.9230769230769,4,2,1,50,0,0
117177,-133.333333333333,4,2,1,50,0,0
117427,-133.333333333333,4,2,1,5,0,0
117510,-100,4,2,1,60,0,0
130844,-100,4,2,2,60,0,0
131010,-100,4,2,1,60,0,0
133010,-100,4,2,2,60,0,0
133510,-100,4,2,1,60,0,0
144010,-100,4,2,10,60,0,0
144177,-100,4,2,1,70,0,1
146510,-100,4,2,2,70,0,1
147010,-100,4,2,1,70,0,1
151844,-100,4,2,2,70,0,1
152510,-100,4,2,1,70,0,1
165177,-100,4,2,1,70,0,0
165510,-90.9090909090909,4,2,1,70,0,1
165844,-83.3333333333333,4,2,1,70,0,1
166177,-90.9090909090909,4,2,1,70,0,1
168427,-90.9090909090909,4,2,1,5,0,1
168510,-90.9090909090909,4,2,1,70,0,1
183177,-90.9090909090909,4,2,1,70,0,1
183760,-90.9090909090909,4,2,1,5,0,1
183844,-90.9090909090909,4,2,1,70,0,1
185344,-90.9090909090909,4,2,2,70,0,1
185677,-90.9090909090909,4,2,1,70,0,1
186844,-100,4,2,1,65,0,0
192177,-100,4,2,2,65,0,0
192344,-100,4,2,1,65,0,0
194844,-83.3333333333333,4,2,1,75,0,0
197510,-90.9090909090909,4,2,1,60,0,0
202844,-100,4,2,1,70,0,0
208010,-90.9090909090909,4,2,1,70,0,0
210344,-90.9090909090909,4,2,1,40,0,0
210427,-90.9090909090909,4,2,1,45,0,0
210510,-90.9090909090909,4,2,1,50,0,0
210594,-90.9090909090909,4,2,1,55,0,0
210677,-90.9090909090909,4,2,1,60,0,0
210760,-90.9090909090909,4,2,1,65,0,0
210844,-100,4,2,1,60,0,0
220177,-100,4,2,2,60,0,0
220344,-100,4,2,1,60,0,0
230844,-133.333333333333,4,2,1,60,0,0
231155,333.333333333333,4,2,1,40,1,0
231155,-100,4,2,1,40,0,0
231266,-100,4,2,1,50,0,0
231377,-100,4,2,1,55,0,0
231488,-100,4,2,1,60,0,0
231832,333.333333333333,4,2,1,60,1,0
232177,333.333333333333,4,2,1,60,1,0
232177,-133.333333333333,4,2,1,60,0,0
245760,-133.333333333333,4,2,1,5,0,0
245843,-133.333333333333,4,2,1,60,0,0
246093,-133.333333333333,4,2,1,5,0,0
246177,-133.333333333333,4,2,1,60,0,0
253343,-133.333333333333,4,2,10,60,0,0
253510,-83.3333333333333,4,2,1,75,0,1
254010,-83.3333333333333,4,2,2,75,0,1
254176,-83.3333333333333,4,2,1,75,0,1
254510,-83.3333333333333,4,2,2,75,0,1
254676,-83.3333333333333,4,2,1,75,0,1
256176,-200,4,2,1,75,0,0
256510,-66.6666666666667,4,2,2,75,0,1
256760,-66.6666666666667,4,2,1,75,0,1
256843,-66.6666666666667,4,2,2,75,0,1
257510,-83.3333333333333,4,2,1,75,0,1
260843,-66.6666666666667,4,2,2,75,0,1
261176,-66.6666666666667,4,2,1,75,0,1
261510,-200,4,2,1,75,0,0
261843,-55.5555555555556,4,2,1,75,0,1
262176,-100,4,2,1,75,0,1
262343,-66.6666666666667,4,2,1,75,0,1
262843,-66.6666666666667,4,2,2,75,0,1
263010,-66.6666666666667,4,2,1,75,0,1
263510,-83.3333333333333,4,2,1,75,0,0
264176,-83.3333333333333,4,2,1,75,0,1
273343,-83.3333333333333,4,2,2,75,0,1
273676,-83.3333333333333,4,2,1,75,0,1
274510,-83.3333333333333,4,2,1,75,0,0
274843,-83.3333333333333,4,2,2,85,0,1
275010,-83.3333333333333,4,2,1,85,0,1
276176,-83.3333333333333,4,2,2,85,0,1
276343,-83.3333333333333,4,2,1,85,0,1
277510,-83.3333333333333,4,2,2,85,0,1
277676,-83.3333333333333,4,2,1,85,0,1
280176,-100,4,2,1,75,0,1
280510,-100,4,2,2,45,0,1
280843,-100,4,2,2,55,0,1
281176,-100,4,2,2,65,0,1
281510,-133.333333333333,4,2,2,75,0,1
281843,-76.9230769230769,4,2,2,75,0,1
282176,-100,4,2,2,75,0,1
282510,-100,4,2,1,75,0,1
282843,-100,4,2,2,75,0,1
284010,-83.3333333333333,4,2,1,75,0,1
284510,-83.3333333333333,4,2,2,75,0,1
284843,-83.3333333333333,4,2,1,75,0,1
285510,-90.9090909090909,4,2,1,70,0,0
290676,-90.9090909090909,4,2,1,75,0,0
293343,-90.9090909090909,4,2,1,70,0,0
298843,-90.9090909090909,4,2,1,70,0,1
300176,-66.6666666666667,4,2,1,70,0,1
301343,-133.333333333333,4,2,1,70,0,0
302843,-133.333333333333,4,2,1,5,0,0
302926,-133.333333333333,4,2,1,70,0,0
303510,-133.333333333333,4,2,1,65,0,0
304176,-133.333333333333,4,2,1,55,0,0
304843,-133.333333333333,4,2,1,45,0,0
305510,-133.333333333333,4,2,1,35,0,0
306176,-133.333333333333,4,2,1,25,0,0
306510,-133.333333333333,4,2,1,40,0,0
306822,-133.333333333333,4,2,1,5,0,0

[Colours]
Combo1 : 221,0,0
Combo2 : 255,128,64
Combo3 : 128,128,255
Combo4 : 255,102,255
Combo5 : 0,104,208
Combo6 : 255,251,74

[HitObjects]
131,145,512,5,2,0:0:0:0:
196,92,678,1,0,0:0:0:0:
280,101,845,1,0,0:0:0:0:
193,69,1011,1,2,0:0:0:0:
196,254,1178,5,2,0:0:0:0:
279,189,1345,1,0,0:0:0:0:
131,145,1511,1,0,0:0:0:0:
196,254,1678,1,2,0:0:0:0:
280,101,1845,5,2,0:0:0:0:
279,189,2011,1,0,0:0:0:0:
362,149,2178,1,2,0:0:0:0:
311,295,2345,2,0,P|301:331|294:365,1,66.0000025177003,2|0,0:0|0:0,0:0:0:0:
264,190,2678,5,0,0:0:0:0:
387,265,2845,1,2,0:0:0:0:
366,135,3011,1,0,0:0:0:0:
311,295,3178,5,0,0:0:0:0:
176,212,3345,1,2,0:0:0:0:
366,135,3511,1,2,0:0:0:0:
197,117,3678,5,0,0:0:0:0:
379,239,3845,1,0,0:0:0:0:
277,35,4011,1,2,0:0:0:0:
133,297,4178,5,8,0:3:0:0:
100,293,4261,1,8,0:0:0:0:
67,290,4345,1,8,0:0:0:0:
34,286,4428,1,8,0:0:0:0:
1,283,4511,1,8,0:0:0:0:
287,74,4678,5,6,0:0:0:0:
212,355,4845,1,2,0:0:0:0:
181,74,5011,5,6,0:0:0:0:
311,326,5178,1,2,0:0:0:0:
64,196,5345,6,0,P|167:160|252:141,1,176,12|8,0:1|0:1,0:0:0:0:
402,43,5845,2,0,P|385:86|368:140,1,88,8|0,0:0|0:0,0:0:0:0:
276,51,6178,1,8,0:1:0:0:
380,230,6345,1,10,0:1:0:0:
232,144,6511,1,8,0:0:0:0:
463,115,6678,1,2,0:0:0:0:
311,326,6845,6,0,B|214:360|240:278|135:317,1,176,10|8,0:1|0:0,0:0:0:0:
76,102,7345,2,0,B|100:127|100:127|81:224,1,132,10|0,0:1|0:0,0:0:0:0:
81,222,7678,1,8,0:1:0:0:
253,89,7845,2,0,L|264:145,2,44,8|0|0,0:0|0:0|0:0,0:0:0:0:
409,359,8178,6,0,P|404:275|332:231,1,176,10|8,0:1|0:0,0:0:0:0:
145,280,8678,1,8,0:1:0:0:
321,233,8845,2,0,P|329:186|337:143,1,88,2|8,0:0|0:1,0:0:0:0:
345,134,9095,1,0,0:0:0:0:
345,134,9178,1,8,0:0:0:0:
327,319,9345,1,2,0:0:0:0:
198,195,9511,5,8,0:1:0:0:
421,245,9678,1,10,0:1:0:0:
220,178,9845,1,8,0:0:0:0:
452,11,10011,5,2,0:0:0:0:
452,11,10095,1,2,0:0:0:0:
452,11,10178,1,8,0:1:0:0:
305,211,10345,1,8,0:0:0:0:
125,89,10511,2,0,P|171:94|219:101,1,88,8|0,0:0|0:0,0:0:0:0:
130,306,10845,5,12,0:0:0:0:
389,220,11011,1,0,0:0:0:0:
212,99,11178,5,8,0:0:0:0:
311,361,11345,1,2,3:2:0:0:
370,100,11511,5,8,0:0:0:0:
130,306,11678,1,10,0:1:0:0:
180,18,11845,5,8,0:0:0:0:
340,285,12011,1,10,0:1:0:0:
51,234,12178,5,8,0:0:0:0:
364,96,12345,1,2,0:0:0:0:
364,96,12428,1,2,0:0:0:0:
364,96,12511,1,8,0:0:0:0:
130,306,12678,1,8,0:1:0:0:
434,252,12845,5,8,0:0:0:0:
70,125,13011,1,10,0:1:0:0:
383,181,13178,5,12,0:0:0:0:
135,315,13345,1,0,0:0:0:0:
263,10,13511,6,0,P|256:56|246:104,1,88,12|2,0:1|0:0,0:0:0:0:
209,287,13845,1,8,0:0:0:0:
237,89,14011,6,0,P|246:135|254:183,1,88,6|2,0:0|0:0,0:0:0:0:
291,366,14345,1,10,0:1:0:0:
365,180,14511,1,8,0:0:0:0:
127,285,14678,6,0,P|84:275|36:268,1,88,12|0,0:1|0:0,0:0:0:0:
228,146,15011,1,0,3:0:0:0:
180,358,15178,1,8,0:0:0:0:
155,99,15345,1,10,0:1:0:0:
375,201,15511,5,10,0:0:0:0:
127,285,15678,1,8,0:0:0:0:
357,81,15845,1,10,0:0:0:0:
421,346,16011,1,8,0:0:0:0:
209,159,16178,6,0,B|139:171|158:121|80:138,1,132.000005035401,12|8,0:1|0:1,0:0:0:0:
205,21,16677,2,0,P|198:56|191:89,1,66.0000025177003,2|8,0:0|0:1,0:0:0:0:
115,39,17011,1,2,0:0:0:0:
277,76,17178,2,0,P|308:69|342:64,1,66.0000025177003,8|2,0:1|0:0,0:0:0:0:
421,0,17511,6,0,P|446:20|475:37,1,66.0000025177003,8|0,0:1|0:0,0:0:0:0:
487,141,17845,2,0,L|474:205,1,66.0000025177003,10|0,0:1|0:0,0:0:0:0:
393,283,18178,2,0,P|401:317|405:347,1,66.0000025177003,10|0,0:1|0:0,0:0:0:0:
308,234,18511,2,0,P|312:201|320:169,1,66.0000025177003,10|0,0:1|0:0,0:0:0:0:
241,292,18845,6,0,P|200:287|99:276,2,132.000005035401,10|8|8,0:1|0:1|0:1,0:0:0:0:
312,360,19678,1,0,0:0:0:0:
308,234,19845,2,0,P|304:201|296:169,1,66.0000025177003,8|0,0:1|0:0,0:0:0:0:
184,47,20178,6,0,P|156:58|120:64,1,66.0000025177003,10|0,0:1|0:0,0:0:0:0:
220,173,20511,2,0,P|187:166|155:165,1,66.0000025177003,8|2,0:1|0:0,0:0:0:0:
50,259,20844,1,8,0:1:0:0:
173,320,21010,2,0,L|179:246,2,66.0000025177003,2|8|2,0:0|0:1|0:0,0:0:0:0:
282,298,21511,6,0,B|351:277|347:324|418:298,1,132.000005035401,10|8,0:1|0:1,0:0:0:0:
504,263,22011,2,0,P|493:299|487:330,1,66.0000025177003,2|8,0:0|0:1,0:0:0:0:
424,216,22345,2,0,P|417:184|408:153,1,66.0000025177003,2|8,0:0|0:1,0:0:0:0:
362,73,22678,1,2,0:0:0:0:
505,72,22845,6,0,L|373:62,2,132.000005035401,8|8|10,0:1|0:1|0:1,0:0:0:0:
408,152,23678,1,0,0:0:0:0:
408,152,23845,2,0,L|336:159,1,66.0000025177003,10|0,0:1|0:0,0:0:0:0:
328,171,24095,5,2,0:0:0:0:
328,171,24178,2,0,L|193:159,1,132.000005035401,10|8,0:1|0:1,0:0:0:0:
142,80,24678,1,0,0:0:0:0:
113,222,24845,2,0,P|99:189|89:153,1,66.0000025177003,10|0,0:1|0:0,0:0:0:0:
164,18,25178,2,0,P|154:49|141:79,1,66.0000025177003,8|0,0:1|0:0,0:0:0:0:
25,168,25511,6,0,L|106:159,1,66.0000025177003,10|0,0:1|0:0,0:0:0:0:
193,194,25845,2,0,L|258:186,1,66.0000025177003,8|0,0:1|0:0,0:0:0:0:
484,140,26178,5,10,0:1:0:0:
329,231,26345,1,8,0:1:0:0:
400,122,26511,6,0,P|415:188|427:251,1,132,12|0,0:0|0:0,0:0:0:0:
466,328,26844,6,0,B|377:352|406:286|296:320,1,158.399995166016,12|8,0:1|0:0,0:0:0:0:
196,360,27344,2,0,P|158:350|107:338,1,79.1999975830079,2|8,0:0|0:1,0:0:0:0:
227,224,27677,2,0,P|265:214|316:202,1,79.1999975830079,10|8,0:1|0:0,0:0:0:0:
399,210,28010,1,2,0:0:0:0:
277,48,28177,6,0,P|296:149|307:235,1,158.399995166016,8|8,0:1|0:0,0:0:0:0:
151,160,28677,1,0,0:0:0:0:
257,39,28844,2,0,P|218:30|180:18,1,79.1999975830079,10|8,0:1|0:1,0:0:0:0:
372,88,29177,2,0,P|410:76|449:67,1,79.1999975830079,8|0,0:0|0:0,0:0:0:0:
221,199,29510,6,0,P|175:151|69:156,1,158.399995166016,6|8,0:0|0:0,0:0:0:0:
285,35,30010,2,0,P|276:74|269:112,1,79.1999975830079,8|0,0:0|0:0,0:0:0:0:
63,49,30344,1,8,0:1:0:0:
132,229,30510,6,0,B|138:264|132:293|132:293|150:321|150:321|145:351|153:391,1,158.399995166016,12|0,0:0|0:0,0:0:0:0:
47,258,31010,1,8,0:1:0:0:
244,311,31177,2,0,P|296:301|342:293,1,79.1999975830079,8|0,0:0|0:0,0:0:0:0:
425,142,31510,2,0,L|444:222,1,79.1999975830079,8|0,0:1|0:0,0:0:0:0:
443,219,31760,1,8,0:0:0:0:
443,219,31844,1,8,0:0:0:0:
404,341,32010,1,2,0:0:0:0:
324,203,32177,5,12,0:1:0:0:
386,357,32344,1,2,0:0:0:0:
468,214,32510,1,8,0:0:0:0:
298,279,32677,2,0,P|259:286|220:293,1,79.1999975830079,2|8,0:0|0:1,0:0:0:0:
347,127,33010,2,0,P|385:134|424:141,1,79.1999975830079,10|8,0:1|0:0,0:0:0:0:
324,203,33344,1,2,0:0:0:0:
272,57,33510,6,0,P|339:39|440:22,1,158.399995166016,8|8,0:1|0:0,0:0:0:0:
347,127,34010,1,0,0:0:0:0:
250,139,34177,2,0,P|212:131|172:124,2,79.1999975830079,10|8|10,0:1|0:1|0:0,0:0:0:0:
406,225,34677,1,2,0:0:0:0:
254,335,34844,6,0,B|176:357,1,79.1999975830079,12|2,0:1|0:0,0:0:0:0:
334,299,35177,1,8,0:0:0:0:
154,249,35344,1,2,0:0:0:0:
271,160,35510,2,0,P|260:198|254:237,1,79.1999975830079,8|10,0:1|0:1,0:0:0:0:
173,143,35844,1,8,0:0:0:0:
360,110,36010,1,10,0:1:0:0:
151,152,36177,6,0,P|115:141|72:128,1,79.1999975830079,12|0,0:0|0:0,0:0:0:0:
238,66,36510,1,8,0:1:0:0:
82,219,36677,1,8,0:0:0:0:
39,6,36844,5,10,0:1:0:0:
172,163,37010,1,8,0:3:0:0:
165,0,37177,2,0,P|154:37|142:84,1,79.1999975830079,8|8,0:0|0:1,0:0:0:0:
183,291,37510,5,12,0:0:0:0:
75,128,37677,1,0,0:0:0:0:
270,118,37844,5,8,0:0:0:0:
82,219,38010,1,0,0:0:0:0:
279,278,38177,5,8,0:0:0:0:
173,112,38344,1,8,0:1:0:0:
173,112,38510,1,10,0:1:0:0:
279,278,38677,6,0,L|295:374,1,88,12|0,0:0|0:0,0:0:0:0:
318,196,39010,1,8,0:1:0:0:
158,106,39177,5,8,0:0:0:0:
343,212,39344,1,8,0:1:0:0:
156,269,39510,5,8,0:0:0:0:
361,130,39677,1,10,0:1:0:0:
94,174,39844,5,8,0:0:0:0:
365,231,40010,1,2,0:0:0:0:
281,8,40177,6,0,P|270:50|261:93,1,88,12|0,0:1|0:0,0:0:0:0:
236,307,40510,1,8,0:0:0:0:
442,176,40677,6,0,B|381:182|381:182|350:219|350:219|284:228,1,176,6|10,0:0|0:1,0:0:0:0:
178,126,41177,1,8,0:0:0:0:
145,312,41344,6,0,P|155:231|172:133,1,176,12|8,0:1|0:0,0:0:0:0:
79,34,41844,1,8,0:0:0:0:
261,93,42010,2,0,L|363:75,1,88,10|0,0:1|0:0,0:0:0:0:
262,68,42344,6,0,B|386:46|386:46|323:96,1,176,6|2,0:0|0:0,0:0:0:0:
209,212,42844,6,0,B|116:244|141:162|38:199,1,176,12|8,0:1|0:0,0:0:0:0:
41,197,43344,1,0,0:0:0:0:
42,36,43510,5,10,0:1:0:0:
132,56,43676,1,8,0:3:0:0:
172,139,43844,1,4,0:3:0:0:
132,223,44010,1,8,0:1:0:0:
247,94,44177,6,0,P|292:85|336:80,1,88,10|0,0:1|3:0,0:0:0:0:
218,236,44510,2,0,P|172:227|129:222,1,88,8|0,0:0|0:0,0:0:0:0:
42,36,44844,1,10,0:1:0:0:
172,139,45010,1,8,0:3:0:0:
172,139,45094,1,8,0:3:0:0:
172,139,45177,1,8,0:0:0:0:
19,186,45344,2,0,L|29:235,1,44,4|8,0:3|0:3,0:0:0:0:
7,307,45510,6,0,B|75:321|75:321|95:356|95:356|167:370,1,176,12|10,0:1|0:1,0:0:0:0:
218,215,46010,2,0,P|190:264|173:305,1,88,2|8,0:0|0:1,0:0:0:0:
346,157,46344,2,0,P|305:144|254:117,1,88,8|10,0:3|0:1,0:0:0:0:
206,40,46677,1,8,0:3:0:0:
308,243,46844,6,0,P|321:289|333:332,1,88,10|0,0:1|0:0,0:0:0:0:
192,205,47177,2,0,P|177:251|167:294,1,88,8|0,0:0|0:0,0:0:0:0:
364,33,47510,5,10,0:1:0:0:
219,124,47677,1,0,3:0:0:0:
382,206,47844,5,8,0:0:0:0:
129,106,48010,1,8,0:0:0:0:
168,289,48177,6,0,L|192:199,1,88,12|0,0:1|0:0,0:0:0:0:
241,46,48510,1,8,0:0:0:0:
107,208,48677,2,0,P|53:195|-3:186,1,88,10|0,0:1|0:0,0:0:0:0:
291,135,49010,1,8,0:1:0:0:
230,361,49177,6,0,P|288:328|275:218,1,176,12|10,0:0|0:1,0:0:0:0:
132,129,49677,1,8,0:0:0:0:
225,281,49844,1,8,0:1:0:0:
277,52,50010,1,8,0:1:0:0:
330,264,50177,5,8,0:0:0:0:
175,39,50344,1,8,0:1:0:0:
121,277,50510,2,0,P|71:261|30:254,1,88,12|0,0:0|0:0,0:0:0:0:
327,282,50844,6,0,P|411:260|501:243,1,176,12|8,0:1|0:0,0:0:0:0:
280,79,51344,2,0,P|322:90|365:100,1,88,10|0,0:1|0:0,0:0:0:0:
205,193,51677,1,10,0:1:0:0:
410,238,51844,1,8,0:0:0:0:
175,105,52010,6,0,B|62:84|112:167|-5:141,1,176,12|10,0:1|0:1,0:0:0:0:
20,149,52427,1,2,0:0:0:0:
20,149,52510,2,0,L|29:204,1,44,10|0,0:0|0:0,0:0:0:0:
161,240,52677,2,0,L|171:184,1,44,10|0,0:0|0:0,0:0:0:0:
100,311,52844,5,10,0:1:0:0:
139,328,52927,1,0,0:0:0:0:
183,325,53010,1,2,0:0:0:0:
219,302,53094,1,2,0:0:0:0:
241,264,53177,1,8,0:0:0:0:
263,226,53260,1,2,0:0:0:0:
299,203,53344,1,10,0:0:0:0:
343,200,53427,1,10,0:0:0:0:
383,217,53510,6,0,P|424:142|400:60,1,176,12|8,0:1|0:1,0:0:0:0:
326,2,54010,1,2,0:0:0:0:
210,127,54177,2,0,B|149:115|85:131|85:131|129:80,1,176,8|10,0:1|0:1,0:0:0:0:
343,200,54677,5,8,0:0:0:0:
343,200,54760,1,8,0:0:0:0:
343,200,54844,2,0,L|327:332,1,132,10|0,0:1|0:0,0:0:0:0:
319,345,55177,2,0,P|366:329|409:320,1,88,8|2,0:1|0:0,0:0:0:0:
238,164,55510,5,8,0:1:0:0:
445,207,55677,1,8,0:0:0:0:
365,65,55844,1,10,0:1:0:0:
292,262,56010,1,0,0:3:0:0:
205,81,56177,6,0,L|103:97,1,88,6|0,0:0|0:0,0:0:0:0:
292,262,56510,2,0,L|205:248,1,88,10|0,0:1|0:0,0:0:0:0:
365,65,56844,2,0,P|418:78|435:163,1,132,10|0,0:1|0:0,0:0:0:0:
451,162,57177,2,0,P|408:169|362:187,1,88,10|8,0:1|0:0,0:0:0:0:
235,339,57510,5,6,0:0:0:0:
409,265,57677,1,2,0:0:0:0:
409,265,57760,1,2,0:0:0:0:
409,265,57844,1,8,0:1:0:0:
150,169,58010,1,8,0:0:0:0:
238,137,58177,5,10,0:1:0:0:
128,264,58344,1,8,0:0:0:0:
163,77,58510,1,10,0:1:0:0:
326,205,58677,5,8,0:0:0:0:
326,205,58760,1,8,0:0:0:0:
326,205,58844,2,0,P|405:192|514:181,1,176,12|8,0:1|0:1,0:0:0:0:
446,103,59344,1,2,0:0:0:0:
307,294,59510,6,0,P|241:239|246:154,1,176,8|10,0:1|0:1,0:0:0:0:
331,20,60010,1,8,0:0:0:0:
331,20,60094,1,8,0:0:0:0:
331,20,60177,6,0,L|232:37,1,88,10|0,0:1|0:0,0:0:0:0:
143,219,60510,2,0,B|119:181|119:181|127:137,1,88,8|0,0:0|0:0,0:0:0:0:
376,146,60844,5,10,0:1:0:0:
169,60,61010,1,8,0:0:0:0:
330,20,61177,5,8,0:3:0:0:
246,154,61344,1,4,0:3:0:0:
450,202,61510,6,0,P|456:159|465:116,1,88,6|0,0:0|0:0,0:0:0:0:
248,280,61844,2,0,P|306:288|379:304,1,132,10|0,0:1|0:0,0:0:0:0:
395,314,62177,2,0,P|352:325|311:340,1,88,10|2,0:1|0:3,0:0:0:0:
167,172,62510,2,0,P|209:183|250:198,1,88,10|8,0:1|0:0,0:0:0:0:
443,45,62844,6,0,B|351:14|370:93|275:60,1,176,6|8,0:0|0:1,0:0:0:0:
187,18,63344,1,2,0:0:0:0:
250,199,63510,2,0,P|207:210|166:225,1,88,10|0,0:1|0:0,0:0:0:0:
156,236,63760,1,2,0:0:0:0:
156,236,63844,1,12,0:0:0:0:
324,325,64010,1,2,0:0:0:0:
68,178,64177,6,0,P|58:243|46:308,1,132,12|2,0:1|0:1,0:0:0:0:
38,324,64510,2,0,P|84:330|126:343,1,88,8|2,0:1|0:0,0:0:0:0:
213,380,64844,1,8,0:1:0:0:
334,180,65010,2,0,P|288:186|246:199,1,88,2|8,0:1|0:1,0:0:0:0:
62,94,65344,5,8,0:0:0:0:
62,94,65427,1,8,0:0:0:0:
62,94,65510,2,0,B|128:74|128:74|169:92|169:92|242:70,1,176,10|8,0:1|0:0,0:0:0:0:
288,0,66010,1,0,0:0:0:0:
307,189,66177,5,10,0:1:0:0:
179,4,66344,1,8,0:0:0:0:
115,159,66510,5,10,0:1:0:0:
306,103,66677,1,0,0:0:0:0:
211,295,66844,6,0,P|135:280|26:262,1,176,6|10,0:0|0:1,0:0:0:0:
203,157,67344,1,0,0:0:0:0:
294,353,67510,2,0,P|309:301|275:217,1,132,10|2,0:1|0:0,0:0:0:0:
272,219,67844,2,0,L|365:198,1,88,8|8,0:1|0:0,0:0:0:0:
422,28,68177,6,0,B|380:18|380:18|339:38,1,88,6|0,0:0|0:0,0:0:0:0:
244,206,68510,1,8,0:0:0:0:
255,35,68677,1,2,0:0:0:0:
144,208,68844,5,10,0:0:0:0:
62,36,69010,1,8,0:0:0:0:
47,65,69093,1,8,0:0:0:0:
48,99,69177,1,2,0:0:0:0:
122,278,69344,2,0,L|132:236,1,44,8|4,0:3|0:3,0:0:0:0:
140,91,69510,6,0,P|247:69|344:57,1,176,12|8,0:1|0:1,0:0:0:0:
472,4,70010,2,0,P|450:42|435:83,1,88,2|8,0:0|0:1,0:0:0:0:
391,246,70344,2,0,P|375:204|354:166,1,88,2|8,0:0|0:1,0:0:0:0:
216,87,70677,1,8,0:0:0:0:
329,51,70844,5,8,0:1:0:0:
142,179,71010,1,2,0:0:0:0:
195,9,71177,1,8,0:0:0:0:
239,219,71344,5,0,3:0:0:0:
239,219,71427,1,0,3:0:0:0:
239,219,71510,2,0,L|232:268,1,44,10|0,0:1|0:0,0:0:0:0:
335,94,71677,2,0,L|328:50,1,44,10|0,0:0|0:0,0:0:0:0:
355,209,71844,1,8,0:0:0:0:
196,78,72010,1,2,0:0:0:0:
243,340,72177,6,0,L|445:317,1,176,6|8,0:0|0:1,0:0:0:0:
335,94,72677,1,2,0:0:0:0:
335,94,72760,1,2,0:0:0:0:
335,94,72844,1,8,0:1:0:0:
469,240,73010,1,8,0:0:0:0:
483,15,73177,1,0,0:0:0:0:
311,186,73344,6,0,B|205:209|251:132|138:156,1,176,12|10,0:0|0:1,0:0:0:0:
263,30,73844,1,8,0:0:0:0:
171,234,74010,1,2,0:0:0:0:
335,94,74177,5,10,0:1:0:0:
383,71,74260,1,0,0:0:0:0:
432,90,74343,1,8,0:0:0:0:
452,140,74426,1,8,0:0:0:0:
428,188,74510,5,10,0:1:0:0:
418,184,74593,1,0,0:0:0:0:
408,180,74676,1,8,0:0:0:0:
397,177,74759,1,8,0:0:0:0:
385,172,74844,2,0,P|396:257|404:334,1,145.200004431152,12|0,0:1|0:0,0:0:0:0:
410,336,75177,6,0,B|370:327|370:327|346:331|346:331|288:318,1,105.599996777344,12|2,0:0|0:0,0:0:0:0:
107,348,75510,5,10,0:1:0:0:
261,222,75677,1,8,0:1:0:0:
27,151,75844,1,8,0:0:0:0:
164,262,76010,1,2,0:0:0:0:
161,36,76177,6,0,P|129:113|92:225,1,193.600005908203,10|8,0:1|0:0,0:0:0:0:
50,50,76677,1,2,0:0:0:0:
184,241,76844,1,8,0:1:0:0:
179,27,77010,1,10,0:1:0:0:
362,151,77177,1,8,0:0:0:0:
206,146,77344,1,10,0:1:0:0:
401,23,77510,6,0,P|467:28|480:112,1,145.200004431152,10|0,0:1|0:0,0:0:0:0:
477,108,77844,2,0,L|466:217,1,96.8000029541017,8|0,0:0|0:0,0:0:0:0:
285,335,78177,1,10,0:1:0:0:
362,151,78344,1,8,0:1:0:0:
457,365,78510,1,8,0:0:0:0:
340,170,78677,1,0,0:0:0:0:
178,362,78844,6,0,P|133:350|82:339,1,96.8000029541017,10|2,0:1|0:0,0:0:0:0:
256,257,79177,1,8,0:0:0:0:
156,123,79344,1,2,0:0:0:0:
156,123,79427,1,0,0:0:0:0:
156,123,79510,2,0,P|151:71|142:24,1,96.8000029541017,8|2,0:1|0:0,0:0:0:0:
375,86,79844,2,0,P|366:133|353:251,1,145.200004431152,8|0,0:0|0:0,0:0:0:0:
446,239,80177,6,0,B|374:250|374:250|345:286|345:286|260:296,1,193.600005908203,10|8,0:1|0:0,0:0:0:0:
117,196,80677,1,2,0:0:0:0:
298,89,80844,5,8,0:1:0:0:
271,295,81010,1,10,0:1:0:0:
314,81,81177,5,8,0:0:0:0:
255,303,81344,1,2,0:0:0:0:
181,105,81510,6,0,P|133:93|75:80,2,96.8000029541017,10|2|8,0:1|0:0|0:0,0:0:0:0:
369,201,82010,1,2,3:2:0:0:
369,201,82094,1,8,0:0:0:0:
369,201,82177,6,0,P|382:113|303:152,1,198.000007553101,6|0,0:0|0:0,0:0:0:0:
282,219,82510,6,0,B|218:225|218:225|186:282|186:282|118:289,1,198.000007553101,6|0,0:0|0:0,0:0:0:0:
82,362,82844,6,0,B|62:208,1,145.200004431152,12|0,0:1|0:0,0:0:0:0:
61,201,83177,1,8,0:0:0:0:
282,219,83344,1,0,0:0:0:0:
192,44,83510,2,0,P|207:94|215:137,1,96.8000029541017,10|8,0:1|0:1,0:0:0:0:
274,342,83844,2,0,P|283:294|297:248,1,96.8000029541017,8|0,0:0|0:0,0:0:0:0:
301,240,84094,1,0,0:0:0:0:
306,233,84177,5,10,0:1:0:0:
457,118,84344,1,10,0:1:0:0:
287,26,84510,1,12,0:0:0:0:
419,266,84677,1,10,0:1:0:0:
392,46,84844,5,8,0:0:0:0:
201,239,85010,1,2,0:0:0:0:
201,239,85094,1,8,0:0:0:0:
201,239,85177,1,8,0:3:0:0:
372,124,85344,2,0,L|325:109,1,48.4000014770508,8|8,0:0|0:0,0:0:0:0:
86,52,85510,6,0,P|96:132|108:248,1,193.600005908203,12|8,0:1|0:0,0:0:0:0:
92,341,86010,1,0,0:0:0:0:
213,227,86177,2,0,L|318:217,1,96.8000029541017,10|8,0:1|0:1,0:0:0:0:
309,217,86427,1,2,0:0:0:0:
309,217,86510,1,8,0:0:0:0:
129,139,86677,1,2,0:0:0:0:
331,41,86844,6,0,B|384:-6|468:7|468:7|447:32|446:63,1,193.600005908203,10|8,0:1|0:0,0:0:0:0:
504,183,87344,1,0,0:0:0:0:
328,122,87510,2,0,P|315:168|308:216,1,96.8000029541017,10|0,0:1|0:0,0:0:0:0:
306,238,87760,2,0,L|258:228,1,48.4000014770508,2|8,0:0|0:0,0:0:0:0:
74,105,88010,2,0,L|121:95,1,48.4000014770508,2|0,0:0|0:0,0:0:0:0:
181,33,88177,6,0,P|165:105|147:179,1,145.200004431152,10|0,0:1|0:0,0:0:0:0:
154,265,88510,2,0,L|129:171,1,96.8000029541017,8|0,0:0|0:0,0:0:0:0:
328,122,88844,2,0,P|315:168|303:215,1,96.8000029541017,10|8,0:1|0:1,0:0:0:0:
303,215,89094,1,2,0:0:0:0:
303,215,89177,1,8,0:0:0:0:
191,55,89344,1,2,0:0:0:0:
389,27,89510,6,0,P|439:20|489:14,1,96.8000029541017,10|8,0:1|0:1,0:0:0:0:
303,215,89844,1,8,0:0:0:0:
442,99,90010,1,0,0:0:0:0:
480,315,90177,1,10,0:1:0:0:
284,188,90344,5,8,0:0:0:0:
247,171,90427,1,8,0:0:0:0:
207,169,90510,1,8,0:0:0:0:
169,183,90593,1,8,0:0:0:0:
140,210,90677,1,8,0:1:0:0:
123,246,90760,1,8,0:1:0:0:
121,286,90843,5,12,0:0:0:0:
231,59,91010,1,0,0:0:0:0:
291,349,91177,1,10,0:1:0:0:
60,152,91344,5,12,0:0:0:0:
348,55,91510,2,0,L|321:107,1,48.4000014770508,2|2,0:0|0:0,0:0:0:0:
210,315,91677,1,8,0:1:0:0:
143,23,91844,5,12,0:0:0:0:
426,235,92011,1,10,0:1:0:0:
69,339,92178,1,8,0:0:0:0:
104,41,92510,6,0,B|122:20|159:16|191:42|191:79|161:106|161:106|204:111|222:155|213:188|176:213|141:222|104:172,1,338.800010339356,12|0,0:1|0:0,0:0:0:0:
116,186,93177,6,0,P|196:199|222:242,1,132,4|0,0:3|0:0,0:0:0:0:
258,308,93510,6,0,B|156:339|181:253|74:286,1,193.600005908203,12|8,0:1|0:0,0:0:0:0:
1,348,94010,1,2,0:0:0:0:
44,124,94177,2,0,P|33:171|29:219,1,96.8000029541017,8|8,0:1|0:1,0:0:0:0:
197,10,94510,1,10,0:0:0:0:
20,107,94677,1,10,0:1:0:0:
270,155,94844,6,0,P|319:145|365:137,1,96.8000029541017,12|0,0:0|0:0,0:0:0:0:
128,80,95177,1,10,0:1:0:0:
219,313,95344,1,8,0:0:0:0:
222,289,95427,1,8,0:0:0:0:
225,266,95510,2,0,L|125:248,1,96.8000029541017,10|0,0:1|0:0,0:0:0:0:
55,236,95760,1,8,0:0:0:0:
59,249,95843,1,10,0:1:0:0:
323,80,96010,1,8,0:1:0:0:
285,40,96093,1,8,0:0:0:0:
233,38,96177,6,0,P|175:96|201:179,1,176,12|8,0:1|0:0,0:0:0:0:
292,229,96677,1,8,0:1:0:0:
86,159,96844,2,0,P|42:162|0:172,1,88,2|8,0:0|0:1,0:0:0:0:
127,358,97177,2,0,P|133:314|140:271,1,88,8|0,0:0|0:0,0:0:0:0:
252,116,97510,6,0,B|320:103|320:103|356:125|356:125|418:113,1,176,10|8,0:1|0:0,0:0:0:0:
381,32,98010,1,8,0:1:0:0:
472,241,98177,2,0,P|479:197|490:155,1,88,2|8,0:1|0:1,0:0:0:0:
292,229,98510,2,0,P|302:271|310:314,1,88,8|0,0:0|0:0,0:0:0:0:
333,103,98844,6,0,P|180:79|139:75,1,176,10|8,0:1|0:0,0:0:0:0:
4,234,99344,1,10,0:1:0:0:
4,234,99427,1,2,0:0:0:0:
4,234,99510,1,2,0:0:0:0:
45,31,99677,1,8,0:1:0:0:
183,183,99844,1,12,0:0:0:0:
0,119,100010,2,0,L|31:157,1,44,2|2,0:0|0:0,0:0:0:0:
161,340,100177,5,8,0:0:0:0:
260,96,100344,1,8,0:1:0:0:
4,234,100510,1,8,0:0:0:0:
304,338,100677,1,6,0:0:0:0:
304,338,101010,6,0,P|311:256|323:152,1,176,6|8,0:0|0:0,0:0:0:0:
346,61,101427,1,8,0:0:0:0:
346,61,101510,6,0,B|288:77|288:77|240:56|240:56|166:75,1,176,12|8,0:1|0:0,0:0:0:0:
19,78,102010,1,0,0:0:0:0:
24,73,102094,1,8,0:3:0:0:
30,69,102177,1,8,0:1:0:0:
80,228,102344,1,8,0:1:0:0:
220,147,102510,2,0,P|205:194|193:236,1,88,8|2,0:0|0:0,0:0:0:0:
155,326,102761,1,2,0:0:0:0:
151,314,102844,6,0,B|251:285|228:372|333:343,1,176,8|8,0:1|0:0,0:0:0:0:
416,174,103344,2,0,P|410:199|405:219,1,44,0|8,0:0|0:3,0:0:0:0:
439,312,103510,1,4,0:3:0:0:
439,312,103594,1,8,0:3:0:0:
439,312,103677,1,8,0:1:0:0:
343,98,103844,2,0,P|385:88|416:75,2,58.6666666666667,10|2|2,0:0|0:0|0:0,0:0:0:0:
195,42,104177,5,12,0:0:0:0:
248,183,104344,1,0,0:0:0:0:
295,17,104510,1,8,0:1:0:0:
134,155,104677,5,2,0:0:0:0:
305,104,104844,1,8,0:1:0:0:
98,56,105010,5,8,0:0:0:0:
384,121,105177,1,8,0:0:0:0:
137,264,105344,6,0,P|96:254|51:246,1,88,12|0,0:1|0:0,0:0:0:0:
239,159,105677,1,10,0:1:0:0:
246,352,105844,2,0,P|257:304|267:262,1,88,8|0,0:0|0:0,0:0:0:0:
291,47,106177,6,0,L|293:90,1,44,8|0,0:3|0:0,0:0:0:0:
406,192,106344,1,8,0:0:0:0:
406,192,106427,1,8,0:0:0:0:
406,192,106510,2,0,L|449:186,1,44,8|0,0:0|0:0,0:0:0:0:
239,159,106677,2,0,L|195:153,1,44,8|8,0:0|0:0,0:0:0:0:
485,117,106844,6,0,L|495:248,1,132.000005035401,12|8,0:1|0:1,0:0:0:0:
431,324,107344,1,2,0:0:0:0:
373,231,107510,1,8,0:1:0:0:
335,335,107677,5,2,0:0:0:0:
363,242,107844,2,0,L|366:167,1,66.0000025177003,8|2,0:1|0:0,0:0:0:0:
247,305,108177,6,0,L|111:293,1,132.000005035401,8|10,0:1|0:1,0:0:0:0:
35,244,108677,1,0,0:0:0:0:
57,354,108844,5,10,0:1:0:0:
16,249,109010,1,0,0:0:0:0:
137,176,109177,5,10,0:1:0:0:
115,293,109343,1,0,0:0:0:0:
30,154,109510,6,0,L|9:19,1,132.000005035401,10|8,0:1|0:1,0:0:0:0:
146,97,110010,1,0,0:0:0:0:
15,167,110177,5,8,0:1:0:0:
159,99,110344,2,0,P|167:131|185:188,1,66.0000025177003,0|10,0:0|0:1,0:0:0:0:
246,221,110677,1,0,0:0:0:0:
259,45,110844,6,0,P|198:19|133:18,1,132.000005035401,10|8,0:1|0:1,0:0:0:0:
297,132,111344,2,0,L|375:111,1,66.0000025177003,2|8,0:0|0:1,0:0:0:0:
457,52,111678,5,2,0:0:0:0:
354,14,111844,1,8,0:1:0:0:
455,153,112010,1,2,0:0:0:0:
311,220,112177,6,0,P|271:213|170:203,1,132.000005035401,6|10,0:0|0:1,0:0:0:0:
136,333,112677,2,0,L|211:318,1,66.0000025177003,2|8,0:0|0:1,0:1:0:0:
311,220,113010,5,2,0:0:0:0:
296,336,113176,1,8,0:1:0:0:
318,211,113344,1,2,0:0:0:0:
180,203,113510,6,0,P|114:193|49:186,1,132.000005035401,8|10,0:1|0:1,0:0:0:0:
193,122,114010,1,0,0:0:0:0:
203,215,114177,2,0,L|215:284,1,66.0000025177003,10|0,0:1|0:0,0:0:0:0:
179,110,114510,1,10,0:1:0:0:
278,46,114677,5,0,3:0:0:0:
278,46,114760,1,0,3:0:0:0:
278,46,114844,2,0,P|346:34|442:21,1,158.399995166016,12|10,0:1|0:1,0:0:0:0:
434,22,115344,1,0,0:0:0:0:
491,108,115510,5,10,0:1:0:0:
418,182,115677,5,8,0:1:0:0:
489,299,115844,5,10,0:0:0:0:
365,384,116010,5,12,0:0:0:0:
79,96,116344,6,0,B|43:141|41:206|142:385|376:199|160:23|55:146|29:235|50:293|107:332,1,457.599979052735,2|8,0:0|0:1,0:0:0:0:
91,320,117177,6,0,L|193:310,1,99.0000037765504,8|0,0:0|0:0,0:0:0:0:
305,343,117510,6,0,B|264:359|264:359|281:226,1,176,12|8,0:1|0:0,0:0:0:0:
376,134,118010,2,0,B|389:176|389:176|368:215,1,88,2|8,0:0|0:1,0:0:0:0:
286,59,118344,2,0,P|332:47|373:36,1,88,10|8,0:1|0:0,0:0:0:0:
275,48,118677,1,2,0:0:0:0:
466,175,118844,6,0,P|378:160|291:149,1,176,8|8,0:1|0:0,0:0:0:0:
372,333,119344,2,0,P|378:286|388:241,1,88,0|10,0:0|0:1,0:0:0:0:
449,91,119677,1,8,0:1:0:0:
280,228,119844,2,0,P|232:237|185:248,1,88,8|8,0:0|0:1,0:0:0:0:
40,99,120177,6,0,P|103:91|148:137,1,132,12|0,0:0|0:0,0:0:0:0:
149,151,120510,1,10,0:1:0:0:
94,298,120677,2,0,P|48:294|-6:290,1,88,8|0,0:0|0:0,0:0:0:0:
147,169,121011,1,10,0:1:0:0:
152,366,121177,6,0,B|181:335|182:287|182:287|218:319|264:317,1,176,12|8,0:0|0:1,0:0:0:0:
147,169,121677,1,8,0:0:0:0:
329,244,121844,1,8,0:1:0:0:
361,238,121927,1,8,0:3:0:0:
394,232,122010,1,4,0:3:0:0:
426,227,122093,1,8,0:0:0:0:
459,221,122177,1,8,0:1:0:0:
274,42,122344,5,8,0:0:0:0:
234,25,122427,1,8,0:0:0:0:
191,31,122510,1,8,0:3:0:0:
158,59,122593,1,8,0:3:0:0:
145,100,122677,1,4,0:3:0:0:
156,142,122760,1,4,0:3:0:0:
188,173,122844,6,0,P|89:163|9:161,1,176,12|8,0:1|0:0,0:0:0:0:
207,302,123344,2,0,P|153:310|113:318,1,88,2|8,0:0|0:1,0:0:0:0:
263,130,123677,1,10,0:1:0:0:
306,289,123844,1,8,0:0:0:0:
188,173,124010,1,2,0:0:0:0:
394,232,124177,6,0,P|404:148|418:51,2,176,8|8|8,0:1|0:0|0:1,0:0:0:0:
290,126,125010,1,10,0:1:0:0:
477,180,125177,1,8,0:0:0:0:
290,126,125344,1,2,0:0:0:0:
334,335,125510,6,0,P|403:320|430:316,1,88,12|0,0:1|0:0,0:0:0:0:
147,238,125844,2,0,P|190:245|233:255,1,88,8|0,0:0|0:0,0:0:0:0:
388,76,126177,2,0,P|382:120|378:164,1,88,10|8,0:1|0:1,0:0:0:0:
165,17,126510,2,0,P|170:60|175:104,1,88,8|0,0:0|0:0,0:0:0:0:
332,247,126844,5,12,0:0:0:0:
270,122,127010,1,0,0:0:0:0:
226,272,127177,1,8,0:1:0:0:
378,164,127344,5,8,0:0:0:0:
175,104,127510,1,8,0:1:0:0:
231,302,127677,1,8,0:0:0:0:
378,164,127844,2,0,L|287:152,1,88,12|0,0:0|0:0,0:0:0:0:
117,282,128177,5,12,0:0:0:0:
311,243,128344,1,0,0:0:0:0:
109,153,128511,5,8,0:0:0:0:
259,325,128677,1,0,0:0:0:0:
269,46,128844,5,8,0:0:0:0:
117,282,129011,1,8,0:1:0:0:
311,243,129177,1,10,0:1:0:0:
101,130,129344,6,0,P|58:133|14:138,1,88,12|0,0:0|0:0,0:0:0:0:
228,253,129677,1,8,0:1:0:0:
250,34,129844,5,8,0:0:0:0:
231,276,130010,1,8,0:1:0:0:
159,51,130177,5,8,0:0:0:0:
234,297,130344,1,10,0:1:0:0:
378,130,130511,5,8,0:0:0:0:
115,209,130676,1,2,0:0:0:0:
359,304,130844,6,0,P|419:296|455:291,1,88,6|0,0:0|0:0,0:0:0:0:
261,183,131177,1,8,0:0:0:0:
491,37,131344,5,12,0:1:0:0:
393,218,131510,1,0,0:0:0:0:
334,12,131677,1,10,0:1:0:0:
378,130,131844,1,8,0:1:0:0:
263,209,132010,6,0,L|175:198,1,88,12|8,0:0|0:1,0:0:0:0:
378,336,132344,1,8,0:0:0:0:
417,318,132427,1,8,0:0:0:0:
442,282,132510,1,8,0:0:0:0:
445,239,132594,1,8,0:0:0:0:
427,199,132677,2,0,L|436:110,1,88,10|0,0:1|0:0,0:0:0:0:
336,17,133010,6,0,B|245:-18|257:64|166:29,1,176,6|2,0:0|0:0,0:0:0:0:
94,106,133510,6,0,B|58:55|58:55|41:167,1,176,12|8,0:1|0:0,0:0:0:0:
71,252,134010,1,0,0:0:0:0:
206,351,134177,5,8,0:1:0:0:
161,269,134343,1,4,0:3:0:0:
71,252,134511,1,8,0:3:0:0:
2,313,134677,1,10,0:1:0:0:
206,351,134844,6,0,P|250:335|291:326,1,88,10|0,0:1|3:0,0:0:0:0:
195,136,135177,2,0,P|238:139|281:151,1,88,8|0,0:0|0:0,0:0:0:0:
419,254,135510,1,10,0:1:0:0:
460,83,135676,1,8,0:3:0:0:
460,83,135760,1,8,0:3:0:0:
460,83,135843,1,8,0:0:0:0:
282,152,136010,2,0,L|268:108,1,44,4|8,0:3|0:3,0:0:0:0:
355,33,136176,6,0,B|353:67|345:100|345:100|365:135|365:135|357:171|352:217,1,176,12|10,0:1|0:1,0:0:0:0:
413,334,136677,2,0,P|368:321|320:311,1,88,2|8,0:0|0:1,0:0:0:0:
193,266,137010,2,0,P|238:254|279:242,1,88,8|10,0:3|0:1,0:0:0:0:
225,355,137343,1,8,0:3:0:0:
167,172,137510,5,10,0:1:0:0:
277,242,137677,1,0,0:0:0:0:
267,128,137844,1,8,0:0:0:0:
193,266,138010,1,0,0:0:0:0:
186,80,138177,5,10,0:1:0:0:
288,260,138344,1,0,3:0:0:0:
319,41,138511,5,8,0:0:0:0:
262,348,138677,1,8,0:0:0:0:
155,173,138844,6,0,P|118:163|64:156,1,88,12|8,0:1|0:1,0:0:0:0:
262,103,139177,1,8,0:0:0:0:
358,238,139344,2,0,P|412:225|468:216,1,88,10|0,0:0|0:0,0:0:0:0:
258,79,139677,1,8,0:1:0:0:
230,361,139844,6,0,P|242:256|256:162,1,176,12|10,0:0|0:1,0:0:0:0:
114,97,140344,1,8,0:0:0:0:
188,41,140511,1,0,0:0:0:0:
92,252,140677,1,8,0:1:0:0:
59,19,140844,5,8,0:0:0:0:
180,212,141011,1,8,0:1:0:0:
307,5,141177,2,0,L|210:27,1,88,12|0,0:0|0:0,0:0:0:0:
311,227,141510,6,0,P|373:210|490:185,1,176,12|8,0:1|0:0,0:0:0:0:
318,43,142010,2,0,P|311:87|304:130,1,88,10|0,0:1|0:0,0:0:0:0:
287,346,142343,1,10,0:1:0:0:
188,132,142510,1,10,0:1:0:0:
77,345,142677,6,0,P|119:332|165:320,1,88,12|0,0:0|0:0,0:0:0:0:
318,245,143010,5,10,0:1:0:0:
195,164,143177,1,8,0:0:0:0:
404,105,143344,5,8,0:0:0:0:
66,215,143510,1,2,0:0:0:0:
318,245,144010,6,0,L|325:202,1,44,8|8,0:0|0:0,0:0:0:0:
293,124,144177,5,12,0:1:0:0:
472,220,144344,1,0,0:0:0:0:
472,220,144427,1,8,0:0:0:0:
472,220,144510,1,8,0:1:0:0:
234,277,144677,5,8,0:0:0:0:
234,277,144760,1,8,0:0:0:0:
234,277,144844,2,0,P|178:250|92:257,1,132,8|0,1:1|0:0,0:0:0:0:
97,258,145177,1,8,0:1:0:0:
324,109,145344,5,0,0:0:0:0:
324,109,145427,1,8,0:0:0:0:
324,109,145510,2,0,P|333:185|339:268,1,132,8|8,0:1|0:0,0:0:0:0:
338,255,145844,2,0,L|430:230,1,88,8|8,0:1|0:0,0:0:0:0:
422,231,146094,1,8,0:0:0:0:
422,231,146177,5,8,0:1:0:0:
230,146,146344,1,8,0:0:0:0:
425,70,146510,1,10,0:0:0:0:
425,70,146594,1,8,0:0:0:0:
425,70,146677,1,8,0:0:0:0:
214,154,146844,6,0,L|116:142,1,88,6|0,0:0|3:0,0:0:0:0:
126,143,147094,1,0,3:0:0:0:
126,143,147177,1,8,0:1:0:0:
315,25,147344,1,0,0:0:0:0:
315,25,147427,1,8,0:0:0:0:
315,25,147510,2,0,L|460:36,1,132,8|0,1:1|0:0,0:0:0:0:
447,35,147844,1,8,0:1:0:0:
473,230,148010,5,8,0:0:0:0:
473,230,148094,1,8,0:0:0:0:
473,230,148177,2,0,P|431:182|342:173,1,132,8|0,0:1|3:0,0:0:0:0:
352,172,148510,1,8,0:1:0:0:
230,263,148677,2,0,L|186:256,1,44,0|0,3:0|3:0,0:0:0:0:
311,327,148844,5,8,0:1:0:0:
105,250,149010,1,8,0:0:0:0:
264,157,149177,1,8,0:0:0:0:
264,157,149260,1,8,0:0:0:0:
264,157,149344,1,8,0:0:0:0:
50,79,149510,5,12,0:1:0:0:
105,250,149677,1,0,0:0:0:0:
105,250,149760,1,8,0:0:0:0:
105,250,149843,1,8,0:1:0:0:
189,43,150010,5,8,0:0:0:0:
189,43,150093,1,8,0:0:0:0:
189,43,150177,2,0,L|332:21,1,132,8|0,0:1|0:0,0:0:0:0:
336,21,150510,1,8,0:1:0:0:
154,143,150677,5,0,3:0:0:0:
154,143,150760,1,8,0:0:0:0:
154,143,150844,1,8,0:1:0:0:
341,224,151010,6,0,L|283:233,1,44,8|8,0:0|0:0,0:0:0:0:
123,259,151177,1,8,0:1:0:0:
339,126,151344,5,8,0:0:0:0:
339,126,151427,1,8,0:0:0:0:
339,126,151510,1,8,0:1:0:0:
252,324,151677,1,0,3:0:0:0:
154,143,151844,1,10,0:0:0:0:
256,337,152010,1,2,0:0:0:0:
341,224,152177,6,0,P|400:233|442:241,1,88,6|0,0:0|3:0,0:0:0:0:
427,238,152427,1,0,3:0:0:0:
427,238,152510,1,8,0:1:0:0:
238,42,152677,1,0,3:0:0:0:
238,42,152760,1,0,1:0:0:0:
238,42,152843,2,0,P|248:101|259:180,1,132,8|0,0:1|0:0,0:0:0:0:
256,191,153177,1,8,0:1:0:0:
198,326,153343,5,8,0:0:0:0:
198,326,153427,1,8,0:0:0:0:
198,326,153510,2,0,B|127:306|127:306|79:344,1,132,8|0,0:1|3:0,0:0:0:0:
70,353,153843,1,8,0:1:0:0:
131,198,154010,6,0,L|124:146,1,44,8|8,0:0|0:0,0:0:0:0:
57,74,154177,1,8,0:1:0:0:
256,220,154344,6,8,L|256:152,1,44
256,56,154510,1,8,0:1:0:0:
381,198,154677,6,0,L|388:146,1,44,8|8,0:0|0:0,0:0:0:0:
455,74,154844,6,0,L|468:161,1,88,12|0,0:1|0:0,0:0:0:0:
480,241,155094,1,8,0:0:0:0:
480,241,155177,1,8,0:1:0:0:
336,330,155344,1,8,0:0:0:0:
381,198,155510,5,8,3:1:0:0:
381,198,155594,1,0,3:0:0:0:
381,198,155677,1,8,0:0:0:0:
341,353,155844,2,0,P|302:342|248:330,1,88,8|8,0:1|0:0,0:0:0:0:
176,334,156094,1,8,0:0:0:0:
163,338,156177,6,0,B|71:355|71:355|46:324,1,132,8|8,0:1|0:0,0:0:0:0:
88,238,156510,2,0,L|185:251,1,88,8|8,0:1|0:0,0:0:0:0:
308,145,156844,2,0,L|301:101,1,44,8|0,1:0|3:0,0:0:0:0:
134,66,157010,1,8,0:0:0:0:
254,227,157177,1,8,1:1:0:0:
281,11,157344,2,0,L|213:29,1,44,0|0,3:0|3:0,0:0:0:0:
199,141,157510,6,0,L|336:158,1,132,8|0,1:0|3:0,0:0:0:0:
404,175,157844,2,0,B|383:214|383:214|397:260,1,88,8|0,1:0|3:0,0:0:0:0:
492,132,158177,5,8,3:1:0:0:
492,132,158260,1,8,0:0:0:0:
492,132,158344,1,0,0:0:0:0:
492,132,158427,1,8,0:0:0:0:
492,132,158510,1,8,1:0:0:0:
330,75,158677,1,0,3:0:0:0:
395,255,158844,6,0,L|376:370,1,88,8|0,1:0|0:0,0:0:0:0:
380,341,159094,1,0,3:0:0:0:
380,341,159177,1,8,3:1:0:0:
267,231,159344,2,0,L|206:244,1,44,8|0,0:0|3:0,0:0:0:0:
102,332,159510,6,0,P|79:295|80:251,1,88,8|0,3:1|3:0,0:0:0:0:
117,185,159760,1,0,3:0:0:0:
120,175,159844,2,0,P|121:131|98:94,1,88,8|0,1:0|3:0,0:0:0:0:
31,59,160094,1,0,3:0:0:0:
25,52,160177,6,0,L|170:39,1,132,12|0,0:1|3:0,0:0:0:0:
245,12,160510,1,8,1:0:0:0:
218,196,160677,2,0,L|225:250,2,44,0|0|8,3:0|3:0|1:0,0:0:0:0:
380,85,161010,1,0,3:0:0:0:
388,90,161094,1,0,3:0:0:0:
396,94,161177,2,0,L|367:199,1,88,8|0,1:0|3:0,0:0:0:0:
321,361,161510,5,8,1:0:0:0:
218,196,161677,1,0,3:0:0:0:
218,196,161760,1,0,3:0:0:0:
218,196,161844,2,0,P|179:177|136:174,1,88,8|0,1:0|0:0,0:0:0:0:
378,353,162177,6,0,L|465:343,1,88,8|8,1:0|0:0,0:0:0:0:
405,270,162427,1,8,0:0:0:0:
405,270,162510,2,0,L|317:279,1,88,8|0,1:0|3:0,0:0:0:0:
221,315,162760,5,0,3:0:0:0:
205,326,162844,2,0,P|202:283|217:194,1,132,12|0,1:0|0:0,0:0:0:0:
226,179,163177,1,8,1:0:0:0:
32,113,163344,1,0,3:0:0:0:
35,135,163427,1,0,3:0:0:0:
37,157,163510,1,8,1:0:0:0:
158,21,163677,2,0,L|153:64,2,44,0|0|8,3:0|3:0|3:1,0:0:0:0:
133,238,164010,6,0,B|240:264|195:180|316:214,1,176,10|8,0:0|1:1,0:0:0:0:
152,64,164510,1,12,0:0:0:0:
267,291,164677,1,10,0:1:0:0:
403,94,164844,5,10,0:1:0:0:
377,58,164927,1,2,0:0:0:0:
337,40,165010,1,2,0:0:0:0:
294,43,165094,1,10,0:0:0:0:
257,67,165177,1,10,0:1:0:0:
237,106,165260,1,10,0:0:0:0:
238,149,165344,1,10,0:0:0:0:
260,187,165427,1,10,0:0:0:0:
298,209,165510,2,0,L|136:201,1,145.200004431152,12|0,0:1|0:0,0:0:0:0:
69,130,165844,6,0,B|89:158|89:158|73:237,1,105.599996777344,12|2,0:0|0:0,0:0:0:0:
0,347,166177,1,10,0:1:0:0:
0,180,166344,1,8,0:1:0:0:
137,320,166510,2,0,P|186:311|232:305,1,96.8000029541017,8|2,0:0|0:0,0:0:0:0:
386,356,166844,6,0,P|444:348|428:224,1,193.600005908203,10|8,0:1|0:0,0:0:0:0:
223,99,167344,1,2,0:0:0:0:
370,276,167510,5,8,0:1:0:0:
344,43,167677,1,10,0:1:0:0:
186,224,167844,1,8,0:0:0:0:
401,150,168010,1,2,0:0:0:0:
209,87,168177,6,0,L|60:71,1,145.200004431152,10|0,0:1|0:0,0:0:0:0:
46,68,168511,2,0,B|19:110|19:110|31:164,1,96.8000029541017,8|0,0:0|0:0,0:0:0:0:
173,359,168844,1,10,0:1:0:0:
132,158,169011,1,8,0:1:0:0:
23,322,169177,1,8,0:0:0:0:
207,216,169344,1,0,0:0:0:0:
350,311,169511,6,0,L|469:288,1,96.8000029541017,10|2,0:1|0:0,0:0:0:0:
266,358,169844,1,8,0:0:0:0:
291,132,170011,1,2,0:0:0:0:
291,132,170094,1,0,0:0:0:0:
291,132,170177,1,10,0:1:0:0:
445,292,170344,1,8,0:1:0:0:
476,62,170511,2,0,P|471:111|462:157,1,96.8000029541017,8|8,0:0|0:1,0:0:0:0:
162,52,170844,6,0,L|353:23,1,193.600005908203,10|8,0:1|0:0,0:0:0:0:
201,213,171344,1,2,3:2:0:0:
201,213,171427,1,2,3:2:0:0:
201,213,171511,5,8,0:1:0:0:
418,284,171677,1,10,0:1:0:0:
310,112,171844,5,8,0:0:0:0:
244,349,172011,1,2,0:0:0:0:
434,161,172177,6,0,P|429:113|421:66,2,96.8000029541017,10|2|8,0:1|0:0|0:0,0:0:0:0:
280,271,172677,1,2,3:2:0:0:
280,271,172761,1,0,1:0:0:0:
280,271,172844,1,10,0:1:0:0:
499,328,173010,1,8,0:1:0:0:
319,197,173177,2,0,P|249:185|196:231,1,145.200004431152,8|0,0:0|0:0,0:0:0:0:
190,250,173510,6,0,P|177:142|168:49,1,193.600005908203,12|8,0:1|0:0,0:0:0:0:
44,155,174010,1,0,0:0:0:0:
276,99,174177,2,0,P|322:84|368:70,1,96.8000029541017,10|8,0:1|0:1,0:0:0:0:
183,258,174510,2,0,P|136:248|84:240,1,96.8000029541017,8|0,0:0|0:0,0:0:0:0:
87,240,174760,1,0,0:0:0:0:
87,240,174843,5,10,0:1:0:0:
260,348,175010,1,10,0:1:0:0:
206,120,175176,1,12,0:0:0:0:
261,369,175343,1,10,0:1:0:0:
382,138,175510,5,8,0:0:0:0:
87,240,175676,1,2,0:0:0:0:
87,240,175760,1,8,0:0:0:0:
87,240,175843,1,8,0:3:0:0:
406,323,176010,1,8,0:0:0:0:
197,34,176176,6,0,P|207:114|219:230,1,193.600005908203,12|8,0:1|0:0,0:0:0:0:
102,108,176677,1,0,0:0:0:0:
304,125,176844,2,0,L|406:102,1,96.8000029541017,10|8,0:1|0:1,0:0:0:0:
398,103,177094,1,2,0:0:0:0:
398,103,177177,1,8,0:0:0:0:
183,16,177344,1,2,0:0:0:0:
218,226,177511,6,0,B|292:213|292:213|335:246|335:246|405:232,1,193.600005908203,10|8,0:1|0:0,0:0:0:0:
301,68,178011,1,0,0:0:0:0:
205,248,178177,2,0,L|104:235,1,96.8000029541017,10|8,0:1|0:1,0:0:0:0:
61,229,178427,2,0,L|122:237,1,48.4000014770508,2|8,0:0|0:0,0:0:0:0:
235,361,178677,2,0,L|282:351,1,48.4000014770508,2|0,0:0|0:0,0:0:0:0:
365,303,178844,6,0,P|347:232|377:159,1,145.200004431152,10|0,0:1|0:0,0:0:0:0:
382,156,179177,2,0,L|274:172,1,96.8000029541017,8|0,0:0|0:0,0:0:0:0:
152,56,179511,2,0,P|199:50|247:44,1,96.8000029541017,10|8,0:1|0:1,0:0:0:0:
247,43,179761,1,2,0:0:0:0:
247,43,179844,1,8,0:0:0:0:
192,276,180011,1,2,0:0:0:0:
384,64,180177,6,0,B|398:110|398:110|380:160,1,96.8000029541017,10|8,0:1|0:1,0:0:0:0:
192,276,180510,1,12,0:0:0:0:
296,138,180677,1,2,0:0:0:0:
368,336,180844,5,10,0:1:0:0:
346,294,180927,1,8,0:0:0:0:
306,268,181010,1,8,0:0:0:0:
258,265,181094,1,8,0:0:0:0:
214,285,181177,1,8,0:0:0:0:
170,305,181260,1,8,0:3:0:0:
122,302,181344,1,4,0:3:0:0:
82,276,181427,1,4,0:3:0:0:
60,233,181510,5,12,0:1:0:0:
284,97,181677,1,0,0:0:0:0:
281,349,181844,1,10,0:1:0:0:
168,56,182010,5,10,0:0:0:0:
267,360,182177,1,2,0:0:0:0:
267,360,182260,1,2,0:0:0:0:
267,360,182344,1,10,0:1:0:0:
338,35,182510,5,12,0:0:0:0:
60,233,182677,1,10,0:1:0:0:
397,332,182844,1,8,0:0:0:0:
263,98,183177,6,0,B|193:142|186:233|193:292|275:328|337:257|303:193|240:194,1,338.800010339356,12|0,0:1|0:0,0:0:0:0:
252,194,183844,6,0,L|318:202,1,48.4000014770508,8|8,0:0|0:0,0:0:0:0:
381,141,184010,2,0,L|429:145,1,48.4000014770508,8|8,0:0|0:0,0:0:0:0:
482,292,184177,6,0,L|378:301,1,96.8000029541017,12|2,0:1|0:0,0:0:0:0:
386,301,184427,1,2,0:0:0:0:
386,301,184510,1,8,0:0:0:0:
205,356,184677,1,2,0:0:0:0:
300,200,184844,1,8,0:1:0:0:
87,156,185010,1,0,3:0:0:0:
90,179,185093,1,0,3:0:0:0:
95,203,185177,2,0,L|105:262,1,48.4000014770508,8|8,0:0|0:0,0:0:0:0:
239,24,185344,6,0,P|222:115|208:219,1,193.600005908203,6|8,0:0|0:1,0:0:0:0:
448,353,185844,5,8,0:3:0:0:
428,309,185927,1,8,0:3:0:0:
390,280,186010,1,8,0:0:0:0:
343,274,186094,1,8,0:0:0:0:
299,292,186177,6,0,L|313:229,1,48.4000014770508,8|0,0:1|0:0,0:0:0:0:
469,198,186344,2,0,L|480:151,1,48.4000014770508,8|8,0:0|0:0,0:0:0:0:
331,90,186510,5,8,1:0:0:0:
350,134,186593,1,8,0:0:0:0:
388,163,186676,1,8,0:0:0:0:
435,169,186760,1,8,0:0:0:0:
480,151,186844,6,0,B|506:18|506:18|460:49,1,176,12|8,0:1|0:0,0:0:0:0:
298,219,187344,2,0,B|265:222|237:232|237:232|202:209|202:209|165:226|121:228,1,176,10|8,0:1|0:1,0:0:0:0:
228,67,187844,2,0,B|250:92|250:92|238:147,1,88,8|2,0:0|0:0,0:0:0:0:
169,351,188177,6,0,P|104:322|1:294,1,176,10|8,0:1|0:0,0:0:0:0:
152,207,188677,1,8,0:1:0:0:
24,83,188844,2,0,P|27:126|35:170,1,88,2|8,0:0|0:1,0:0:0:0:
229,265,189177,2,0,P|236:221|240:177,1,88,8|2,0:0|0:0,0:0:0:0:
152,21,189510,6,0,P|211:47|242:51,1,88,8|2,0:1|0:0,0:0:0:0:
335,22,189844,1,8,0:0:0:0:
381,220,190010,2,0,P|347:172|239:178,1,176,10|8,0:1|0:1,0:0:0:0:
419,85,190510,1,8,0:0:0:0:
297,244,190677,1,2,0:0:0:0:
485,284,190844,6,0,P|495:234|510:191,1,88,8|2,0:1|0:0,0:0:0:0:
349,121,191177,2,0,P|361:163|372:205,1,88,8|8,0:0|0:1,0:0:0:0:
303,346,191510,1,2,0:0:0:0:
303,346,191677,1,10,0:1:0:0:
156,295,191844,2,0,P|105:257|109:194,1,132,8|0,0:0|0:0,0:0:0:0:
128,188,192177,6,0,L|216:158,1,88,6|2,0:0|0:0,0:0:0:0:
310,58,192510,1,8,0:0:0:0:
297,244,192677,2,0,P|300:175|304:60,1,176,10|8,0:1|0:1,0:0:0:0:
390,180,193177,1,8,0:0:0:0:
211,63,193344,1,2,0:0:0:0:
411,27,193510,6,0,P|464:45|467:161,1,176,8|8,0:1|0:0,0:0:0:0:
302,271,194010,1,8,0:1:0:0:
390,180,194177,2,0,L|395:267,1,88,2|8,0:0|0:1,0:0:0:0:
185,154,194510,2,0,L|179:241,1,88,8|0,0:0|0:0,0:0:0:0:
330,38,194844,6,0,B|271:30|271:30|238:53|238:53|179:46,1,158.399995166016,12|0,0:1|0:0,0:0:0:0:
167,32,195177,1,8,0:1:0:0:
55,210,195344,6,0,B|97:183|97:183|260:202,1,211.199993554688,12|10,0:0|0:1,0:0:0:0:
425,347,195844,6,0,B|449:228|449:228|417:246,1,158.399995166016,12|0,0:0|0:0,0:0:0:0:
407,254,196177,1,10,0:1:0:0:
224,346,196344,6,0,B|96:332,1,105.599996777344,12|10,0:0|0:1,0:0:0:0:
346,202,196760,5,8,0:0:0:0:
343,191,196843,2,0,L|336:134,1,52.7999983886719,8|0,0:0|0:0,0:0:0:0:
423,22,197010,6,0,P|396:23|371:32,1,52.7999983886719,10|0,0:1|0:0,0:0:0:0:
258,125,197177,2,0,P|231:123|206:114,1,52.7999983886719,2|0,0:0|0:0,0:0:0:0:
60,19,197344,1,10,0:1:0:0:
39,66,197427,1,2,0:0:0:0:
48,117,197510,6,0,P|65:195|73:268,1,145.200004431152,12|0,0:1|0:0,0:0:0:0:
71,276,197844,1,8,0:0:0:0:
284,355,198010,6,0,B|348:343|348:343|378:296|378:296|450:280,1,193.600005908203,10|8,0:1|0:1,0:0:0:0:
205,193,198510,2,0,B|197:220|197:220|215:295,1,96.8000029541017,8|2,0:0|0:0,0:0:0:0:
413,62,198844,5,10,0:1:0:0:
281,224,199010,1,8,0:1:0:0:
492,151,199177,1,8,0:0:0:0:
315,3,199344,1,8,0:1:0:0:
281,224,199510,2,0,L|173:210,1,96.8000029541017,2|8,0:0|0:1,0:0:0:0:
413,62,199844,1,10,0:0:0:0:
284,250,200010,5,2,0:0:0:0:
60,124,200177,2,0,B|89:99|99:106|99:106|111:98|111:98|122:99|122:99|143:84,1,96.8000029541017,8|2,0:1|0:0,0:0:0:0:
214,308,200510,1,8,0:0:0:0:
340,178,200677,6,0,B|375:188|399:172|399:172|414:185|434:190|434:190|440:217|469:213|469:213|493:220|493:220|502:225|512:224,1,193.600005908203,10|8,0:1|0:1,0:0:0:0:
319,72,201177,1,8,0:0:0:0:
298,325,201344,1,2,0:0:0:0:
440,151,201510,6,0,P|446:102|453:55,1,96.8000029541017,8|10,0:1|0:1,0:0:0:0:
245,181,201844,1,12,0:0:0:0:
388,272,202010,1,2,0:0:0:0:
310,51,202177,5,8,0:3:0:0:
261,53,202260,1,8,0:0:0:0:
213,55,202343,1,8,0:0:0:0:
164,58,202427,1,8,0:0:0:0:
116,60,202510,2,0,L|120:119,1,48.4000014770508,8|0,0:3|0:0,0:0:0:0:
245,180,202677,2,0,L|242:228,1,48.4000014770508,4|4,0:3|0:3,0:0:0:0:
137,358,202844,6,0,P|180:349|223:343,1,88,12|2,0:1|0:0,0:0:0:0:
241,228,203177,2,0,P|284:236|327:242,1,88,8|2,0:1|0:0,0:0:0:0:
454,323,203510,2,0,P|487:318|520:308,2,58.6666666666667,8|2|2,0:1|0:0|0:0,0:0:0:0:
413,236,203844,2,0,L|422:179,1,44,8|0,0:1|0:0,0:0:0:0:
483,94,204010,6,0,P|452:89|384:81,1,88,12|8,0:0|0:1,0:0:0:0:
233,204,204344,1,0,0:0:0:0:
407,171,204510,1,8,0:0:0:0:
262,53,204677,1,2,0:0:0:0:
327,242,204844,6,0,L|335:290,1,44,10|0,0:1|0:0,0:0:0:0:
247,359,205010,1,0,3:0:0:0:
211,369,205093,1,0,3:0:0:0:
175,365,205176,1,8,3:0:0:0:
144,347,205260,1,0,3:0:0:0:
121,319,205343,1,0,3:0:0:0:
111,284,205426,1,0,3:0:0:0:
116,248,205510,5,12,0:1:0:0:
333,105,205677,2,0,L|306:148,1,44,0|0,3:0|3:0,0:0:0:0:
199,282,205844,1,10,0:0:0:0:
172,29,206010,1,2,0:0:0:0:
404,149,206177,1,12,0:0:0:0:
404,149,206510,5,12,0:1:0:0:
124,232,206677,1,8,0:0:0:0:
304,0,206844,1,10,0:1:0:0:
293,292,207010,1,8,0:0:0:0:
129,49,207177,1,12,0:0:0:0:
129,49,207510,6,0,L|229:35,1,88,10|8,0:1|0:0,0:0:0:0:
289,87,207760,1,8,0:0:0:0:
289,87,207844,2,0,L|348:76,1,44,8|0,0:0|0:0,0:0:0:0:
483,228,208010,6,0,P|443:170|316:184,1,193.600005908203,12|8,0:1|0:1,0:0:0:0:
213,319,208510,2,0,B|103:350|144:264|22:301,1,193.600005908203,8|8,0:0|0:1,0:0:0:0:
221,210,209010,1,8,0:1:0:0:
91,89,209177,2,0,P|56:64|1:40,1,96.8000029541017,8|8,0:0|0:1,0:0:0:0:
103,266,209510,5,12,0:1:0:0:
166,34,209677,1,2,3:2:0:0:
192,74,209760,1,0,3:0:0:0:
233,100,209843,1,10,3:1:0:0:
280,104,209927,1,0,3:0:0:0:
324,86,210011,1,2,3:2:0:0:
367,67,210094,1,0,3:0:0:0:
415,72,210178,5,10,0:1:0:0:
456,98,210261,1,0,0:0:0:0:
482,138,210344,1,8,0:0:0:0:
486,186,210428,1,8,0:0:0:0:
469,230,210511,1,8,0:0:0:0:
433,263,210594,1,8,0:0:0:0:
387,276,210678,1,8,0:0:0:0:
340,266,210761,1,8,0:0:0:0:
304,237,210844,6,0,L|112:268,1,176,12|8,0:1|0:0,0:0:0:0:
11,341,211344,1,0,0:0:0:0:
56,225,211510,2,0,P|59:181|51:137,1,88,10|8,0:1|0:1,0:0:0:0:
149,90,211844,2,0,P|138:47|118:8,1,88,10|0,0:0|0:0,0:0:0:0:
326,135,212177,6,0,P|285:142|237:150,1,88,10|0,0:1|0:0,0:0:0:0:
395,39,212510,2,0,P|438:45|481:53,1,88,10|0,0:0|0:0,0:0:0:0:
290,167,212844,2,0,P|248:163|200:158,1,88,10|8,0:1|0:1,0:0:0:0:
415,25,213177,2,0,P|458:20|502:16,1,88,10|0,0:0|0:0,0:0:0:0:
485,256,213510,6,0,L|311:277,1,176,10|8,0:1|0:0,0:0:0:0:
177,349,214010,1,2,0:0:0:0:
290,167,214177,2,0,P|296:121|301:79,1,88,10|8,0:1|0:1,0:0:0:0:
165,261,214510,2,0,P|171:304|176:348,1,88,8|0,0:0|0:0,0:0:0:0:
25,131,214844,6,0,B|130:94|96:183|210:139,1,176,10|8,0:1|0:0,0:0:0:0:
324,81,215344,1,8,0:1:0:0:
264,250,215510,2,0,P|273:207|289:166,1,88,2|8,0:0|0:1,0:0:0:0:
289,166,215760,1,2,0:0:0:0:
289,166,215844,1,8,0:0:0:0:
134,253,216010,1,2,0:0:0:0:
332,333,216177,6,0,B|457:359|457:359|490:319,1,176,12|8,0:1|0:0,0:0:0:0:
357,111,216677,2,0,B|297:121|297:121|263:156|263:156|181:171,1,176,10|8,0:1|0:1,0:0:0:0:
97,36,217177,2,0,B|120:59|120:59|114:120,1,88,8|2,0:0|0:0,0:0:0:0:
46,327,217510,6,0,L|21:149,1,176,8|8,0:1|0:0,0:0:0:0:
97,36,218010,1,8,0:1:0:0:
205,197,218178,2,0,P|163:211|122:228,1,88,2|8,0:0|0:1,0:0:0:0:
284,132,218510,2,0,P|333:139|384:150,1,88,8|0,0:0|0:0,0:0:0:0:
511,274,218844,6,0,B|472:300|472:300|430:272|423:222|466:170,1,176,10|8,0:1|0:0,0:0:0:0:
511,51,219344,2,0,B|467:60|433:29|433:29|381:13|341:50,1,176,10|8,0:1|0:1,0:0:0:0:
207,165,219844,2,0,P|199:122|190:79,1,88,8|2,0:0|0:0,0:0:0:0:
135,254,220177,5,6,0:0:0:0:
294,127,220344,1,8,0:0:0:0:
91,111,220510,1,8,0:1:0:0:
91,111,220594,1,8,0:0:0:0:
91,111,220677,1,8,0:0:0:0:
245,276,220844,5,8,0:3:0:0:
283,298,220927,1,0,3:0:0:0:
326,298,221010,1,0,3:0:0:0:
364,277,221094,1,8,0:0:0:0:
388,241,221177,1,8,0:0:0:0:
303,38,221344,1,0,3:0:0:0:
298,82,221427,1,8,0:0:0:0:
293,126,221510,6,0,B|200:169|224:78|109:131,1,176,12|8,0:1|0:0,0:0:0:0:
70,263,222010,2,0,B|112:272|112:272|151:249,1,88,2|8,0:0|0:1,0:0:0:0:
7,100,222344,2,0,P|5:145|0:203,1,88,10|8,0:1|0:0,0:0:0:0:
105,28,222677,1,2,0:0:0:0:
229,215,222844,6,0,L|431:195,1,176,10|8,0:1|0:0,0:0:0:0:
307,15,223344,2,0,P|230:26|209:83,1,132,10|0,0:1|0:0,0:0:0:0:
209,83,223677,1,8,0:1:0:0:
297,253,223844,2,0,P|354:264|401:279,1,88,8|2,0:0|0:0,0:0:0:0:
139,337,224177,6,0,P|145:249|152:160,2,176,10|8|10,0:1|0:0|0:1,0:0:0:0:
57,196,225010,1,8,0:1:0:0:
253,268,225177,2,0,P|300:256|347:246,1,88,8|0,0:0|0:0,0:0:0:0:
425,110,225510,6,0,P|382:100|340:90,1,88,10|0,0:1|0:0,0:0:0:0:
436,308,225844,2,0,P|445:256|457:210,1,88,8|8,0:0|0:1,0:0:0:0:
512,76,226177,1,2,0:0:0:0:
340,170,226344,1,8,0:1:0:0:
512,61,226510,1,8,0:0:0:0:
315,12,226677,2,0,L|249:22,1,44,2|0,0:0|0:0,0:0:0:0:
259,219,226844,6,0,P|346:208|433:199,1,176,12|8,0:1|0:0,0:0:0:0:
248,348,227344,2,0,P|160:326|184:243,1,176,10|8,0:1|0:1,0:0:0:0:
304,100,227844,2,0,P|300:142|295:189,1,88,8|0,0:0|0:0,0:0:0:0:
204,55,228177,5,8,0:1:0:0:
408,140,228344,5,2,0:0:0:0:
183,173,228510,1,8,0:0:0:0:
323,72,228677,5,10,0:1:0:0:
323,72,228760,1,2,0:0:0:0:
323,72,228844,1,2,0:0:0:0:
227,263,229010,1,8,0:1:0:0:
200,37,229177,2,0,L|107:48,1,88,8|8,0:0|0:1,0:0:0:0:
250,297,229510,5,12,0:0:0:0:
56,212,229677,1,10,0:1:0:0:
174,347,229844,5,8,0:0:0:0:
123,133,230010,1,10,0:1:0:0:
88,349,230177,5,8,0:0:0:0:
223,97,230344,1,10,0:1:0:0:
0,289,230510,5,8,0:0:0:0:
330,235,230677,1,12,0:0:0:0:
209,16,230844,6,0,L|217:107,1,66.0000025177003,10|0,0:1|0:0,0:0:0:0:
169,183,231155,5,8,0:0:0:0:
247,196,231266,5,8,0:0:0:0:
307,153,231377,5,8,0:0:0:0:
315,95,231488,5,8,0:0:0:0:
355,53,231599,5,8,0:3:0:0:
405,53,231710,5,4,0:3:0:0:
434,86,231832,5,4,0:3:0:0:
437,120,231943,5,8,0:1:0:0:
425,146,232054,5,8,0:1:0:0:
414,155,232177,6,0,L|426:302,1,132.000005035401,12|0,0:1|0:0,0:0:0:0:
256,191,232677,1,0,3:0:0:0:
327,358,232844,2,0,L|337:226,1,132.000005035401,0|0,0:1|3:0,0:0:0:0:
424,286,233344,1,0,0:0:0:0:
250,333,233510,5,0,0:0:0:0:
271,167,233677,2,0,L|121:179,1,132.000005035401,0|0,3:0|0:0,0:0:0:0:
18,254,234177,1,0,3:0:0:0:
126,164,234344,1,0,0:0:0:0:
16,75,234510,2,0,L|4:34,2,33.0000012588501,0|0|0,3:0|3:0|3:0,0:0:0:0:
178,81,234844,6,0,L|254:74,2,66.0000025177003,2|0|0,3:2|0:0|0:0,0:0:0:0:
336,160,235344,2,0,L|270:166,2,66.0000025177003,2|0|0,3:2|0:0|0:0,0:0:0:0:
427,56,235844,2,0,P|419:87|413:120,1,66.0000025177003,2|0,3:2|0:0,0:0:0:0:
481,266,236177,5,2,0:0:0:0:
401,205,236344,1,0,3:0:0:0:
379,306,236510,1,2,0:0:0:0:
477,247,236677,1,0,0:0:0:0:
384,197,236844,2,0,L|306:204,1,66.0000025177003,2|0,3:2|0:0,0:0:0:0:
208,272,237177,2,0,L|170:274,2,33.0000012588501,2|0|0,3:2|3:0|3:0,0:0:0:0:
233,134,237510,6,0,P|242:96|255:66,2,66.0000025177003,2|0|0,3:2|0:0|0:0,0:0:0:0:
140,187,238010,2,0,P|119:153|107:123,2,66.0000025177003,2|0|0,3:2|0:0|0:0,0:0:0:0:
97,278,238510,1,0,3:0:0:0:
97,278,238677,2,0,P|64:270|34:258,1,66.0000025177003,2|0,0:0|0:0,0:0:0:0:
183,331,239010,6,0,P|173:265|162:201,1,132.000005035401,0|0,3:0|0:0,0:0:0:0:
277,137,239510,2,0,P|266:172|256:201,1,66.0000025177003,2|0,3:2|0:0,0:0:0:0:
341,326,239844,1,2,3:2:0:0:
419,240,240010,1,2,0:2:0:0:
256,199,240177,6,0,L|181:211,1,66.0000025177003,2|0,3:2|0:0,0:0:0:0:
98,257,240510,1,0,3:0:0:0:
196,121,240677,6,0,L|121:109,1,66.0000025177003,8|0,0:0|0:0,0:0:0:0:
38,63,241010,1,2,3:2:0:0:
209,34,241177,2,0,L|284:22,1,66.0000025177003,8|0,0:0|0:0,0:0:0:0:
348,71,241510,5,8,0:1:0:0:
130,110,241677,1,8,0:0:0:0:
274,23,241844,5,4,0:3:0:0:
313,155,242010,1,8,0:3:0:0:
238,105,242177,5,8,0:1:0:0:
394,138,242344,1,8,0:3:0:0:
225,241,242510,5,4,0:3:0:0:
274,23,242677,1,8,0:1:0:0:
371,220,242844,6,0,P|376:251|382:297,1,66.0000025177003,12|0,0:1|0:0,0:0:0:0:
294,355,243094,1,2,0:0:0:0:
286,359,243177,2,0,P|290:326|295:293,1,66.0000025177003,8|2,0:1|0:0,0:0:0:0:
205,206,243510,2,0,P|210:237|216:283,1,66.0000025177003,8|2,0:1|0:0,0:0:0:0:
120,345,243843,2,0,P|124:312|129:279,1,66.0000025177003,8|2,0:1|0:0,0:0:0:0:
144,143,244177,6,0,P|91:163|-2:190,1,132.000005035401,10|8,0:1|0:1,0:0:0:0:
65,73,244677,1,0,0:0:0:0:
159,155,244844,2,0,P|204:164|240:174,1,66.0000025177003,10|0,0:1|0:0,0:0:0:0:
216,50,245177,2,0,P|261:41|297:31,1,66.0000025177003,10|0,0:1|0:0,0:0:0:0:
413,78,245510,6,0,P|356:74|320:107,1,99.0000037765504,10|0,0:1|0:0,0:0:0:0:
318,114,245844,2,0,P|284:148|236:147,1,99.0000037765504,10|0,0:1|0:0,0:0:0:0:
219,143,246177,2,0,L|236:224,1,66.0000025177003,10|0,0:1|0:0,0:0:0:0:
232,207,246427,1,2,0:0:0:0:
232,207,246510,1,8,0:1:0:0:
235,321,246677,1,2,0:0:0:0:
150,223,246844,6,0,P|105:209|66:203,2,66.0000025177003,10|2|8,0:1|0:0|0:1,0:0:0:0:
162,64,247344,2,0,P|150:94|139:126,1,66.0000025177003,8|0,0:0|0:0,0:0:0:0:
93,25,247677,1,2,0:0:0:0:
234,126,247844,2,0,L|311:109,1,66.0000025177003,10|8,0:1|0:0,0:0:0:0:
440,23,248177,6,0,B|420:109|420:109|450:156,1,132.000005035401,12|10,0:1|0:1,0:0:0:0:
494,246,248677,2,0,P|461:245|421:262,1,66.0000025177003,2|8,0:0|0:1,0:0:0:0:
292,320,249010,2,0,P|325:321|365:304,1,66.0000025177003,2|8,0:0|0:1,0:0:0:0:
381,191,249344,1,10,0:0:0:0:
233,228,249510,6,0,L|162:219,1,66.0000025177003,8|2,0:1|0:0,0:0:0:0:
240,150,249844,1,8,0:1:0:0:
156,296,250010,1,8,0:0:0:0:
178,98,250177,5,10,0:1:0:0:
311,193,250344,1,8,0:0:0:0:
257,30,250510,1,10,0:1:0:0:
167,219,250677,5,0,3:0:0:0:
167,219,250760,1,0,0:0:0:0:
167,219,250844,2,0,L|96:210,1,66.0000025177003,12|0,0:1|0:0,0:0:0:0:
240,150,251177,1,10,0:1:0:0:
109,124,251344,2,0,L|38:133,1,66.0000025177003,2|8,0:0|0:1,0:0:0:0:
259,239,251677,2,0,L|330:230,1,66.0000025177003,2|8,0:0|0:1,0:0:0:0:
479,104,252010,6,0,L|404:104,1,66.0000025177003,10|8,0:0|0:1,0:0:0:0:
286,141,252344,1,2,0:0:0:0:
260,110,252427,1,2,0:0:0:0:
265,70,252510,1,10,0:1:0:0:
299,49,252594,1,2,0:0:0:0:
338,59,252677,1,2,0:0:0:0:
406,261,252844,5,10,0:1:0:0:
364,258,252927,1,2,3:1:0:0:
323,255,253010,1,2,3:1:0:0:
282,252,253094,1,2,3:1:0:0:
241,249,253177,1,8,0:0:0:0:
392,127,253344,2,0,L|403:184,1,33.0000012588501,8|8,3:2|3:2,0:0:0:0:
405,348,253510,6,0,P|457:334|489:292,1,105.599996777344,12|0,0:1|3:0,0:0:0:0:
485,215,253760,1,8,0:0:0:0:
485,215,253844,2,0,L|468:160,1,52.7999983886719,8|0,0:0|0:0,0:0:0:0:
321,42,254010,6,0,B|282:40|282:40|260:47|260:47|205:45,1,105.599996777344,6|0,0:0|3:0,0:0:0:0:
130,22,254260,1,8,0:0:0:0:
130,22,254344,2,0,L|138:75,1,52.7999983886719,8|0,0:0|0:0,0:0:0:0:
120,283,254510,6,0,L|11:273,1,105.599996777344,6|0,0:0|0:0,0:0:0:0:
64,200,254760,1,8,0:0:0:0:
64,200,254844,2,0,L|117:204,1,52.7999983886719,8|0,0:0|0:0,0:0:0:0:
290,351,255010,6,0,P|370:307|329:181,1,211.199993554688,12|8,0:1|0:0,0:0:0:0:
356,200,255427,1,8,0:0:0:0:
356,200,255510,1,12,0:0:0:0:
120,283,255677,1,0,0:0:0:0:
339,113,255844,6,0,L|330:52,1,52.7999983886719,12|0,0:0|0:0,0:0:0:0:
120,283,256010,2,0,L|127:335,1,52.7999983886719,8|8,0:0|0:0,0:0:0:0:
214,195,256177,6,0,B|215:161|215:161|192:124,1,66
190,120,256510,6,0,P|274:102|294:203,1,198.000007553101,6|0,0:0|0:0,0:0:0:0:
61,188,256844,6,0,P|35:125|105:5,1,198.000007553101,6|0,0:0|0:0,0:0:0:0:
195,299,257177,6,0,B|125:290|125:290|79:317|79:317|-12:298,1,198.000007553101,12|0,0:0|0:0,0:0:0:0:
14,276,257510,6,0,B|28:305|28:305|9:395,1,105.599996777344,14|2,0:1|0:0,0:0:0:0:
23,374,257760,1,2,0:0:0:0:
23,374,257844,2,0,L|94:362,1,52.7999983886719,8|0,3:3|3:0,0:0:0:0:
202,201,258010,2,0,L|131:213,1,52.7999983886719,8|8,0:0|0:0,0:0:0:0:
278,343,258177,5,10,0:1:0:0:
326,360,258260,1,8,0:0:0:0:
374,340,258343,1,8,0:0:0:0:
396,293,258427,1,8,0:0:0:0:
386,246,258510,5,8,0:3:0:0:
383,213,258593,1,8,0:3:0:0:
381,181,258676,1,4,0:3:0:0:
380,148,258760,1,4,0:3:0:0:
376,116,258844,6,0,B|254:93|303:187|180:171,1,211.199993554688,12|8,0:1|0:0,0:0:0:0:
47,74,259344,1,2,0:0:0:0:
47,74,259427,1,2,0:0:0:0:
47,74,259510,1,10,0:1:0:0:
235,295,259677,1,10,0:1:0:0:
221,34,259844,1,8,0:0:0:0:
91,305,260010,1,2,0:0:0:0:
381,244,260177,6,0,L|496:257,1,105.599996777344,8|10,0:1|0:1,0:0:0:0:
299,359,260510,1,8,0:0:0:0:
455,175,260677,5,2,0:0:0:0:
455,175,260760,1,8,0:0:0:0:
455,175,260844,2,0,B|480:36|480:36|430:64,1,198.000007553101,6|0,0:0|0:0,0:0:0:0:
326,147,261177,6,0,B|295:151|253:166|253:166|221:133|221:133|185:149|146:152,1,198.000007553101,12|0,0:0|0:0,0:0:0:0:
47,88,261510,6,0,L|55:157,1,66,8|0,0:1|0:0,0:0:0:0:
70,369,261844,6,0,P|36:265|139:257,1,237.599992749024,12|0,0:0|0:0,0:0:0:0:
150,257,262177,6,0,L|214:246,1,44,2|0,0:0|0:0,0:0:0:0:
288,297,262344,6,0,P|352:307|405:269,1,132.000005035401,12|0,1:0|0:0,0:0:0:0:
360,122,262594,6,0,P|411:160|419:248,1,132.000005035401,12|0,1:0|0:0,0:0:0:0:
285,332,262844,6,0,L|136:339,1,132.000005035401,6|0,0:0|0:0,0:0:0:0:
50,235,263177,5,8,0:0:0:0:
82,233,263260,1,2,0:0:0:0:
115,232,263343,1,2,0:0:0:0:
148,231,263426,1,2,0:0:0:0:
175,231,263510,5,14,0:1:0:0:
218,259,263593,1,2,0:0:0:0:
269,250,263676,1,2,0:0:0:0:
301,210,263759,1,2,0:0:0:0:
299,152,263843,5,10,0:0:0:0:
294,90,263927,1,2,0:0:0:0:
330,42,264010,1,10,0:0:0:0:
391,33,264093,1,10,0:0:0:0:
442,66,264177,6,0,B|405:79|405:79|225:51,1,211.199993554688,12|8,0:1|0:0,0:0:0:0:
47,18,264677,1,2,0:0:0:0:
176,249,264844,2,0,B|199:204|199:204|182:145,1,105.599996777344,10|8,0:1|0:1,0:0:0:0:
183,151,265094,1,2,0:0:0:0:
183,151,265177,1,8,0:0:0:0:
26,354,265344,1,2,0:0:0:0:
269,250,265510,6,0,B|350:264|350:264|383:307|383:307|482:323,1,211.199993554688,10|8,0:1|0:0,0:0:0:0:
265,352,266010,1,0,0:0:0:0:
449,188,266177,1,10,0:1:0:0:
228,74,266344,1,8,0:1:0:0:
228,74,266427,1,2,0:0:0:0:
228,74,266510,1,8,0:0:0:0:
352,277,266677,1,2,0:0:0:0:
378,36,266844,6,0,P|429:23|481:21,1,105.599996777344,10|0,0:1|0:0,0:0:0:0:
182,148,267177,2,0,P|130:135|78:133,1,105.599996777344,10|0,0:0|0:0,0:0:0:0:
244,351,267510,2,0,L|258:231,1,105.599996777344,10|8,0:1|0:1,0:0:0:0:
257,247,267760,1,2,0:0:0:0:
257,247,267844,1,8,0:0:0:0:
295,20,268010,1,2,0:0:0:0:
489,136,268177,6,0,P|415:159|349:119,1,158.399995166016,10|0,0:1|0:0,0:0:0:0:
342,106,268510,2,0,L|350:228,1,105.599996777344,8|2,0:0|0:0,0:0:0:0:
244,351,268844,1,8,0:1:0:0:
451,242,269010,1,10,0:1:0:0:
451,242,269094,1,2,0:0:0:0:
451,242,269177,1,8,0:0:0:0:
258,238,269344,1,2,0:0:0:0:
433,46,269510,5,12,0:1:0:0:
351,341,269677,1,2,0:0:0:0:
351,341,269760,1,2,0:0:0:0:
351,341,269844,1,8,0:0:0:0:
228,136,270010,1,2,0:0:0:0:
447,262,270177,1,8,0:1:0:0:
207,254,270344,6,0,L|259:237,1,52.7999983886719,8|8,0:0|0:0,0:0:0:0:
471,154,270510,1,10,0:1:0:0:
158,20,270677,6,0,L|197:79,1,52.7999983886719,0|8,3:1|0:0,0:0:0:0:
382,345,270844,1,12,0:0:0:0:
382,345,271177,6,0,B|383:253|469:199|469:199|352:171|352:171|362:193,1,316.799990332032,12|8,0:1|0:1,0:0:0:0:
403,80,271844,6,0,B|367:89|367:89|290:74,1,105.599996777344,10|0,0:0|0:0,0:0:0:0:
159,56,272177,5,8,0:1:0:0:
210,257,272344,1,2,0:0:0:0:
210,257,272427,1,2,0:0:0:0:
210,257,272510,1,10,0:1:0:0:
326,54,272677,2,0,B|270:44|270:44|230:66|230:66|169:58,1,158.399995166016,8|0,0:0|0:0,0:0:0:0:
174,58,273010,1,10,0:1:0:0:
339,170,273177,1,10,0:0:0:0:
126,281,273344,6,0,B|235:233|230:326|333:285,1,211.199993554688,6|8,0:0|0:1,0:0:0:0:
440,146,273844,2,0,P|385:150|337:170,1,105.599996777344,8|2,0:0|0:0,0:0:0:0:
212,77,274177,5,10,0:1:0:0:
407,238,274344,1,8,0:3:0:0:
407,238,274427,1,8,0:3:0:0:
407,238,274510,2,0,L|414:312,1,52.7999983886719,8|0,0:1|0:1,0:0:0:0:
250,197,274677,2,0,L|254:144,1,52.7999983886719,10|2,0:1|0:1,0:0:0:0:
400,43,274844,5,14,0:0:0:0:
310,333,275010,1,0,0:0:0:0:
152,58,275177,5,10,0:0:0:0:
217,303,275344,1,0,0:0:0:0:
0,223,275510,5,10,0:0:0:0:
310,333,275677,1,8,0:1:0:0:
310,333,275760,1,2,0:0:0:0:
310,333,275844,1,8,0:0:0:0:
152,58,276010,1,2,0:0:0:0:
207,362,276177,5,10,0:0:0:0:
362,142,276343,1,0,0:0:0:0:
102,176,276510,5,10,0:0:0:0:
374,245,276677,1,0,0:0:0:0:
92,306,276843,5,10,0:0:0:0:
447,188,277010,1,8,0:1:0:0:
447,188,277093,1,2,0:0:0:0:
447,188,277177,1,8,0:0:0:0:
152,58,277343,1,10,0:1:0:0:
491,14,277510,5,10,0:0:0:0:
444,324,277677,2,0,L|433:273,1,52.7999983886719,0|2,0:1|0:0,0:0:0:0:
281,0,277843,5,8,0:0:0:0:
345,292,278010,1,2,0:0:0:0:
196,59,278176,5,8,0:0:0:0:
128,346,278344,2,0,L|114:290,1,52.7999983886719,0|2,0:0|0:0,0:0:0:0:
41,19,278510,5,8,0:0:0:0:
209,360,278676,1,10,0:1:0:0:
444,107,278844,5,10,0:0:0:0:
83,275,279010,1,0,0:0:0:0:
384,334,279177,5,10,0:0:0:0:
112,42,279343,1,8,0:1:0:0:
368,236,279510,6,0,L|381:185,1,52.7999983886719,8|8,0:0|0:0,0:0:0:0:
196,8,279677,2,0,L|203:60,1,52.7999983886719,8|8,0:1|0:1,0:0:0:0:
255,352,279844,5,12,0:0:0:0:
456,63,280177,6,0,B|382:48|400:102|330:88,1,132.000005035401,12|0,0:1|0:0,0:0:0:0:
312,78,280510,1,10,0:0:0:0:
365,198,280677,1,8,0:0:0:0:
203,60,280844,1,10,0:0:0:0:
250,270,281010,1,8,0:0:0:0:
108,16,281177,1,10,0:0:0:0:
93,325,281344,1,10,0:0:0:0:
306,67,281510,2,0,L|298:141,1,66.0000025177003,8|2,0:0|0:0,0:0:0:0:
210,372,281844,6,0,P|176:329|281:300,1,171.599992144776,12|0,0:0|0:0,0:0:0:0:
319,344,282177,5,2,0:0:0:0:
348,311,282260,1,2,0:0:0:0:
389,296,282343,1,8,0:0:0:0:
432,300,282426,1,8,0:0:0:0:
469,323,282510,5,8,0:3:0:0:
463,301,282593,1,8,0:3:0:0:
458,280,282676,1,4,0:3:0:0:
453,258,282759,1,4,0:3:0:0:
448,237,282844,6,0,L|472:54,1,176,6|8,0:0|0:0,0:0:0:0:
249,269,283344,2,0,L|236:180,1,88,6|0,0:0|0:0,0:0:0:0:
219,73,283677,1,8,1:3:0:0:
264,358,283844,1,8,1:3:0:0:
398,240,284010,6,0,B|353:233|353:233|320:256|320:256|227:272,1,158.399995166016,12|0,0:1|0:0,0:0:0:0:
179,331,284344,5,8,0:0:0:0:
63,294,284510,5,10,0:0:0:0:
14,170,284677,5,8,0:0:0:0:
67,34,284844,5,8,3:1:0:0:
112,10,284927,1,0,3:0:0:0:
164,15,285010,1,0,3:0:0:0:
203,50,285093,1,0,3:0:0:0:
216,100,285177,1,8,0:0:0:0:
229,150,285260,1,8,0:0:0:0:
268,185,285343,1,8,0:0:0:0:
320,190,285426,1,8,0:0:0:0:
366,166,285510,6,0,L|379:17,1,145.200004431152,12|0,0:1|0:0,0:0:0:0:
378,21,285844,1,8,0:0:0:0:
512,230,286010,2,0,B|401:205|439:294|333:281,1,193.600005908203,2|8,0:1|0:1,0:0:0:0:
131,203,286510,2,0,P|85:210|27:234,1,96.8000029541017,8|0,0:0|0:0,0:0:0:0:
221,348,286844,6,0,P|224:299|230:251,1,96.8000029541017,10|0,0:1|0:0,0:0:0:0:
263,144,287177,1,8,0:0:0:0:
136,62,287344,2,0,P|94:42|43:31,1,96.8000029541017,10|0,0:1|0:0,0:0:0:0:
241,155,287677,1,10,0:1:0:0:
60,184,287844,2,0,P|52:227|45:279,1,96.8000029541017,8|0,0:0|0:0,0:0:0:0:
268,269,288177,6,0,P|182:267|132:370,1,193.600005908203,10|8,0:1|0:0,0:0:0:0:
338,325,288677,1,2,0:0:0:0:
346,332,288760,1,2,0:0:0:0:
354,338,288844,2,0,B|377:296|377:296|368:247,1,96.8000029541017,8|8,0:1|0:1,0:0:0:0:
175,97,289177,2,0,B|152:139|152:139|160:187,1,96.8000029541017,8|8,0:0|0:1,0:0:0:0:
361,91,289510,5,8,0:0:0:0:
236,347,289677,1,8,0:1:0:0:
236,347,289760,1,8,0:0:0:0:
236,347,289844,2,0,L|221:287,1,48.4000014770508,8|8,0:0|0:0,0:0:0:0:
155,20,290010,5,10,0:1:0:0:
361,91,290344,1,10,0:1:0:0:
224,300,290677,6,0,P|139:281|97:279,1,96.8000029541017,12|0,0:1|0:1,0:0:0:0:
373,337,291010,5,10,0:1:0:0:
373,337,291094,1,8,0:1:0:0:
373,337,291177,1,8,0:0:0:0:
222,150,291343,1,10,0:1:0:0:
236,378,291510,5,8,0:0:0:0:
261,139,291677,1,10,0:1:0:0:
111,309,291844,5,8,0:0:0:0:
296,158,292010,1,10,0:1:0:0:
69,172,292177,5,8,0:0:0:0:
308,197,292344,1,2,0:0:0:0:
138,46,292510,5,8,0:0:0:0:
288,232,292677,1,10,0:1:0:0:
275,5,292844,5,8,0:0:0:0:
250,244,293010,1,10,0:1:0:0:
401,74,293177,5,8,0:0:0:0:
214,225,293344,1,10,0:1:0:0:
442,211,293510,5,12,0:0:0:0:
255,103,293677,1,8,0:1:0:0:
255,320,293844,1,8,0:1:0:0:
302,5,294010,5,10,0:0:0:0:
148,159,294176,1,8,0:1:0:0:
358,215,294343,1,8,0:1:0:0:
67,50,294510,5,12,0:0:0:0:
43,313,294676,1,8,0:1:0:0:
282,201,294843,1,8,0:1:0:0:
89,225,295010,5,10,0:0:0:0:
304,377,295176,1,8,0:1:0:0:
327,114,295343,1,8,0:1:0:0:
138,325,295510,6,0,L|42:312,1,96.8000029541017,10|0,0:0|0:0,0:0:0:0:
281,200,295843,2,0,L|377:188,1,96.8000029541017,8|8,0:3|0:1,0:0:0:0:
196,198,296176,5,12,0:0:0:0:
383,89,296343,1,8,0:3:0:0:
383,306,296510,1,8,0:1:0:0:
83,118,296676,5,10,0:0:0:0:
163,319,296844,1,4,0:3:0:0:
298,148,297010,1,8,0:1:0:0:
474,290,297176,5,12,0:0:0:0:
438,28,297344,1,8,0:3:0:0:
230,191,297510,1,8,0:1:0:0:
480,196,297676,5,10,0:0:0:0:
265,348,297844,1,4,0:3:0:0:
242,85,298010,1,8,0:1:0:0:
387,205,298176,5,12,0:0:0:0:
100,129,298343,1,8,0:0:0:0:
144,331,298510,5,12,0:0:0:0:
242,85,298677,1,8,0:1:0:0:
291,319,298844,5,8,0:0:0:0:
345,336,298927,1,8,0:3:0:0:
397,315,299010,1,4,0:3:0:0:
424,265,299093,1,4,0:3:0:0:
413,209,299177,1,8,0:1:0:0:
368,174,299260,1,8,0:1:0:0:
323,139,299343,5,8,0:0:0:0:
312,83,299427,1,8,0:3:0:0:
339,33,299510,1,4,0:3:0:0:
391,12,299593,1,4,0:3:0:0:
446,30,299677,1,8,0:1:0:0:
482,75,299760,1,8,0:1:0:0:
494,136,299844,5,8,0:0:0:0:
464,191,299927,1,0,0:3:0:0:
407,214,300010,1,4,0:3:0:0:
346,204,300094,1,4,0:3:0:0:
297,166,300177,6,0,L|231:158,1,66.0000025177003,10|8,0:1|0:1,0:0:0:0:
139,285,300343,2,0,L|204:277,1,66.0000025177003,10|8,0:0|0:3,0:0:0:0:
262,65,300510,6,0,L|196:72,1,66.0000025177003,4|4,0:3|0:3,0:0:0:0:
372,321,300677,2,0,L|437:313,1,66.0000025177003,10|8,0:1|0:1,0:0:0:0:
268,44,300844,5,14,0:0:0:0:
197,20,300927,5,2,0:0:0:0:
125,33,301010,5,14,0:0:0:0:
67,79,301093,5,2,0:0:0:0:
37,147,301177,5,14,0:0:0:0:
44,221,301260,5,2,0:0:0:0:
85,282,301344,6,0,B|102:311|141:331|185:317|207:277|207:277|232:229|296:141|432:200|426:316|386:361|327:352|284:322|272:258|309:213|355:191,1,594.000022659303,14|0,0:1|0:0,0:0:0:0:
256,192,302927,12,0,306822,0:0:0:0:
