osu file format v14

[General]
AudioFilename: audio.mp3
AudioLeadIn: 0
PreviewTime: 161178
Countdown: 0
SampleSet: Normal
StackLeniency: 0.7
Mode: 0
LetterboxInBreaks: 0
WidescreenStoryboard: 0

[Editor]
DistanceSpacing: 1
BeatDivisor: 4
GridSize: 32
TimelineZoom: 1

[Metadata]
Title:Young Dumb & Broke
TitleUnicode:Young Dumb & Broke
Artist:Khalid
ArtistUnicode:Khalid
Creator:[ Shamwow ]
Version:Normal
Source:
Tags:
BeatmapID:1533706
BeatmapSetID:719534

[Difficulty]
HPDrainRate:4
CircleSize:3
OverallDifficulty:4
ApproachRate:5
SliderMultiplier:1.3
SliderTickRate:1

[Events]
//Background and Video events
0,0,"ydb bg.jpg",0,0
//Break Periods
2,63068,75891
2,119127,131949
2,143421,144869
//Storyboard Layer 0 (Background)
//Storyboard Layer 1 (Fail)
//Storyboard Layer 2 (Pass)
//Storyboard Layer 3 (Foreground)
//Storyboard Sound Samples

[TimingPoints]
11,437.956204379562,4,3,0,50,1,0
35047,-66.6666666666667,4,3,0,60,0,0
45996,-100,4,3,0,60,0,0
49062,-66.6666666666667,4,1,0,75,0,1
60010,-100,4,1,0,60,0,1
63076,-100,4,3,0,50,0,0
91105,-66.6666666666667,4,3,0,60,0,0
102054,-100,4,3,0,60,0,0
104244,-66.6666666666667,4,3,0,60,0,0
105120,-66.6666666666667,4,1,0,75,0,1
116069,-100,4,1,0,75,0,1
119135,-100,4,3,0,50,0,0
147164,-66.6666666666667,4,3,0,60,0,0
158113,-100,4,3,0,60,0,0
161178,-66.6666666666667,4,1,0,75,0,1
172127,-100,4,3,0,75,0,0
175193,-66.6666666666667,4,1,0,75,0,1
185704,-100,4,3,0,100,0,0

[Colours]
Combo1 : 62,94,130
Combo2 : 0,128,64
Combo3 : 63,186,207
Combo4 : 143,194,50
Combo5 : 0,128,128

[HitObjects]
260,86,7456,6,0,P|197:142|139:150,1,130,0|2,0:0|0:0,0:0:0:0:
23,157,8332,1,8,0:0:0:0:
44,285,8770,2,0,P|89:343|168:354,1,130
154,227,9646,1,2,0:0:0:0:
271,172,10083,2,0,P|226:114|149:101,1,130,0|8,0:0|0:0,0:0:0:0:
154,227,10959,5,0,0:0:0:0:
154,227,11397,2,0,P|190:279|251:300,1,130,2|8,0:0|0:0,0:0:0:0:
374,257,12273,1,0,0:0:0:0:
434,142,12711,1,0,0:0:0:0:
434,142,13149,2,0,P|361:147|289:122,1,130,2|0,0:0|0:0,0:0:0:0:
191,72,14025,5,8,0:0:0:0:
191,72,14463,2,0,P|186:154|222:206,1,130,0|2,0:0|0:0,0:0:0:0:
318,123,15339,1,8,0:0:0:0:
441,164,15777,2,0,P|446:82|410:30,1,130
318,123,16653,1,2,0:0:0:0:
318,123,17091,2,0,L|318:255,1,130,0|8,0:0|0:0,0:0:0:0:
187,252,17967,6,0,B|118:265|118:265|82:203,1,130,0|2,0:0|0:0,0:0:0:0:
42,91,18843,1,8,0:0:0:0:
42,91,19281,2,0,B|72:39|72:39|141:52,1,130
264,91,20156,2,0,P|307:142|389:141,1,130,2|0,0:0|0:0,0:0:0:0:
432,147,20813,1,2,0:0:0:0:
431,211,21032,6,0,B|431:284|431:284|369:315,1,130,8|0,0:0|0:0,0:0:0:0:
251,299,21908,1,2,0:0:0:0:
251,299,22346,2,0,B|169:301|169:301|141:240,2,130,8|0|0,0:0|0:0|0:0,0:0:0:0:
262,169,23660,2,0,B|344:167|344:167|372:228,1,130,2|0,0:0|0:0,0:0:0:0:
410,332,24536,5,8,0:0:0:0:
364,210,24974,2,0,B|344:167|344:167|262:169,1,130,0|2,0:0|0:0,0:0:0:0:
131,173,25850,2,0,B|49:175|49:175|28:131,2,130,8|0|0,0:0|0:0|0:0,0:0:0:0:
261,171,27164,2,0,P|265:250|318:294,1,130,2|0,0:0|0:0,0:0:0:0:
387,190,28040,5,8,0:0:0:0:
387,190,28478,2,0,P|383:111|330:67,1,130,0|2,0:0|0:0,0:0:0:0:
256,167,29354,1,8,0:0:0:0:
127,144,29792,2,0,P|131:223|184:267,1,130
256,167,30667,1,2,0:0:0:0:
256,167,31105,2,0,P|309:225|302:294,1,130,0|8,0:0|0:0,0:0:0:0:
290,335,31762,5,0,0:0:0:0:
225,338,31981,2,0,B|154:338|154:338|117:271,2,130,0|2|8,0:0|0:0|0:0,0:0:0:0:
288,226,33295,2,0,B|259:174|259:174|188:174,2,130,0|0|2,0:0|0:0|0:0,0:0:0:0:
418,226,34609,2,0,L|452:154,1,65,8|2,0:0|0:0,0:0:0:0:
358,122,35047,6,0,B|301:117|268:157|268:157|242:101|179:115,1,195.00000743866,8|0,0:0|0:0,0:0:0:0:
67,262,35923,1,2,0:0:0:0:
67,262,36142,2,0,B|116:250|142:306|142:306|175:266|232:271,2,195.00000743866
163,92,37456,1,8,0:0:0:0:
163,92,37675,2,0,B|231:78|231:78|280:103,1,97.50000371933,2|0,0:0|0:0,0:0:0:0:
319,165,38113,2,0,B|387:151|387:151|412:163,1,97.50000371933,8|2,0:0|0:0,0:0:0:0:
402,261,38551,6,0,B|327:338|327:338|289:287|229:313,1,195.00000743866,4|0,0:0|0:0,0:0:0:0:
82,207,39427,1,2,0:0:0:0:
82,207,39646,2,0,P|121:154|125:123,1,97.50000371933,0|8,0:0|0:0,0:0:0:0:
222,123,40083,2,0,P|232:170|265:206,1,97.50000371933
362,209,40521,2,0,P|319:293|226:300,1,195.00000743866,0|8,0:0|0:0,0:0:0:0:
140,253,41178,1,2,0:0:0:0:
137,57,41616,2,0,L|242:57,1,97.50000371933,8|2,0:0|0:0,0:0:0:0:
331,44,42054,6,0,B|342:120|275:152|275:152|274:232,1,195.00000743866,4|0,0:0|0:0,0:0:0:0:
83,218,42930,1,2,0:0:0:0:
83,218,43149,2,0,P|103:282|150:308,1,97.50000371933,0|8,0:0|0:0,0:0:0:0:
211,252,43587,2,0,P|191:188|144:162,1,97.50000371933
251,117,44025,2,0,P|271:181|318:207,1,97.50000371933
390,190,44463,1,8,0:0:0:0:
390,190,44682,2,0,L|390:298,2,97.50000371933,2|0|0,0:0|0:0|0:0,0:0:0:0:
404,97,45339,1,2,0:0:0:0:
306,96,45558,1,8,0:0:0:0:
309,225,45996,6,0,P|276:300|216:304,2,130,0|2|8,0:0|0:0|0:0,0:0:0:0:
215,134,47310,2,0,P|156:157|141:217,2,130,0|0|2,0:0|0:0|0:0,0:0:0:0:
312,134,48514,2,8,L|363:134,3,32.5
442,135,49062,6,0,B|470:212|404:259|441:347,2,195.00000743866,4|0|2,0:0|0:0|0:0,0:0:0:0:
247,140,50375,1,8,0:0:0:0:
247,140,50594,2,0,L|49:154,1,195.00000743866
53,251,51251,2,0,L|251:265,2,195.00000743866,0|2|0,0:0|0:0|0:0,0:0:0:0:
52,153,52346,5,10,0:0:0:0:
52,153,52565,2,0,L|247:140,2,195.00000743866,4|0|2,0:0|0:0|0:0,0:0:0:0:
247,140,53879,1,8,0:0:0:0:
246,140,54098,2,0,B|305:125|358:160|358:160|435:107,1,195.00000743866
479,195,54755,2,0,B|405:308|405:307|301:303,1,195.00000743866,0|2,0:0|0:0,0:0:0:0:
138,304,55631,6,0,P|98:253|109:194,1,97.50000371933,8|2,0:0|0:0,0:0:0:0:
195,218,56069,2,0,P|269:216|308:98,2,195.00000743866,4|0|2,0:0|0:0|0:0,0:0:0:0:
72,65,57383,1,8,0:0:0:0:
72,65,57602,2,0,L|71:268,1,195.00000743866
168,268,58259,2,0,B|258:210|258:210|371:218,2,195.00000743866,0|2|0,0:0|0:0|0:0,0:0:0:0:
128,178,59354,1,2,0:0:0:0:
92,87,59573,1,8,0:0:0:0:
92,87,60010,6,0,P|149:72|223:85,2,130,0|2|8,0:0|0:0|0:0,0:0:0:0:
91,217,61324,2,0,P|154:228|217:212,2,130,0|0|2,0:0|0:0|0:0,0:0:0:0:
102,177,77091,5,8,0:0:0:0:
102,177,77529,2,0,P|125:242|189:275,1,130,0|2,0:0|0:0,0:0:0:0:
226,153,78405,1,8,0:0:0:0:
354,135,78843,2,0,P|331:70|267:37,1,130
226,153,79719,2,0,L|299:268,1,130,2|0,0:0|0:0,0:0:0:0:
370,82,80813,5,0,0:0:0:0:
370,82,81032,2,0,L|443:197,1,130,0|2,0:0|0:0,0:0:0:0:
340,276,81908,1,8,0:0:0:0:
340,276,82346,2,0,P|268:295|202:250,1,130
283,158,83222,1,2,0:0:0:0:
101,86,83879,5,2,0:0:0:0:
101,86,84098,2,0,P|88:173|117:229,1,130,8|0,0:0|0:0,0:0:0:0:
219,152,84974,1,2,0:0:0:0:
348,154,85412,1,8,0:0:0:0:
467,205,85850,6,0,P|484:143|468:80,1,130
348,154,86726,1,2,0:0:0:0:
234,89,87164,2,0,P|217:151|233:214,1,130,0|8,0:0|0:0,0:0:0:0:
271,265,87821,5,0,0:0:0:0:
330,291,88040,2,0,P|398:314|459:306,1,130,0|2,0:0|0:0,0:0:0:0:
407,185,88916,1,8,0:0:0:0:
479,76,89354,2,0,P|411:53|350:61,1,130
407,185,90229,2,0,L|354:185,1,32.5,2|0,0:0|0:0,0:0:0:0:
309,185,90558,2,8,L|309:245,3,32.5
280,344,91105,6,0,B|175:334|175:334|130:234,1,195.00000743866,4|0,0:0|0:0,0:0:0:0:
255,95,91981,1,2,0:0:0:0:
255,95,92200,2,0,B|360:105|360:105|405:205,2,195.00000743866,8|0|0,0:0|0:0|0:0,0:0:0:0:
59,93,93514,1,8,0:0:0:0:
59,93,93733,2,0,P|75:160|101:187,1,97.50000371933,2|0,0:0|0:0,0:0:0:0:
190,180,94171,2,0,P|174:247|148:274,1,97.50000371933,8|2,0:0|0:0,0:0:0:0:
156,267,94609,6,0,L|367:268,1,195.00000743866,8|0,0:0|0:0,0:0:0:0:
354,72,95485,1,2,0:0:0:0:
354,72,95704,2,0,L|356:294,2,195.00000743866,8|0|0,0:0|0:0|0:0,0:0:0:0:
158,72,97018,1,8,0:0:0:0:
158,72,97237,6,0,P|123:132|83:157,1,97.50000371933,2|0,0:0|0:0,0:0:0:0:
99,246,97675,1,8,0:0:0:0:
178,302,97894,1,2,0:0:0:0:
178,302,98113,6,0,B|260:247|260:247|320:281|388:246,1,195.00000743866,8|0,0:0|0:0,0:0:0:0:
429,79,98989,1,2,0:0:0:0:
429,79,99208,2,0,B|378:60|336:91|336:91|241:79,2,195.00000743866,8|0|0,0:0|0:0|0:0,0:0:0:0:
394,270,100521,1,8,0:0:0:0:
394,270,100740,2,0,P|341:285|276:275,1,97.50000371933,2|0,0:0|0:0,0:0:0:0:
248,198,101178,2,0,P|201:183|153:185,1,97.50000371933,8|2,0:0|0:0,0:0:0:0:
56,201,101616,5,8,0:0:0:0:
56,201,102054,2,0,P|83:270|145:293,2,130,0|2|8,0:0|0:0|0:0,0:0:0:0:
157,119,103368,2,0,P|212:149|231:210,2,130,0|0|2,0:0|0:0|0:0,0:0:0:0:
137,208,104573,2,8,L|168:268,3,48.750001859665
255,265,105120,6,0,P|337:292|455:297,2,195.00000743866,4|0|2,0:0|0:0|0:0,0:0:0:0:
128,115,106434,1,8,0:0:0:0:
128,115,106653,2,0,P|127:245|88:302,1,195.00000743866
93,296,107310,2,0,L|305:296,2,195.00000743866,0|2|0,0:0|0:0|0:0,0:0:0:0:
92,198,108405,5,2,0:0:0:0:
92,198,108624,2,0,P|52:123|112:38,2,195.00000743866,8|0|2,0:0|0:0|0:0,0:0:0:0:
273,126,109938,1,8,0:0:0:0:
273,126,110156,2,0,P|313:201|253:286,1,195.00000743866
159,271,110813,2,0,P|119:186|174:112,1,195.00000743866,0|2,0:0|0:0,0:0:0:0:
369,112,111689,2,0,L|466:113,1,97.50000371933,8|2,0:0|0:0,0:0:0:0:
420,199,112127,6,0,B|405:306|405:306|311:349,2,195.00000743866,8|0|2,0:0|0:0|0:0,0:0:0:0:
241,119,113441,1,8,0:0:0:0:
241,119,113660,2,0,B|176:205|176:205|212:302,1,195.00000743866
332,309,114317,2,0,B|396:222|396:222|360:125,2,195.00000743866,0|2|0,0:0|0:0|0:0,0:0:0:0:
236,288,115412,1,2,0:0:0:0:
146,249,115631,1,8,0:0:0:0:
195,128,116069,6,0,L|322:70,2,130,0|2|8,0:0|0:0|0:0,0:0:0:0:
197,258,117383,2,0,L|315:312,2,130,0|0|2,0:0|0:0|0:0,0:0:0:0:
258,189,133149,5,8,0:0:0:0:
362,111,133587,2,0,P|392:180|368:250,1,130,0|2,0:0|0:0,0:0:0:0:
256,188,134463,1,8,0:0:0:0:
149,263,134901,2,0,P|119:194|143:124,1,130
256,188,135777,2,0,L|398:188,1,130,2|0,0:0|0:0,0:0:0:0:
387,318,136653,5,8,0:0:0:0:
256,318,137091,2,0,P|215:264|217:205,1,130,0|2,0:0|0:0,0:0:0:0:
344,227,137967,1,8,0:0:0:0:
432,131,138405,2,0,P|473:185|471:244,2,130,0|0|2,0:0|0:0|0:0,0:0:0:0:
344,227,139719,1,0,0:0:0:0:
344,227,139938,2,0,L|255:227,1,65,2|8,0:0|0:0,0:0:0:0:
149,224,140594,6,0,B|68:224|68:224|38:157,1,130,0|2,0:0|0:0,0:0:0:0:
62,49,141470,1,8,0:0:0:0:
192,49,141908,2,0,B|273:49|273:49|303:116,1,130
240,213,142784,2,0,B|159:213|159:213|129:146,1,130,2|0,0:0|0:0,0:0:0:0:
138,168,146069,5,8,0:0:0:0:
138,168,146288,2,0,L|193:168,4,32.5,2|2|2|2|2,0:0|0:0|0:0|0:0|0:0,0:0:0:0:
72,170,146945,1,8,0:0:0:0:
78,267,147164,6,0,B|116:272|156:321|156:321|181:269|236:253,1,195.00000743866,4|0,0:0|0:0,0:0:0:0:
379,135,148040,1,2,0:0:0:0:
379,135,148259,2,0,B|374:173|325:213|325:213|377:238|393:293,2,195.00000743866,8|0|0,0:0|0:0|0:0,0:0:0:0:
194,71,149573,1,8,0:0:0:0:
194,71,149792,2,0,L|136:159,1,97.50000371933,2|0,0:0|0:0,0:0:0:0:
228,194,150229,2,0,L|281:275,1,97.50000371933
281,275,150667,6,0,B|391:268|391:268|435:174,1,195.00000743866,8|0,0:0|0:0,0:0:0:0:
254,98,151543,1,2,0:0:0:0:
254,98,151762,2,0,P|191:122|163:158,1,97.50000371933,8|0,0:0|0:0,0:0:0:0:
225,224,152200,2,0,P|288:200|316:164,1,97.50000371933
357,263,152638,2,0,P|310:275|274:308,1,97.50000371933
176,307,153076,1,8,0:0:0:0:
78,308,153295,1,2,0:0:0:0:
71,113,153733,2,0,L|147:37,1,97.50000371933,8|2,0:0|0:0,0:0:0:0:
222,96,154171,6,0,P|274:157|378:138,1,195.00000743866,8|0,0:0|0:0,0:0:0:0:
380,333,155047,1,2,0:0:0:0:
380,333,155266,2,0,P|328:272|224:291,2,195.00000743866,8|0|0,0:0|0:0|0:0,0:0:0:0:
401,138,156580,1,8,0:0:0:0:
401,138,156799,6,0,P|329:149|294:183,1,97.50000371933,2|0,0:0|0:0,0:0:0:0:
337,256,157237,2,0,P|409:245|444:211,1,97.50000371933,8|2,0:0|0:0,0:0:0:0:
498,164,157675,1,8,0:0:0:0:
368,161,158113,6,0,L|231:161,2,130,0|2|8,0:0|0:0|0:0,0:0:0:0:
372,291,159427,2,0,L|242:291,2,130,0|0|2,0:0|0:0|0:0,0:0:0:0:
420,206,160631,2,0,L|383:162,3,32.5
269,190,161178,6,0,B|196:179|136:224|136:224|64:184,2,195.00000743866,4|0|0,0:0|0:0|0:0,0:0:0:0:
424,71,162492,1,8,0:0:0:0:
424,71,162711,2,0,B|371:151|463:190|412:289,1,195.00000743866
325,259,163368,2,0,B|247:310|208:218|139:257,2,195.00000743866,0|2|0,0:0|0:0|0:0,0:0:0:0:
326,161,164463,5,2,0:0:0:0:
326,161,164682,2,0,P|269:86|163:100,2,195.00000743866,8|0|2,0:0|0:0|0:0,0:0:0:0:
194,306,165996,1,8,0:0:0:0:
194,306,166215,2,0,P|99:304|35:233,1,195.00000743866
75,144,166872,2,0,P|169:145|233:216,1,195.00000743866,0|2,0:0|0:0,0:0:0:0:
427,238,167748,2,0,L|432:124,1,97.50000371933,8|2,0:0|0:0,0:0:0:0:
334,127,168186,6,0,L|142:180,2,195.00000743866,8|0|2,0:0|0:0|0:0,0:0:0:0:
434,294,169500,1,8,0:0:0:0:
434,294,169719,2,0,P|333:314|271:244,1,195.00000743866
293,158,170375,2,0,P|394:138|456:208,2,195.00000743866,0|2|0,0:0|0:0|0:0,0:0:0:0:
195,155,171470,1,2,0:0:0:0:
97,153,171689,1,8,0:0:0:0:
97,153,172127,6,0,P|103:243|113:281,2,130,0|2|8,0:0|0:0|0:0,0:0:0:0:
226,140,173441,2,0,P|240:203|242:268,2,130,0|0|2,0:0|0:0|0:0,0:0:0:0:
301,78,174646,2,0,L|344:99,3,32.5,2|2|2|2,0:0|0:0|0:0|0:0,0:0:0:0:
420,129,175193,6,0,B|448:206|382:253|419:341,2,195.00000743866,4|0|2,0:0|0:0|0:0,0:0:0:0:
247,140,176506,1,4,0:0:0:0:
247,140,176726,2,0,L|49:154,1,195.00000743866
53,251,177383,2,0,L|251:265,2,195.00000743866,0|2|0,0:0|0:0|0:0,0:0:0:0:
52,153,178477,5,2,0:0:0:0:
52,153,178697,2,0,L|247:140,2,195.00000743866,8|0|2,0:0|0:0|0:0,0:0:0:0:
247,140,180010,1,8,0:0:0:0:
246,140,180229,2,0,B|305:125|358:160|358:160|435:107,1,195.00000743866
479,195,180886,2,0,B|405:308|405:307|301:303,1,195.00000743866,0|2,0:0|0:0,0:0:0:0:
138,304,181762,2,0,P|98:253|109:194,1,97.50000371933,8|2,0:0|0:0,0:0:0:0:
195,218,182200,6,0,P|269:216|308:98,2,195.00000743866,8|0|2,0:0|0:0|0:0,0:0:0:0:
72,65,183514,1,8,0:0:0:0:
72,65,183733,2,0,L|71:268,1,195.00000743866
168,268,184390,2,0,B|246:212|246:212|371:218,2,195.00000743866,0|2|0,0:0|0:0|0:0,0:0:0:0:
107,190,185485,1,2,0:0:0:0:
53,120,185704,1,8,0:0:0:0:
168,59,186142,6,0,P|231:42|309:70,2,130
165,189,187456,6,0,P|227:205|289:188,2,130
