osu file format v14

[General]
AudioFilename: audio.mp3
AudioLeadIn: 0
PreviewTime: 161178
Countdown: 0
SampleSet: None
StackLeniency: 0.7
Mode: 0
LetterboxInBreaks: 0
WidescreenStoryboard: 0

[Editor]
DistanceSpacing: 1
BeatDivisor: 4
GridSize: 32
TimelineZoom: 1

[Metadata]
Title:Young Dumb & Broke
TitleUnicode:Young Dumb & Broke
Artist:Khalid
ArtistUnicode:Khalid
Creator:[ Shamwow ]
Version:Hard
Source:
Tags:
BeatmapID:1547974
BeatmapSetID:719534

[Difficulty]
HPDrainRate:5
CircleSize:4
OverallDifficulty:6
ApproachRate:6
SliderMultiplier:1.4
SliderTickRate:1

[Events]
//Background and Video events
0,0,"ydb bg.jpg",0,0
//Break Periods
2,63276,76041
2,143640,145019
//Storyboard Layer 0 (Background)
//Storyboard Layer 1 (Fail)
//Storyboard Layer 2 (Pass)
//Storyboard Layer 3 (Foreground)
//Storyboard Sound Samples

[TimingPoints]
11,437.956204379562,4,3,0,50,1,0
35047,-66.6666666666667,4,3,0,60,0,0
45996,-100,4,3,0,60,0,0
49062,-66.6666666666667,4,1,0,75,0,1
60010,-100,4,1,0,75,0,1
63076,-100,4,3,0,50,0,0
91105,-66.6666666666667,4,3,0,60,0,0
102054,-100,4,3,0,60,0,0
105120,-66.6666666666667,4,1,0,75,0,1
116069,-100,4,1,0,75,0,1
119135,-100,4,2,0,50,0,0
133149,-100,4,3,0,50,0,0
143441,-100,4,3,0,15,0,0
146069,-100,4,3,0,50,0,0
147164,-66.6666666666667,4,3,0,60,0,0
158113,-100,4,3,0,60,0,0
161178,-66.6666666666667,4,1,0,60,0,1
172127,-100,4,3,0,75,0,0
175193,-66.6666666666667,4,1,0,75,0,1
185704,-100,4,3,0,100,0,0

[Colours]
Combo1 : 62,94,130
Combo2 : 0,128,64
Combo3 : 63,186,207
Combo4 : 143,194,50
Combo5 : 0,128,128

[HitObjects]
115,298,7456,6,0,P|96:264|96:211,1,70
154,191,7894,2,0,P|164:153|202:116,1,70,2|0,0:0|0:0,0:0:0:0:
256,146,8332,2,0,P|290:127|343:127,1,70,8|0,0:0|0:0,0:0:0:0:
343,196,8770,6,0,P|308:215|255:215,1,70
256,146,9208,2,0,P|218:135|181:97,1,70,0|8,0:0|0:0,0:0:0:0:
227,47,9646,2,0,P|264:57|301:95,1,70,2|0,0:0|0:0,0:0:0:0:
343,125,10083,1,0,0:0:0:0:
378,276,10521,5,8,0:0:0:0:
378,276,10959,2,0,P|344:289|289:280,1,70
270,224,11397,2,0,P|236:209|204:163,1,70,2|0,0:0|0:0,0:0:0:0:
265,127,11835,2,0,P|252:92|261:38,1,70,8|0,0:0|0:0,0:0:0:0:
330,55,12273,6,0,P|343:89|334:144,1,70
265,127,12711,2,0,P|250:160|204:192,1,70,0|8,0:0|0:0,0:0:0:0:
162,219,13149,1,2,0:0:0:0:
162,219,14025,5,8,0:0:0:0:
291,306,14463,2,0,L|364:289,1,70
342,213,14901,2,0,L|252:190,1,70,2|0,0:0|0:0,0:0:0:0:
283,120,15339,2,0,L|356:103,1,70,8|0,0:0|0:0,0:0:0:0:
208,136,15777,6,0,L|135:153,1,70
157,229,16215,2,0,L|246:249,1,70,0|8,0:0|0:0,0:0:0:0:
216,322,16653,2,0,L|143:339,1,70,2|0,0:0|0:0,0:0:0:0:
289,305,17091,2,0,L|382:282,1,70
428,272,17529,1,8,0:0:0:0:
358,132,17967,6,0,P|333:97|336:47,1,70
251,83,18405,2,0,P|243:114|217:145,1,70,2|0,0:0|0:0,0:0:0:0:
230,216,18843,2,0,P|250:240|258:288,1,70,8|0,0:0|0:0,0:0:0:0:
336,263,19281,6,0,P|343:231|374:195,1,70
436,238,19719,2,0,P|428:269|398:303,1,70,0|8,0:0|0:0,0:0:0:0:
336,263,20156,1,2,0:0:0:0:
336,263,20813,5,2,0:0:0:0:
336,263,21032,6,0,L|251:263,1,70,8|0,0:0|0:0,0:0:0:0:
192,265,21470,2,0,P|188:224|171:193,1,70
252,180,21908,2,0,P|256:139|277:108,1,70,2|0,0:0|0:0,0:0:0:0:
330,164,22346,2,0,P|326:205|304:242,1,70,8|0,0:0|0:0,0:0:0:0:
252,180,22784,6,0,L|249:87,1,70
327,105,23222,2,0,L|330:12,1,70,0|8,0:0|0:0,0:0:0:0:
407,41,23660,2,0,L|404:134,1,70,2|0,0:0|0:0,0:0:0:0:
401,184,24098,2,0,L|398:277,1,70
344,305,24536,5,8,0:0:0:0:
192,268,24974,2,0,P|140:242|104:237,1,70
138,162,25412,2,0,P|168:151|211:125,1,70,2|0,0:0|0:0,0:0:0:0:
274,136,25850,2,0,P|301:153|352:160,1,70,8|0,0:0|0:0,0:0:0:0:
327,241,26288,6,0,P|296:251|256:288,1,70
330,317,26726,2,0,P|315:346|314:394,1,70,0|8,0:0|0:0,0:0:0:0:
392,370,27164,2,0,P|406:335|405:282,1,70,2|0,0:0|0:0,0:0:0:0:
398,228,27602,5,0,0:0:0:0:
379,152,27821,1,0,0:0:0:0:
346,81,28040,1,8,0:0:0:0:
190,88,28478,6,0,P|155:86|104:104,1,70
135,170,28916,2,0,P|170:172|221:154,1,70,2|0,0:0|0:0,0:0:0:0:
276,154,29354,2,0,P|311:152|362:170,1,70,8|0,0:0|0:0,0:0:0:0:
417,170,29792,6,0,L|425:259,1,70
349,262,30229,2,0,L|291:330,1,70,0|8,0:0|0:0,0:0:0:0:
256,252,30667,2,0,L|166:259,1,70,2|0,0:0|0:0,0:0:0:0:
112,261,31105,1,0,0:0:0:0:
120,105,31543,5,8,0:0:0:0:
198,105,31762,1,0,0:0:0:0:
198,105,31981,2,0,P|231:111|270:129,1,70
240,198,32419,2,0,P|207:192|168:174,1,70,2|0,0:0|0:0,0:0:0:0:
101,165,32857,2,0,P|98:212|107:248,1,70,8|0,0:0|0:0,0:0:0:0:
164,275,33295,6,0,P|195:310|226:329,1,70
281,288,33733,2,0,P|327:291|364:282,1,70,0|8,0:0|0:0,0:0:0:0:
371,214,34171,2,0,P|406:182|425:151,1,70,2|0,0:0|0:0,0:0:0:0:
451,98,34609,5,8,0:0:0:0:
406,33,34828,1,2,0:0:0:0:
406,33,35047,6,0,P|360:51|290:54,1,105.000004005432,4|0,0:0|0:0,0:0:0:0:
214,64,35485,2,0,P|165:69|113:94,1,105.000004005432
57,162,35923,1,2,0:0:0:0:
114,240,36142,6,0,P|159:257|218:262,1,105.000004005432,0|8,0:0|0:0,0:0:0:0:
305,261,36580,2,0,P|353:266|411:292,1,105.000004005432
477,345,37018,2,0,L|477:215,1,105.000004005432
474,149,37456,1,8,0:0:0:0:
384,152,37675,2,0,P|331:148|283:164,1,105.000004005432,2|0,0:0|0:0,0:0:0:0:
289,260,38113,2,0,P|342:264|391:246,1,105.000004005432,0|2,0:0|0:0,0:0:0:0:
384,152,38551,6,0,L|323:62,1,105.000004005432,8|0,0:0|0:0,0:0:0:0:
232,121,38989,2,0,L|293:211,1,105.000004005432
354,291,39427,5,2,0:0:0:0:
354,291,39646,2,0,P|306:309|239:301,1,105.000004005432,0|8,0:0|0:0,0:0:0:0:
161,277,40083,2,0,P|114:255|72:202,1,105.000004005432
34,137,40521,2,0,P|16:88|24:22,1,105.000004005432
107,81,40959,1,8,0:0:0:0:
107,81,41178,2,0,L|215:147,1,105.000004005432,2|0,0:0|0:0,0:0:0:0:
275,180,41616,5,0,0:0:0:0:
350,241,41835,1,2,0:0:0:0:
350,241,41945,1,0,0:0:0:0:
350,241,42054,6,0,P|317:282|253:294,1,105.000004005432,8|0,0:0|0:0,0:0:0:0:
212,218,42492,2,0,P|245:177|309:165,1,105.000004005432
394,155,42930,1,2,0:0:0:0:
491,161,43149,6,0,L|469:274,1,105.000004005432,0|8,0:0|0:0,0:0:0:0:
382,296,43587,2,0,L|286:360,1,105.000004005432
230,283,44025,2,0,L|117:260,1,105.000004005432
42,233,44463,1,8,0:0:0:0:
48,135,44682,2,0,P|70:78|105:50,1,105.000004005432,2|0,0:0|0:0,0:0:0:0:
180,104,45120,2,0,P|158:161|123:189,1,105.000004005432,0|2,0:0|0:0,0:0:0:0:
48,135,45558,5,8,0:0:0:0:
180,104,45996,6,0,L|249:110,1,70
241,187,46434,2,0,L|172:193,1,70,2|0,0:0|0:0,0:0:0:0:
177,270,46872,2,0,L|252:276,1,70,8|0,0:0|0:0,0:0:0:0:
320,275,47310,6,0,L|397:267,1,70
380,190,47748,2,0,L|311:181,1,70,0|8,0:0|0:0,0:0:0:0:
321,105,48186,2,0,L|395:98,1,70,2|0,0:0|0:0,0:0:0:0:
424,97,48514,1,2,0:0:0:0:
463,94,48624,1,2,0:0:0:0:
478,170,48843,1,2,0:0:0:0:
415,268,49062,6,0,P|387:303|353:266,1,105.000004005432,4|0,0:0|0:0,0:0:0:0:
289,198,49500,2,0,P|261:163|227:200,1,105.000004005432
160,261,49938,2,0,P|132:296|98:259,1,105.000004005432,2|0,0:0|0:0,0:0:0:0:
75,174,50375,1,8,0:0:0:0:
75,174,50594,6,0,P|86:77|183:43,1,210.000008010865
164,139,51251,2,0,L|263:193,1,105.000004005432,0|8,0:0|0:0,0:0:0:0:
347,188,51689,2,0,L|446:134,1,105.000004005432,2|0,0:0|0:0,0:0:0:0:
483,225,52127,2,0,B|425:264|425:264|387:263,1,105.000004005432,0|2,0:0|0:0,0:0:0:0:
300,285,52565,6,0,P|271:246|250:296,1,105.000004005432,8|0,0:0|0:0,0:0:0:0:
151,235,53003,2,0,P|122:274|101:224,1,105.000004005432
87,151,53441,2,0,P|48:122|98:101,1,105.000004005432,2|0,0:0|0:0,0:0:0:0:
164,58,53879,1,8,0:0:0:0:
256,87,54098,6,0,B|293:127|355:113|355:113|390:149|450:131,1,210.000008010865
443,234,54755,2,0,P|412:287|416:331,1,105.000004005432,0|8,0:0|0:0,0:0:0:0:
315,322,55193,2,0,P|312:273|282:228,1,105.000004005432,2|0,0:0|0:0,0:0:0:0:
208,295,55631,1,0,0:0:0:0:
132,233,55850,1,2,0:0:0:0:
189,154,56069,6,0,P|227:124|255:165,1,105.000004005432,8|0,0:0|0:0,0:0:0:0:
311,232,56507,2,0,P|349:262|373:223,1,105.000004005432
417,143,56945,2,0,P|455:113|481:153,1,105.000004005432,2|0,0:0|0:0,0:0:0:0:
447,236,57383,1,8,0:0:0:0:
376,303,57602,6,0,B|328:329|277:302|277:302|231:326|175:290,1,210.000008010865
145,209,58259,2,0,P|138:161|165:110,1,105.000004005432,0|8,0:0|0:0,0:0:0:0:
253,123,58697,2,0,P|281:84|337:63,1,105.000004005432,2|0,0:0|0:0,0:0:0:0:
380,147,59135,2,0,P|428:140|477:165,1,105.000004005432,0|2,0:0|0:0,0:0:0:0:
417,239,59573,5,8,0:0:0:0:
417,239,60010,6,0,L|340:239,1,70
353,160,60448,2,0,L|430:160,1,70,2|0,0:0|0:0,0:0:0:0:
417,81,60886,2,0,L|340:81,1,70,8|0,0:0|0:0,0:0:0:0:
273,79,61324,6,0,L|196:79,1,70
208,157,61762,2,0,L|285:157,1,70,0|8,0:0|0:0,0:0:0:0:
274,235,62200,2,0,L|197:235,1,70,2|0,0:0|0:0,0:0:0:0:
169,235,62529,1,2,0:0:0:0:
130,235,62638,1,2,0:0:0:0:
51,235,62857,1,2,0:0:0:0:
51,235,63076,5,4,0:0:0:0:
255,191,77091,5,8,0:0:0:0:
255,191,77529,6,0,P|251:235|265:275,1,70
334,252,77967,2,0,P|338:208|324:168,1,70,2|0,0:0|0:0,0:0:0:0:
255,254,78405,2,0,P|251:298|265:338,1,70,8|0,0:0|0:0,0:0:0:0:
334,315,78843,6,0,P|338:282|331:243,1,70
309,176,79281,2,0,P|289:149|254:126,1,70,0|8,0:0|0:0,0:0:0:0:
191,99,79719,2,0,P|158:94|117:103,1,70,2|0,3:0|3:0,3:0:0:0:
52,123,80156,2,0,P|25:142|4:173,1,70,0|0,3:0|3:0,3:0:0:0:
77,202,80594,5,8,0:0:0:0:
155,201,80813,1,0,0:0:0:0:
155,201,81032,2,0,P|149:168|158:129,1,70,0|0,3:0|3:0,3:0:0:0:
233,140,81470,2,0,P|238:172|229:209,1,70,2|0,3:0|3:0,3:0:0:0:
154,137,81908,2,0,P|148:104|160:66,1,70,8|0,3:0|3:0,3:0:0:0:
231,65,82346,6,0,P|250:37|284:16,1,70,0|0,3:0|3:0,3:0:0:0:
328,77,82784,2,0,P|361:70|396:78,1,70,0|8,3:0|3:0,3:0:0:0:
391,154,83222,2,0,P|419:172|437:206,1,70,2|0,3:0|3:0,3:0:0:0:
376,248,83660,1,0,0:0:0:0:
311,292,83879,1,2,0:0:0:0:
244,250,84098,1,8,0:0:0:0:
135,137,84536,6,0,P|115:95|77:65,1,70
33,118,84974,2,0,P|53:160|91:190,1,70,2|0,0:0|0:0,0:0:0:0:
133,211,85412,2,0,P|176:226|224:220,1,70,8|0,3:0|3:0,3:0:0:0:
273,224,85850,6,0,P|316:208|364:214,1,70,0|0,3:0|3:0,3:0:0:0:
353,284,86288,2,0,P|309:299|261:293,1,70,0|8,3:0|3:0,3:0:0:0:
334,207,86726,2,0,P|377:191|425:197,1,70,2|0,3:0|3:0,3:0:0:0:
414,267,87164,2,0,P|370:282|322:276,1,70,0|0,3:0|3:0,3:0:0:0:
334,207,87602,5,8,0:0:0:0:
305,134,87821,1,0,0:0:0:0:
305,134,88040,2,0,P|271:79|257:65,1,70
201,115,88478,2,0,P|235:170|249:184,1,70,2|0,0:0|0:0,0:0:0:0:
270,79,88916,2,0,P|236:24|222:10,1,70,8|0,0:0|0:0,0:0:0:0:
162,50,89354,6,0,P|99:35|79:35,1,70
87,112,89792,2,0,P|31:146|18:160,1,70,0|8,0:0|0:0,0:0:0:0:
76,210,90229,6,0,P|65:253|67:270,1,35,2|2,3:0|3:0,3:0:0:0:
139,267,90558,2,0,P|161:305|175:315,1,35,2|2,3:0|3:0,3:0:0:0:
228,316,90886,1,2,0:0:0:0:
325,317,91105,6,0,P|323:256|331:189,1,105.000004005432,4|0,0:0|0:0,0:0:0:0:
421,200,91543,2,0,P|423:139|415:72,1,105.000004005432
322,101,91981,1,2,0:0:0:0:
224,102,92200,6,0,P|222:163|230:230,1,105.000004005432,0|8,0:0|0:0,0:0:0:0:
322,198,92638,2,0,P|324:137|316:70,1,105.000004005432
224,199,93076,2,0,P|222:260|230:327,1,105.000004005432
322,304,93514,1,8,0:0:0:0:
322,304,93733,2,0,P|324:243|316:176,1,105.000004005432,2|0,0:0|0:0,0:0:0:0:
224,199,94171,2,0,P|182:154|129:112,1,105.000004005432,0|2,0:0|0:0,0:0:0:0:
86,60,94609,6,0,P|65:110|72:165,1,105.000004005432,8|0,0:0|0:0,0:0:0:0:
164,164,95047,2,0,P|185:114|178:59,1,105.000004005432
279,84,95485,1,2,0:0:0:0:
279,84,95704,6,0,P|258:134|265:189,1,105.000004005432,0|8,0:0|0:0,0:0:0:0:
358,183,96142,2,0,P|378:233|422:267,1,105.000004005432
489,203,96580,2,0,P|468:152|424:118,1,105.000004005432
358,183,97018,1,8,0:0:0:0:
358,183,97237,2,0,P|309:203|246:199,1,105.000004005432,2|0,0:0|0:0,0:0:0:0:
168,184,97675,1,0,0:0:0:0:
74,156,97894,5,2,0:0:0:0:
74,156,98003,1,0,0:0:0:0:
74,156,98113,6,0,B|62:215|62:215|87:266,1,105.000004005432,8|0,0:0|0:0,0:0:0:0:
176,244,98551,2,0,B|187:184|187:184|162:133,1,105.000004005432
115,71,98989,1,2,0:0:0:0:
115,71,99208,6,0,B|174:59|174:59|225:84,1,105.000004005432,0|8,0:0|0:0,0:0:0:0:
295,117,99646,2,0,B|345:151|345:151|363:204,1,105.000004005432
283,248,100083,2,0,B|232:213|232:213|214:160,1,105.000004005432
294,114,100521,1,8,0:0:0:0:
294,114,100740,2,0,P|348:106|414:124,1,105.000004005432,2|0,0:0|0:0,0:0:0:0:
389,211,101178,2,0,P|335:219|269:201,1,105.000004005432,0|2,0:0|0:0,0:0:0:0:
202,173,101616,5,8,0:0:0:0:
202,173,102054,2,0,L|215:252,1,70
290,237,102492,2,0,L|303:316,1,70,2|0,0:0|0:0,0:0:0:0:
378,293,102930,2,0,L|391:372,1,70,8|0,0:0|0:0,0:0:0:0:
459,279,103368,6,0,L|446:211,1,70
370,216,103806,2,0,L|357:142,1,70,0|8,0:0|0:0,0:0:0:0:
281,157,104244,2,0,L|210:157,1,70,2|0,0:0|0:0,0:0:0:0:
176,155,104573,1,2,0:0:0:0:
137,154,104682,1,2,0:0:0:0:
58,154,104901,1,2,0:0:0:0:
67,270,105120,6,0,P|95:301|125:261,1,105.000004005432,4|0,0:0|0:0,0:0:0:0:
224,268,105558,2,0,P|252:237|282:277,1,105.000004005432
381,268,105996,2,0,P|409:299|439:259,1,105.000004005432,2|0,0:0|0:0,0:0:0:0:
445,168,106434,1,8,0:0:0:0:
445,168,106653,6,0,P|431:72|324:29,1,210.000008010865
351,128,107310,2,0,L|261:192,1,105.000004005432,0|8,0:0|0:0,0:0:0:0:
328,264,107748,2,0,L|418:200,1,105.000004005432,2|0,0:0|0:0,0:0:0:0:
351,128,108186,2,0,B|289:173|289:173|268:154,1,105.000004005432,0|2,0:0|0:0,0:0:0:0:
206,87,108624,6,0,P|172:56|141:98,1,105.000004005432,8|0,0:0|0:0,0:0:0:0:
122,184,109062,2,0,P|91:217|132:244,1,105.000004005432
221,251,109500,2,0,P|254:281|287:243,1,105.000004005432,2|0,0:0|0:0,0:0:0:0:
293,151,109938,1,8,0:0:0:0:
293,151,110156,6,0,B|351:154|397:133|397:133|434:149|505:147,1,210.000008010865
477,244,110813,2,0,L|364:300,1,105.000004005432,0|8,0:0|0:0,0:0:0:0:
306,287,111251,2,0,L|193:231,1,105.000004005432,2|0,0:0|0:0,0:0:0:0:
130,200,111689,1,0,0:0:0:0:
73,120,111908,1,2,0:0:0:0:
149,59,112127,6,0,P|197:49|199:96,1,105.000004005432,8|0,0:0|0:0,0:0:0:0:
251,173,112565,2,0,P|209:199|241:234,1,105.000004005432
312,281,113003,2,0,P|340:319|298:341,1,105.000004005432,2|0,0:0|0:0,0:0:0:0:
218,302,113441,1,8,0:0:0:0:
218,302,113660,6,0,P|133:258|171:155,1,210.000008010865
231,117,114317,2,0,P|286:88|350:92,1,105.000004005432,0|8,0:0|0:0,0:0:0:0:
340,181,114755,2,0,P|399:199|441:247,1,105.000004005432,2|0,0:3|0:3,0:3:0:0:
378,320,115193,2,0,P|319:302|277:254,1,105.000004005432,2|0,0:3|0:3,0:3:0:0:
340,181,115631,5,8,0:0:0:0:
199,265,116069,6,0,L|126:235,1,70
143,162,116507,2,0,L|216:132,1,70,2|0,0:0|0:0,0:0:0:0:
192,59,116945,2,0,L|119:29,1,70,8|0,0:0|0:0,0:0:0:0:
271,88,117383,6,0,L|344:118,1,70
320,191,117821,2,0,L|247:221,1,70,0|8,0:0|0:0,0:0:0:0:
267,293,118259,2,0,L|340:323,1,70,2|0,0:0|0:0,0:0:0:0:
363,332,118587,1,2,0:0:0:0:
398,347,118697,1,2,0:0:0:0:
476,347,118916,1,2,0:0:0:0:
476,347,119135,6,0,P|479:271|419:223,1,140
374,200,119792,1,0,0:0:0:0:
374,200,119901,1,0,0:0:0:0:
374,200,120010,2,0,P|322:144|246:152,1,140,8|0,0:0|0:0,0:0:0:0:
224,219,120667,5,0,0:0:0:0:
224,219,120777,1,0,0:0:0:0:
224,219,120886,2,0,P|276:275|352:267,1,140
315,193,121543,1,0,0:0:0:0:
315,193,121653,1,0,0:0:0:0:
315,193,121762,2,0,P|263:137|187:145,1,140,8|0,0:0|0:0,0:0:0:0:
119,129,122419,5,0,0:0:0:0:
120,212,122638,1,0,0:0:0:0:
315,193,123514,5,8,0:0:0:0:
120,212,123952,1,0,0:0:0:0:
120,212,125047,6,0,L|120:282,1,70,0|8,0:0|0:0,0:0:0:0:
151,177,126142,6,0,P|207:142|277:153,1,140
354,187,126799,1,0,0:0:0:0:
354,187,126908,1,0,0:0:0:0:
354,187,127018,2,0,P|418:201|460:259,1,140,8|0,0:0|0:0,0:0:0:0:
410,327,127675,5,0,0:0:0:0:
410,327,127784,1,0,0:0:0:0:
410,327,127894,2,0,P|345:312|303:254,1,140
395,217,128551,1,0,0:0:0:0:
395,217,128660,1,0,0:0:0:0:
395,217,128770,2,0,P|459:231|492:300,1,140,8|0,0:0|0:0,0:0:0:0:
414,299,129427,5,0,0:0:0:0:
329,298,129646,1,0,0:0:0:0:
395,217,130521,5,8,0:0:0:0:
329,298,130959,1,0,0:0:0:0:
397,216,131835,6,0,P|371:186|330:172,1,70
283,219,132273,2,0,P|243:216|204:235,1,70,8|0,0:0|0:0,0:0:0:0:
213,302,132711,2,0,P|183:328|168:369,1,70
93,344,133149,5,4,0:0:0:0:
97,188,133587,2,0,P|87:150|99:114,1,70
171,123,134025,2,0,P|181:161|169:197,1,70,2|0,0:0|0:0,0:0:0:0:
92,125,134463,2,0,P|82:87|94:51,1,70,8|0,0:0|0:0,0:0:0:0:
165,72,134901,6,0,P|184:38|218:21,1,70,0|0,3:0|3:0,3:0:0:0:
267,73,135339,2,0,P|305:62|341:74,1,70,0|8,3:0|3:0,3:0:0:0:
342,145,135777,2,0,P|375:164|392:198,1,70,2|0,3:0|3:0,3:0:0:0:
333,241,136215,2,0,P|299:221|282:187,1,70,0|0,3:0|3:0,3:0:0:0:
207,201,136653,5,8,0:0:0:0:
50,201,137091,2,0,P|42:161|58:113,1,70
124,136,137529,2,0,P|132:176|116:224,1,70,2|0,0:0|0:0,0:0:0:0:
46,137,137967,2,0,P|38:97|54:49,1,70,8|0,0:0|0:0,0:0:0:0:
120,68,138405,6,0,P|142:34|187:11,1,70
230,59,138843,2,0,P|270:51|318:67,1,70,0|8,0:0|0:0,0:0:0:0:
297,133,139281,2,0,P|257:141|209:124,1,70,2|0,0:0|0:0,0:0:0:0:
161,106,139719,1,0,0:0:0:0:
98,59,139938,1,2,0:0:0:0:
39,109,140156,1,8,0:0:0:0:
233,136,140594,6,0,P|273:144|321:127,1,70
296,61,141032,2,0,P|256:53|208:70,1,70,2|0,0:0|0:0,0:0:0:0:
296,139,141470,2,0,P|336:147|384:130,1,70,8|0,0:0|0:0,0:0:0:0:
436,129,141908,6,0,P|444:169|427:217,1,70
368,225,142346,2,0,P|345:258|299:280,1,70,0|8,0:0|0:0,0:0:0:0:
259,230,142784,2,0,P|219:237|171:220,1,70,2|0,0:0|0:0,0:0:0:0:
190,155,143222,2,0,P|230:147|278:164,1,70
325,272,146069,6,0,P|351:252|370:218,1,70,8|2,0:0|0:0,0:0:0:0:
390,183,146397,1,2,0:0:0:0:
391,110,146616,1,2,0:0:0:0:
391,110,146726,2,0,P|371:84|337:64,1,70,2|2,0:0|0:0,0:0:0:0:
245,65,147164,6,0,B|196:42|196:42|147:52,1,105.000004005432,4|0,0:0|0:0,0:0:0:0:
141,150,147602,2,0,B|190:173|190:173|240:159,1,105.000004005432
324,128,148040,1,2,0:0:0:0:
324,128,148259,6,0,L|324:234,1,105.000004005432,0|8,0:0|0:0,0:0:0:0:
421,227,148697,2,0,L|421:333,1,105.000004005432
315,333,149135,2,0,L|315:226,1,105.000004005432
325,127,149573,5,8,0:0:0:0:
325,127,149792,2,0,P|268:104|217:132,1,105.000004005432,2|0,0:0|0:0,0:0:0:0:
233,211,150229,2,0,P|176:235|160:290,1,105.000004005432
252,301,150667,6,0,B|303:314|303:314|367:305,1,105.000004005432,8|0,0:0|0:0,0:0:0:0:
348,209,151105,2,0,B|297:196|297:196|233:205,1,105.000004005432
156,219,151543,1,2,0:0:0:0:
156,219,151762,6,0,P|152:171|162:105,1,105.000004005432,0|8,0:0|0:0,0:0:0:0:
255,124,152200,2,0,P|251:76|261:10,1,105.000004005432
354,29,152638,2,0,P|358:77|348:143,1,105.000004005432
255,124,153076,1,8,0:0:0:0:
255,124,153295,2,0,P|251:172|261:238,1,105.000004005432,2|0,0:0|0:0,0:0:0:0:
354,219,153733,1,0,0:0:0:0:
451,219,153952,1,2,0:0:0:0:
451,219,154171,6,0,P|455:278|422:310,1,105.000004005432,8|0,0:0|0:0,0:0:0:0:
336,282,154609,2,0,P|332:223|365:191,1,105.000004005432
445,157,155047,1,2,0:0:0:0:
445,157,155266,6,0,P|402:106|364:78,1,105.000004005432,0|8,0:0|0:0,0:0:0:0:
288,125,155704,2,0,P|221:119|174:126,1,105.000004005432
191,220,156142,2,0,P|257:225|304:218,1,105.000004005432
383,200,156580,1,8,0:0:0:0:
383,200,156799,2,0,P|386:268|362:311,1,105.000004005432,2|0,0:0|0:0,0:0:0:0:
279,271,157237,2,0,P|233:321|185:334,1,105.000004005432,0|2,0:0|0:0,0:0:0:0:
108,333,157675,5,8,0:0:0:0:
104,177,158113,2,0,P|109:129|125:103,1,70
192,134,158551,2,0,P|187:182|171:208,1,70,2|0,0:0|0:0,0:0:0:0:
116,114,158989,2,0,P|121:66|137:40,1,70,8|0,0:0|0:0,0:0:0:0:
205,64,159427,6,0,P|242:33|272:26,1,70,0|0,3:0|3:0,3:0:0:0:
301,93,159865,2,0,P|349:98|375:114,1,70,0|8,3:0|3:0,3:0:0:0:
343,180,160302,2,0,P|373:217|380:247,1,70,2|0,3:0|3:0,3:0:0:0:
388,271,160631,1,2,0:0:0:0:
396,308,160740,1,2,0:0:0:0:
401,384,160959,1,2,0:0:0:0:
294,335,161178,6,0,P|247:313|268:277,1,105.000004005432,4|0,0:0|0:0,0:0:0:0:
262,171,161616,2,0,P|309:149|287:111,1,105.000004005432
188,74,162054,2,0,P|166:27|128:48,1,105.000004005432,2|0,0:0|0:0,0:0:0:0:
87,133,162492,1,8,0:0:0:0:
87,133,162711,6,0,P|101:229|213:262,1,210.000008010865
194,163,163368,2,0,L|286:99,1,105.000004005432,0|8,0:0|0:0,0:0:0:0:
259,238,163806,2,0,L|347:179,1,105.000004005432,2|0,0:0|0:0,0:0:0:0:
402,252,164244,2,0,B|344:305|344:305|310:316,1,105.000004005432,0|2,0:0|0:0,0:0:0:0:
197,306,164682,6,0,P|170:275|214:243,1,105.000004005432,8|0,0:3|0:3,0:3:0:0:
305,196,165120,2,0,P|332:165|289:133,1,105.000004005432,0|0,0:3|0:3,0:3:0:0:
192,96,165558,2,0,P|165:65|210:32,1,105.000004005432,2|0,0:3|0:3,0:3:0:0:
318,62,165996,1,8,0:0:0:0:
318,62,166215,6,0,B|351:91|420:93|420:93|451:134|505:148,1,210.000008010865
448,237,166872,2,0,L|380:322,1,105.000004005432,0|8,0:0|0:0,0:0:0:0:
367,179,167310,2,0,L|301:262,1,105.000004005432,2|0,0:0|0:0,0:0:0:0:
220,329,167748,1,0,0:0:0:0:
141,260,167967,1,2,0:0:0:0:
141,260,168186,6,0,P|102:230|127:188,1,105.000004005432,4|0,0:0|0:0,0:0:0:0:
217,154,168624,2,0,P|210:105|254:98,1,105.000004005432
344,119,169062,2,0,P|374:80|412:107,1,105.000004005432,2|0,0:0|0:0,0:0:0:0:
457,185,169500,1,8,0:0:0:0:
457,185,169719,6,0,P|430:271|324:273,1,210.000008010865
257,191,170375,2,0,P|241:143|197:111,1,105.000004005432,0|8,0:0|0:0,0:0:0:0:
133,194,170813,2,0,P|87:171|34:179,1,105.000004005432,2|0,0:0|0:0,0:0:0:0:
81,273,171251,2,0,P|58:318|66:371,1,105.000004005432,0|2,0:0|0:0,0:0:0:0:
156,326,171689,5,8,0:0:0:0:
285,311,172127,2,0,L|361:307,1,70
344,229,172565,2,0,L|268:233,1,70,2|0,0:0|0:0,0:0:0:0:
270,154,173003,2,0,L|346:150,1,70,8|0,0:0|0:0,0:0:0:0:
197,158,173441,6,0,L|123:162,1,70
134,239,173879,2,0,L|210:235,1,70,0|8,0:0|0:0,0:0:0:0:
202,313,174317,2,0,L|127:317,1,70,2|0,0:0|0:0,0:0:0:0:
97,318,174646,1,2,0:0:0:0:
58,320,174755,1,2,0:0:0:0:
51,242,174974,1,2,0:0:0:0:
79,148,175193,6,0,P|79:95|116:107,1,105.000004005432,4|0,0:0|0:0,0:0:0:0:
205,84,175631,2,0,P|242:46|260:81,1,105.000004005432
330,138,176069,2,0,P|383:137|371:175,1,105.000004005432,2|0,0:0|0:0,0:0:0:0:
325,248,176507,1,8,0:0:0:0:
325,248,176726,6,0,P|226:277|158:202,1,210.000008010865
254,177,177383,2,0,L|284:76,1,105.000004005432,0|8,0:0|0:0,0:0:0:0:
153,149,177821,2,0,L|185:48,1,105.000004005432,2|0,0:0|0:0,0:0:0:0:
85,31,178259,2,0,B|51:103|51:103|57:132,1,105.000004005432,0|2,0:0|0:0,0:0:0:0:
137,192,178697,6,0,P|186:201|172:241,1,105.000004005432,8|0,0:0|0:0,0:0:0:0:
263,284,179135,2,0,P|304:312|322:274,1,105.000004005432
392,212,179573,2,0,P|433:183|451:221,1,105.000004005432,2|0,0:0|0:0,0:0:0:0:
452,312,180010,1,8,0:0:0:0:
452,312,180229,6,0,B|409:322|352:298|352:298|307:318|246:308,1,210.000008010865
144,280,180886,2,0,L|41:229,1,105.000004005432,0|8,0:0|0:0,0:0:0:0:
209,199,181324,2,0,L|116:152,1,105.000004005432,2|0,0:0|0:0,0:0:0:0:
31,87,181762,5,0,0:0:0:0:
125,40,181981,1,2,0:0:0:0:
217,89,182200,6,0,P|255:117|282:75,1,105.000004005432,4|0,0:0|0:0,0:0:0:0:
383,84,182638,2,0,P|421:56|449:97,1,105.000004005432
432,184,183076,2,0,P|460:222|421:251,1,105.000004005432,2|0,0:0|0:0,0:0:0:0:
330,255,183514,1,8,0:0:0:0:
330,255,183733,6,0,P|236:299|159:237,1,210.000008010865
144,158,184390,2,0,P|148:91|184:59,1,105.000004005432,0|8,0:0|0:0,0:0:0:0:
258,102,184828,2,0,P|308:57|356:60,1,105.000004005432,2|0,0:0|0:0,0:0:0:0:
382,141,185266,2,0,P|449:145|481:181,1,105.000004005432,0|2,0:0|0:0,0:0:0:0:
411,214,185704,5,8,0:0:0:0:
277,294,186142,6,0,P|206:304|135:279,2,140
287,137,187456,6,0,P|224:120|151:136,2,140
