osu file format v14

[General]
AudioFilename: audio.mp3
AudioLeadIn: 0
PreviewTime: 39806
Countdown: 0
SampleSet: Normal
StackLeniency: 0.7
Mode: 2
LetterboxInBreaks: 0
WidescreenStoryboard: 1

[Editor]
DistanceSpacing: 0.5
BeatDivisor: 4
GridSize: 8
TimelineZoom: 1

[Metadata]
Title:EMMANUEL MACRON HURLE - HEAVY METAL
TitleUnicode:EMMANUEL MACRON HURLE - HEAVY METAL
Artist:Khaled Freak
ArtistUnicode:Khaled Freak
Creator:Star Sapphire
Version:#RevolutionEnMarche
Source:
Tags:Presidentielles 414 Shad0w414 Politic Politique France Meeting 2017
BeatmapID:1277093
BeatmapSetID:604379

[Difficulty]
HPDrainRate:7
CircleSize:2
OverallDifficulty:9
ApproachRate:9
SliderMultiplier:3.59999990463257
SliderTickRate:1

[Events]
//Background and Video events
Video,-3000,"EMMANUEL MACRON HURLE - HEAVY METAL (REMIX POLITIQUE).avi"
0,0,"Macron Hurle.jpg",0,0
//Break Periods
//Storyboard Layer 0 (Background)
//Storyboard Layer 1 (Fail)
//Storyboard Layer 2 (Pass)
//Storyboard Layer 3 (Foreground)
//Storyboard Sound Samples

[TimingPoints]
3716,451.127819548872,4,1,1,80,1,0
25370,-100,4,1,1,80,0,1
54242,-100,4,1,1,80,0,0
75896,-100,4,1,1,80,0,1
104768,-100,4,1,1,80,0,0

[HitObjects]
56,184,3715,5,0,0:0:0:0:
408,192,4392,1,0,0:0:0:0:
144,192,4618,1,8,0:0:0:0:
376,176,5520,5,0,0:0:0:0:
160,168,5746,2,0,L|-8:168,2,89.9999976158142
320,224,6422,2,0,B|408:208|416:216|416:216|424:192|424:160|432:120|432:104|432:96|432:96|368:120|360:120|288:104,2,359.999990463257,8|0|0,0:0|0:0|0:0,0:0:0:0:
136,224,7550,5,0,0:0:0:0:
56,176,7663,1,0,0:0:0:0:
152,224,7776,1,0,0:0:0:0:
432,208,8001,1,0,0:0:0:0:
96,176,8227,1,8,0:0:0:0:
48,176,9129,5,0,0:0:0:0:
256,208,9355,2,0,L|360:208,1,89.9999976158143
56,176,9806,1,0,0:0:0:0:
416,200,10031,6,0,L|320:200,1,89.9999976158143,8|0,0:0|0:0,0:0:0:0:
96,208,10257,1,0,0:0:0:0:
288,200,10370,2,0,L|400:200,1,89.9999976158143
80,200,10708,2,0,L|288:200,1,179.999995231629
80,200,11159,6,0,L|208:200,2,89.9999976158143
376,200,11610,1,0,0:0:0:0:
80,192,11836,1,8,0:0:0:0:
256,192,11949,12,0,12625,0:0:0:0:
88,192,12738,5,0,0:0:0:0:
328,200,12964,1,0,0:0:0:0:
416,192,13077,1,0,0:0:0:0:
248,192,13189,1,0,0:0:0:0:
72,192,13640,5,8,0:0:0:0:
240,192,13753,1,0,0:0:0:0:
416,200,13979,1,0,0:0:0:0:
232,192,14091,1,0,0:0:0:0:
64,192,14317,2,0,L|272:192,1,179.999995231629
64,192,14768,6,0,L|176:192,2,89.9999976158143
334,192,15219,2,0,L|110:192,1,179.999995231629,0|8,0:0|0:0,0:0:0:0:
440,192,15670,2,0,L|248:192,1,179.999995231629
72,208,16122,5,0,0:0:0:0:
256,200,16234,1,0,0:0:0:0:
432,200,16347,1,0,0:0:0:0:
216,192,16573,1,0,0:0:0:0:
64,200,16685,1,0,0:0:0:0:
216,192,16798,1,0,0:0:0:0:
432,184,16911,2,0,L|160:184,1,269.999992847443,0|8,0:0|0:0,0:0:0:0:
376,184,17362,6,0,L|480:184,2,89.9999976158143
144,184,17700,1,0,0:0:0:0:
376,184,17813,1,0,0:0:0:0:
200,192,17926,1,0,0:0:0:0:
376,184,18039,1,0,0:0:0:0:
224,168,18152,6,0,L|0:184,1,179.999995231629,12|0,0:0|0:0,0:0:0:0:
224,168,18490,1,0,0:0:0:0:
440,168,18603,2,0,L|240:168,1,179.999995231629
440,168,18941,1,0,0:0:0:0:
192,176,19054,2,0,L|416:176,1,179.999995231629,8|0,0:0|0:0,0:0:0:0:
216,176,19392,1,0,0:0:0:0:
48,176,19505,2,0,L|272:176,1,179.999995231629
416,184,19956,6,0,L|192:184,1,179.999995231629,8|0,0:0|0:0,0:0:0:0:
48,192,20407,2,0,L|296:192,1,179.999995231629
336,184,20746,1,0,0:0:0:0:
48,192,20858,2,0,L|256:192,1,179.999995231629,8|0,0:0|0:0,0:0:0:0:
320,184,21197,1,0,0:0:0:0:
48,192,21309,2,0,L|256:192,1,179.999995231629
440,200,21761,1,8,0:0:0:0:
168,200,21986,1,0,0:0:0:0:
320,224,22212,6,0,L|464:96,2,179.999995231629,0|0|8,0:0|0:0|0:0,0:0:0:0:
64,224,22888,1,0,0:0:0:0:
248,224,23114,1,0,0:0:0:0:
400,232,23340,5,0,0:0:0:0:
464,240,23452,1,8,0:0:0:0:
368,232,23565,1,8,0:0:0:0:
192,224,23678,1,8,0:0:0:0:
72,192,23791,1,8,0:0:0:0:
168,104,23903,1,8,0:0:0:0:
240,72,24016,1,8,0:0:0:0:
296,64,24129,1,0,0:0:0:0:
408,48,24242,1,0,0:0:0:0:
464,136,24355,1,0,0:0:0:0:
144,224,24467,5,8,0:0:0:0:
64,168,24580,1,8,0:0:0:0:
88,104,24693,1,8,0:0:0:0:
176,56,24806,1,8,0:0:0:0:
296,48,24919,1,8,0:0:0:0:
408,48,25031,1,8,0:0:0:0:
472,128,25144,1,8,0:0:0:0:
256,160,25257,1,8,0:0:0:0:
96,160,25370,5,4,0:0:0:0:
272,200,25595,2,0,L|456:200,2,179.999995231629
448,200,26272,2,0,L|256:200,1,179.999995231629,8|0,0:0|0:0,0:0:0:0:
144,216,26723,1,0,0:0:0:0:
48,208,26949,1,0,0:0:0:0:
456,200,27174,2,0,L|264:200,1,179.999995231629,8|0,0:0|0:0,0:0:0:0:
112,208,27625,5,0,0:0:0:0:
48,176,27851,1,0,0:0:0:0:
280,176,28076,2,0,L|464:176,1,179.999995231629,8|0,0:0|0:0,0:0:0:0:
352,176,28415,1,8,0:0:0:0:
280,160,28528,1,8,0:0:0:0:
192,152,28640,1,8,0:0:0:0:
112,144,28753,1,8,0:0:0:0:
48,112,28866,1,8,0:0:0:0:
280,160,28979,6,0,L|464:160,1,179.999995231629,12|0,0:0|0:0,0:0:0:0:
280,160,29430,1,0,0:0:0:0:
208,152,29655,1,0,0:0:0:0:
336,160,29881,2,8,L|432:160,2,89.9999976158143
184,160,30332,2,0,L|32:160,2,89.9999976158143
352,192,30783,2,0,B|456:192|456:192|312:192,2,179.999995231629,8|0|0,0:0|0:0|0:0,0:0:0:0:
144,192,31460,2,8,L|48:192,2,89.9999976158143
320,208,31798,2,8,L|432:208,2,89.9999976158143
96,192,32137,5,8,0:0:0:0:
280,192,32249,2,8,L|376:192,1,89.9999976158143
464,192,32475,2,8,L|360:192,1,89.9999976158143
240,192,32813,2,0,L|56:192,1,179.999995231629
360,192,33264,1,0,0:0:0:0:
104,192,33490,2,0,L|304:192,1,179.999995231629,8|0,0:0|0:0,0:0:0:0:
456,200,33941,1,0,0:0:0:0:
256,208,34167,2,0,L|48:208,2,179.999995231629,0|12|0,0:0|0:0|0:0,0:0:0:0:
424,208,34843,5,0,0:0:0:0:
192,192,35069,1,0,0:0:0:0:
288,200,35294,2,0,L|472:200,2,179.999995231629,8|0|8,0:0|0:0|0:0,0:0:0:0:
136,184,35858,2,8,L|32:184,1,89.9999976158143
288,184,36084,2,8,L|400:184,1,89.9999976158143,8|12,0:0|0:0,0:0:0:0:
144,184,36422,5,0,0:0:0:0:
376,192,36648,1,0,0:0:0:0:
216,184,36873,1,0,0:0:0:0:
88,176,37099,2,0,L|288:176,2,179.999995231629,8|0|0,0:0|0:0|0:0,0:0:0:0:
232,184,37776,2,0,L|396:184,1,134.999996423721
464,176,38001,2,0,L|248:176,1,179.999995231629,8|0,0:0|0:0,0:0:0:0:
128,176,38452,5,0,0:0:0:0:
256,232,38678,2,0,L|400:232,1,134.999996423721
464,216,38903,2,0,L|240:216,1,179.999995231629,8|8,0:0|0:0,0:0:0:0:
136,192,39242,2,8,L|32:192,1,89.9999976158143
184,192,39467,2,8,L|296:192,1,89.9999976158143
424,200,39693,1,8,0:0:0:0:
248,192,39806,6,0,L|56:192,1,179.999995231629,12|0,0:0|0:0,0:0:0:0:
256,192,40257,2,0,L|56:192,1,179.999995231629,8|0,0:0|0:0,0:0:0:0:
256,192,40708,2,0,L|64:192,1,179.999995231629,8|0,0:0|0:0,0:0:0:0:
272,216,41046,1,8,0:0:0:0:
320,216,41103,1,8,0:0:0:0:
368,216,41159,1,8,0:0:0:0:
232,184,41385,2,0,L|32:184,1,179.999995231629,0|8,0:0|0:0,0:0:0:0:
272,184,41836,2,0,L|472:184,1,179.999995231629,0|8,0:0|0:0,0:0:0:0:
224,152,42287,2,0,L|32:152,1,179.999995231629,0|8,0:0|0:0,0:0:0:0:
248,160,42738,1,0,0:0:0:0:
448,168,42964,1,8,0:0:0:0:
224,160,43076,2,8,L|56:160,1,89.9999976158143
320,152,43302,2,8,L|432:152,1,89.9999976158143
168,168,43640,6,0,B|80:136|80:136|192:136,1,179.999995231629,0|8,0:0|0:0,0:0:0:0:
