osu file format v14

[General]
AudioFilename: audio.mp3
AudioLeadIn: 0
PreviewTime: 38406
Countdown: 0
SampleSet: Soft
StackLeniency: 0.3
Mode: 0
LetterboxInBreaks: 0
WidescreenStoryboard: 0

[Editor]
Bookmarks: 6,163206,165606
DistanceSpacing: 1.6
BeatDivisor: 4
GridSize: 8
TimelineZoom: 2.599999

[Metadata]
Title:Mirador
TitleUnicode:Mirador
Artist:Kezah ft. Freddy
ArtistUnicode:Kezah ft. Freddy
Creator:[ Scarey ]
Version:Frezah
Source:
Tags:
BeatmapID:2067487
BeatmapSetID:988349

[Difficulty]
HPDrainRate:6
CircleSize:4.1
OverallDifficulty:6
ApproachRate:8.5
SliderMultiplier:1.6
SliderTickRate:1

[Events]
//Background and Video events
0,0,"maxresdefault.jpg",0,0
//Break Periods
2,105806,114531
//Storyboard Layer 0 (Background)
//Storyboard Layer 1 (Fail)
//Storyboard Layer 2 (Pass)
//Storyboard Layer 3 (Foreground)
//Storyboard Sound Samples

[TimingPoints]
6,600,4,2,2,90,1,0
6,-125,4,2,2,90,0,0
3606,-125,4,2,2,40,0,0
4806,-125,4,2,2,90,0,0
8106,-125,4,2,2,50,0,0
9606,-133.333333333333,4,2,2,70,0,0
19206,-111.111111111111,4,2,2,90,0,0
28806,-133.333333333333,4,2,2,80,0,0
37206,-133.333333333333,4,2,2,55,0,0
38181,-66.6666666666667,4,2,2,35,0,0
38406,-90.9090909090909,4,2,2,95,0,1
57606,-125,4,2,2,90,0,0
67206,-111.111111111111,4,2,2,90,0,0
76656,-66.6666666666667,4,2,2,90,0,0
76806,-133.333333333333,4,2,2,80,0,0
86181,-66.6666666666667,4,2,2,55,0,0
86406,-90.9090909090909,4,2,2,95,0,1
105606,-111.111111111111,4,2,2,90,0,0
115206,-117.647058823529,4,2,2,80,0,0
124581,-66.6666666666667,4,2,2,55,0,0
124806,-90.9090909090909,4,2,2,95,0,1
144006,-100,4,2,2,90,0,0
153306,-66.6666666666667,4,2,2,65,0,0
153606,-90.9090909090909,4,2,2,90,0,0
163206,-125,4,2,2,90,0,0

[Colours]
Combo1 : 226,222,222
Combo2 : 147,21,21
Combo3 : 73,72,71
Combo4 : 172,98,62

[HitObjects]
256,240,6,6,0,L|376:224,1,96,8|0,0:0|0:0,0:0:0:0:
424,216,606,1,0,0:0:0:0:
424,216,906,2,8,P|416:272|328:288,1,128,0|0,0:0|0:0,0:0:0:0:
376,152,1806,1,0,0:0:0:0:
328,88,2106,1,0,0:0:0:0:
376,152,2406,6,0,L|384:256,1,96,8|0,0:0|0:0,0:0:0:0:
392,328,3006,1,0,0:0:0:0:
320,296,3306,1,0,0:0:0:0:
240,312,3606,2,0,L|152:328,2,64
176,320,4806,6,0,L|168:216,1,96,8|0,0:0|0:0,0:0:0:0:
160,144,5406,1,0,0:0:0:0:
160,144,5706,2,0,P|224:160|248:224,1,128
88,184,6606,1,0,0:0:0:0:
16,224,6906,1,0,0:0:0:0:
88,184,7206,6,0,L|184:192,1,96,8|0,0:0|0:0,0:0:0:0:
264,200,7806,1,0,0:0:0:0:
272,208,8106,5,0,0:0:0:0:
336,56,9606,6,0,L|328:128,1,60.0000022888184,8|0,0:0|0:0,0:0:0:0:
329,115,10056,1,0,0:0:0:0:
248,176,10356,1,0,0:0:0:0:
248,176,10507,2,0,L|254:116,1,60.0000022888184
264,40,11106,1,0,0:0:0:0:
192,72,11406,1,0,0:0:0:0:
56,152,12006,6,0,L|128:160,1,60.0000022888184,8|0,0:0|0:0,0:0:0:0:
115,158,12456,1,0,0:0:0:0:
208,240,12756,1,0,0:0:0:0:
208,240,12906,2,0,L|148:233,1,60.0000022888184
72,224,13506,1,0,0:0:0:0:
104,296,13806,1,0,0:0:0:0:
288,320,14406,6,0,L|296:256,1,60.0000022888184,8|0,0:0|0:0,0:0:0:0:
295,260,14856,1,0,0:0:0:0:
384,168,15156,1,0,0:0:0:0:
312,184,15306,1,0,0:0:0:0:
240,168,15456,1,0,0:0:0:0:
200,104,15606,2,0,L|168:32,2,60.0000022888184
384,168,16806,6,0,L|312:176,1,60.0000022888184,8|0,0:0|0:0,0:0:0:0:
248,184,17256,1,0,0:0:0:0:
296,248,17406,1,0,0:0:0:0:
324,174,17556,1,0,0:0:0:0:
248,184,17706,1,0,0:0:0:0:
184,144,17856,1,0,0:0:0:0:
160,72,18006,2,0,P|128:80|96:64,2,60.0000022888184
320,40,19206,6,0,P|328:88|320:112,1,71.9999978027344,8|0,0:0|0:0,0:0:0:0:
248,128,19656,1,0,0:0:0:0:
304,184,19806,1,0,0:0:0:0:
272,256,19956,1,0,0:0:0:0:
192,248,20106,6,0,B|168:256|144:264|144:264|96:248|48:264,1,143.999995605469
0,328,20856,1,0,0:0:0:0:
80,360,21006,1,0,0:0:0:0:
160,328,21156,1,0,0:0:0:0:
192,248,21306,6,0,B|184:224|176:200|176:200|200:144|168:96,1,143.999995605469
128,40,22056,1,0,0:0:0:0:
96,120,22206,2,0,L|104:160,1,35.9999989013672
128,40,22506,2,0,L|120:0,1,35.9999989013672
96,120,22806,6,0,P|72:160|104:216,1,107.999996704102
168,256,23406,1,0,0:0:0:0:
248,224,23556,2,0,L|304:200,2,35.9999989013672
168,256,24006,6,0,L|184:176,1,71.9999978027344,8|0,0:0|0:0,0:0:0:0:
200,104,24456,1,0,0:0:0:0:
168,256,24756,1,0,0:0:0:0:
208,328,24906,1,0,0:0:0:0:
288,344,25056,1,0,0:0:0:0:
368,328,25206,2,0,L|464:304,2,71.9999978027344
376,120,26406,6,0,P|384:160|368:200,1,71.9999978027344,8|0,0:0|0:0,0:0:0:0:
296,224,26856,1,0,0:0:0:0:
216,256,27006,2,0,P|208:296|224:336,1,71.9999978027344
296,352,27456,1,0,0:0:0:0:
368,304,27606,2,0,L|360:248,1,35.9999989013672
304,176,27906,2,0,L|312:232,1,35.9999989013672
384,192,28206,2,0,B|424:128|424:128|416:48,1,143.999995605469,0|8,0:0|0:0,0:0:0:0:
104,168,29406,5,0,0:0:0:0:
168,130,29556,1,0,0:0:0:0:
104,93,29706,1,0,0:0:0:0:
100,177,30006,5,0,0:0:0:0:
177,132,30156,1,0,0:0:0:0:
100,87,30306,1,0,0:0:0:0:
96,185,30606,5,0,0:0:0:0:
186,132,30756,1,0,0:0:0:0:
96,80,30906,1,0,0:0:0:0:
408,216,31806,5,0,0:0:0:0:
344,254,31956,1,0,0:0:0:0:
408,291,32106,1,0,0:0:0:0:
412,207,32406,5,0,0:0:0:0:
335,252,32556,1,0,0:0:0:0:
412,297,32706,1,0,0:0:0:0:
416,199,33006,5,0,0:0:0:0:
326,252,33156,1,0,0:0:0:0:
416,304,33306,1,0,0:0:0:0:
320,96,34206,5,0,0:0:0:0:
248,104,34356,1,0,0:0:0:0:
176,112,34506,1,0,0:0:0:0:
248,184,34806,5,0,0:0:0:0:
328,192,34956,1,0,0:0:0:0:
408,200,35106,1,0,0:0:0:0:
248,264,35406,5,0,0:0:0:0:
160,272,35556,1,0,0:0:0:0:
72,280,35706,1,0,0:0:0:0:
176,72,36606,6,0,L|256:64,2,60.0000022888184,0|0|8,0:0|0:0|0:0,0:0:0:0:
288,120,37806,1,8,0:0:0:0:
312,128,38006,1,8,0:0:0:0:
336,136,38181,2,8,L|360:144,3,15.0000005722046
424,168,38406,6,0,L|408:296,1,88.000002685547,8|0,0:0|0:0,0:0:0:0:
320,216,38856,1,0,0:0:0:0:
320,216,39006,2,0,P|272:232|232:200,1,88.000002685547,8|0,0:0|0:0,0:0:0:0:
104,136,39606,2,0,P|152:120|192:152,1,88.000002685547,8|0,0:0|0:0,0:0:0:0:
312,216,40206,1,8,0:0:0:0:
104,136,40506,1,0,0:0:0:0:
384,248,40806,6,0,L|376:120,1,88.000002685547,8|0,0:0|0:0,0:0:0:0:
280,96,41256,1,0,0:0:0:0:
280,96,41406,2,0,P|296:144|272:184,1,88.000002685547,8|0,0:0|0:0,0:0:0:0:
224,328,42006,2,0,P|208:280|232:240,1,88.000002685547,8|0,0:0|0:0,0:0:0:0:
280,96,42606,1,8,0:0:0:0:
224,328,42906,1,0,0:0:0:0:
296,24,43206,6,0,L|208:32,1,88.000002685547,8|0,0:0|0:0,0:0:0:0:
128,128,43656,1,0,0:0:0:0:
128,128,43806,2,0,P|176:144|216:112,1,88.000002685547,8|0,0:0|0:0,0:0:0:0:
352,56,44406,2,0,P|304:40|264:72,1,88.000002685547,8|0,0:0|0:0,0:0:0:0:
128,128,45006,1,8,0:0:0:0:
352,56,45306,1,0,0:0:0:0:
48,152,45606,6,0,L|56:272,1,88.000002685547,8|0,0:0|0:0,0:0:0:0:
176,200,46056,1,0,0:0:0:0:
176,200,46206,1,8,0:0:0:0:
361,307,46506,1,0,0:0:0:0:
237,93,46806,1,8,0:0:0:0:
422,200,47106,1,0,0:0:0:0:
237,307,47406,1,8,0:0:0:0:
361,93,47706,1,0,0:0:0:0:
176,192,48006,6,0,P|112:208|32:184,1,132.00000402832,8|0,0:0|0:0,0:0:0:0:
112,88,48606,1,8,0:0:0:0:
184,272,48906,2,0,P|176:312|184:360,2,88.000002685547,0|8|0,0:0|0:0|0:0,0:0:0:0:
264,144,49806,2,0,P|272:104|264:56,2,88.000002685547,8|0|8,0:0|0:0|0:0,0:0:0:0:
184,272,50856,5,0,0:0:0:0:
184,272,51006,2,0,L|272:280,1,88.000002685547,8|0,0:0|0:0,0:0:0:0:
352,240,51606,2,0,P|344:296|368:344,1,88.000002685547,8|0,0:0|0:0,0:0:0:0:
384,176,52206,2,0,P|392:120|368:72,1,88.000002685547,8|0,0:0|0:0,0:0:0:0:
296,136,52806,6,0,L|160:144,1,132.00000402832,8|0,0:0|0:0,0:0:0:0:
40,152,53406,1,8,0:0:0:0:
104,248,53706,2,0,L|192:240,2,88.000002685547,0|8|0,0:0|0:0|0:0,0:0:0:0:
408,312,54606,2,0,L|320:304,2,88.000002685547,8|0|8,0:0|0:0|0:0,0:0:0:0:
264,256,55656,5,0,0:0:0:0:
264,256,55806,2,0,L|272:160,1,88.000002685547,8|0,0:0|0:0,0:0:0:0:
271,168,56406,1,8,0:0:0:0:
68,234,56706,1,0,0:0:0:0:
194,61,57006,1,8,0:0:0:0:
194,275,57306,1,0,0:0:0:0:
68,102,57606,5,12,0:0:0:0:
68,102,57756,2,0,L|120:48,1,64
160,0,58206,1,0,0:0:0:0:
184,72,58356,1,0,0:0:0:0:
256,104,58506,2,0,L|304:120,2,32
472,232,60006,5,4,0:0:0:0:
472,232,60156,2,0,L|420:286,1,64
380,334,60606,1,0,0:0:0:0:
356,262,60756,1,0,0:0:0:0:
284,230,60906,2,0,L|200:200,1,64
168,144,62406,5,4,0:0:0:0:
168,144,62556,2,0,L|160:224,1,64
240,208,63006,2,0,L|296:200,1,32
88,144,63306,2,0,L|32:136,1,32
168,144,63606,2,0,P|224:120|288:152,2,128,0|0|4,0:0|0:0|0:0,0:0:0:0:
336,192,64956,6,0,L|400:256,1,64
440,288,65406,1,0,0:0:0:0:
320,312,65556,1,0,0:0:0:0:
320,312,65706,1,0,0:0:0:0:
200,328,65856,1,0,0:0:0:0:
200,328,66006,1,0,0:0:0:0:
264,160,66606,1,2,0:0:0:0:
264,160,67206,6,0,L|176:152,1,71.9999978027344,8|0,0:0|0:0,0:0:0:0:
120,144,67656,1,0,0:0:0:0:
256,152,67806,6,0,L|168:144,1,71.9999978027344
112,136,68256,1,0,0:0:0:0:
248,144,68406,6,0,L|160:136,2,71.9999978027344
400,160,69306,1,0,0:0:0:0:
400,160,69456,2,0,P|408:208|392:240,2,71.9999978027344
320,192,70206,2,0,L|312:256,1,35.9999989013672
480,168,70506,2,0,L|488:112,1,35.9999989013672
240,216,70806,1,0,0:0:0:0:
160,224,71106,1,0,0:0:0:0:
240,216,71406,2,0,P|232:168|248:88,1,107.999996704102
312,200,72006,6,0,L|320:280,1,71.9999978027344,8|0,0:0|0:0,0:0:0:0:
328,344,72456,1,0,0:0:0:0:
320,192,72606,6,0,L|328:272,1,71.9999978027344
336,336,73056,1,0,0:0:0:0:
328,184,73206,6,0,L|336:264,2,71.9999978027344
320,80,74106,1,0,0:0:0:0:
320,80,74256,2,0,P|288:88|232:72,2,71.9999978027344
376,32,75006,1,0,0:0:0:0:
392,104,75156,1,0,0:0:0:0:
352,168,75306,1,0,0:0:0:0:
280,192,75456,1,0,0:0:0:0:
208,168,75606,2,0,L|120:136,2,71.9999978027344
56,304,76656,6,0,L|40:312,4,15.0000005722046,0|0|0|0|12,0:0|0:0|0:0|0:0|0:0,0:0:0:0:
408,56,77406,5,0,0:0:0:0:
408,131,77556,1,0,0:0:0:0:
343,93,77706,1,0,0:0:0:0:
413,47,78006,5,0,0:0:0:0:
413,137,78156,1,0,0:0:0:0:
335,91,78306,1,0,0:0:0:0:
418,40,78606,5,0,0:0:0:0:
418,145,78756,1,0,0:0:0:0:
327,92,78906,1,0,0:0:0:0:
104,328,79806,5,0,0:0:0:0:
104,253,79956,1,0,0:0:0:0:
169,291,80106,1,0,0:0:0:0:
99,337,80406,5,0,0:0:0:0:
99,247,80556,1,0,0:0:0:0:
177,293,80706,1,0,0:0:0:0:
94,344,81006,5,0,0:0:0:0:
94,239,81156,1,0,0:0:0:0:
185,292,81306,1,0,0:0:0:0:
416,264,82206,5,0,0:0:0:0:
424,192,82356,1,0,0:0:0:0:
432,120,82506,1,0,0:0:0:0:
304,32,82806,5,0,0:0:0:0:
312,112,82956,1,0,0:0:0:0:
320,192,83106,1,0,0:0:0:0:
176,264,83406,5,0,0:0:0:0:
184,176,83556,1,0,0:0:0:0:
192,88,83706,1,0,0:0:0:0:
288,320,84606,6,0,L|352:328,2,60.0000022888184
208,256,85806,1,8,0:0:0:0:
184,264,86006,1,8,0:0:0:0:
160,272,86181,2,8,L|136:280,3,15.0000005722046
72,296,86406,6,0,P|80:240|56:176,1,88.000002685547,8|0,0:0|0:0,0:0:0:0:
144,128,86856,1,0,0:0:0:0:
144,128,87006,2,0,P|192:112|232:136,1,88.000002685547,8|0,0:0|0:0,0:0:0:0:
360,176,87606,2,0,P|312:192|272:168,1,88.000002685547,8|0,0:0|0:0,0:0:0:0:
144,128,88206,1,8,0:0:0:0:
360,176,88506,1,0,0:0:0:0:
96,72,88806,6,0,P|160:64|200:80,1,88.000002685547,8|0,0:0|0:0,0:0:0:0:
288,120,89256,1,0,0:0:0:0:
288,120,89406,2,0,P|304:80|280:32,1,88.000002685547,8|0,0:0|0:0,0:0:0:0:
232,176,90006,2,0,P|216:216|240:264,1,88.000002685547,8|0,0:0|0:0,0:0:0:0:
288,40,90606,1,8,0:0:0:0:
232,256,90906,1,0,0:0:0:0:
360,16,91206,6,0,L|368:144,1,88.000002685547,8|0,0:0|0:0,0:0:0:0:
440,200,91656,1,0,0:0:0:0:
440,200,91806,2,0,P|432:256|448:296,1,88.000002685547,8|0,0:0|0:0,0:0:0:0:
472,128,92406,2,0,P|480:72|464:32,1,88.000002685547,8|0,0:0|0:0,0:0:0:0:
440,280,93006,1,8,0:0:0:0:
472,40,93306,1,0,0:0:0:0:
432,352,93606,6,0,L|336:344,1,88.000002685547,8|0,0:0|0:0,0:0:0:0:
240,272,94056,1,0,0:0:0:0:
240,272,94206,1,8,0:0:0:0:
19,128,94506,1,0,0:0:0:0:
123,332,94806,1,8,0:0:0:0:
247,140,95106,1,0,0:0:0:0:
12,260,95406,1,8,0:0:0:0:
136,68,95706,1,0,0:0:0:0:
240,272,96006,6,0,P|320:288|376:264,1,132.00000402832,8|0,0:0|0:0,0:0:0:0:
304,160,96606,1,8,0:0:0:0:
96,208,96906,2,0,L|88:304,2,88.000002685547,0|8|0,0:0|0:0|0:0,0:0:0:0:
160,120,97806,2,0,L|152:32,2,88.000002685547,8|0|8,0:0|0:0|0:0,0:0:0:0:
96,208,98856,5,0,0:0:0:0:
96,208,99006,2,0,P|160:216|192:200,1,88.000002685547,8|0,0:0|0:0,0:0:0:0:
320,112,99606,1,8,0:0:0:0:
240,256,99906,1,0,0:0:0:0:
384,160,100206,1,8,0:0:0:0:
304,304,100506,1,0,0:0:0:0:
448,208,100806,6,0,L|432:48,1,132.00000402832,8|0,0:0|0:0,0:0:0:0:
288,120,101406,1,8,0:0:0:0:
144,96,101706,2,0,P|80:104|48:88,2,88.000002685547,0|8|0,0:0|0:0|0:0,0:0:0:0:
288,120,102606,2,8,P|352:112|384:128,2,88.000002685547,8|0|8,0:0|0:0|0:0,0:0:0:0:
104,192,103656,5,0,0:0:0:0:
104,192,103806,2,0,L|112:288,1,88.000002685547,8|0,0:0|0:0,0:0:0:0:
111,279,104406,1,8,0:0:0:0:
209,57,104706,1,0,0:0:0:0:
0,179,105006,1,8,0:0:0:0:
240,204,105306,1,0,0:0:0:0:
60,42,105606,5,12,0:0:0:0:
96,136,115206,5,8,0:0:0:0:
81,55,115806,1,0,0:0:0:0:
162,41,116406,1,0,0:0:0:0:
176,121,117006,1,0,0:0:0:0:
336,263,117606,5,8,0:0:0:0:
350,343,118206,1,0,0:0:0:0:
431,329,118806,1,0,0:0:0:0:
416,248,119406,1,0,0:0:0:0:
384,96,120006,6,0,L|280:104,1,102.000001945496,8|0,0:0|0:0,0:0:0:0:
208,112,120606,1,0,0:0:0:0:
208,112,120906,2,0,B|192:176|192:176|120:192,1,136.000002593994
48,208,121806,1,0,0:0:0:0:
104,272,122106,1,0,0:0:0:0:
48,208,122406,6,0,P|40:144|56:96,1,102.000001945496,8|0,0:0|0:0,0:0:0:0:
80,40,123006,1,0,0:0:0:0:
320,64,123606,5,8,0:0:0:0:
320,64,124206,1,8,0:0:0:0:
344,72,124406,1,8,0:0:0:0:
368,80,124581,2,8,L|392:88,3,15.0000005722046
456,64,124806,6,0,L|448:184,1,88.000002685547,8|0,0:0|0:0,0:0:0:0:
320,192,125256,1,0,0:0:0:0:
320,192,125406,2,0,P|280:208|232:184,1,88.000002685547,8|0,0:0|0:0,0:0:0:0:
104,136,126006,2,0,P|144:120|192:144,1,88.000002685547,8|0,0:0|0:0,0:0:0:0:
320,192,126606,1,8,0:0:0:0:
104,136,126906,1,0,0:0:0:0:
392,208,127206,6,0,L|384:96,1,88.000002685547,8|0,0:0|0:0,0:0:0:0:
280,168,127656,1,0,0:0:0:0:
280,168,127806,2,0,P|296:216|256:264,1,88.000002685547,8|0,0:0|0:0,0:0:0:0:
224,112,128406,2,0,P|208:64|248:16,1,88.000002685547,8|0,0:0|0:0,0:0:0:0:
280,248,129006,1,8,0:0:0:0:
222,32,129306,1,0,0:0:0:0:
304,320,129606,6,0,P|248:328|200:312,1,88.000002685547,8|0,0:0|0:0,0:0:0:0:
288,216,130056,1,0,0:0:0:0:
288,216,130206,2,0,P|352:208|384:224,1,88.000002685547,8|0,0:0|0:0,0:0:0:0:
216,240,130806,2,0,P|173:250|131:239,1,88.000002685547,8|0,0:0|0:0,0:0:0:0:
372,216,131406,1,8,0:0:0:0:
131,239,131706,1,0,0:0:0:0:
448,208,132006,6,0,P|456:152|440:112,1,88.000002685547,8|0,0:0|0:0,0:0:0:0:
344,48,132456,1,0,0:0:0:0:
344,48,132606,1,8,0:0:0:0:
180,207,132906,1,0,0:0:0:0:
400,270,133206,1,8,0:0:0:0:
216,80,133506,1,0,0:0:0:0:
436,143,133806,1,8,0:0:0:0:
272,302,134106,1,0,0:0:0:0:
344,48,134406,6,0,P|360:104|328:200,1,132.00000402832,8|0,0:0|0:0,0:0:0:0:
240,112,135006,1,8,0:0:0:0:
432,176,135306,2,0,P|440:240|416:288,2,88.000002685547,0|8|0,0:0|0:0|0:0,0:0:0:0:
488,112,136206,2,0,P|480:48|504:0,2,88.000002685547,8|0|8,0:0|0:0|0:0,0:0:0:0:
432,264,137256,5,0,0:0:0:0:
432,264,137406,2,0,L|320:272,1,88.000002685547,8|0,0:0|0:0,0:0:0:0:
232,256,138006,2,0,P|248:192|272:176,1,88.000002685547,8|0,0:0|0:0,0:0:0:0:
152,264,138606,2,0,P|136:328|112:344,1,88.000002685547,8|0,0:0|0:0,0:0:0:0:
96,120,139206,6,0,L|232:128,1,132.00000402832,8|0,0:0|0:0,0:0:0:0:
360,136,139806,1,8,0:0:0:0:
360,136,140106,2,0,P|312:152|304:216,2,88.000002685547,0|8|0,0:0|0:0|0:0,0:0:0:0:
432,72,141006,2,0,P|480:56|488:-8,2,88.000002685547,8|0|8,0:0|0:0|0:0,0:0:0:0:
208,32,142056,5,0,0:0:0:0:
208,32,142206,2,0,L|192:160,1,88.000002685547,8|0,0:0|0:0,0:0:0:0:
197,119,142806,1,8,0:0:0:0:
246,371,143106,1,0,0:0:0:0:
354,138,143406,1,8,0:0:0:0:
130,262,143706,1,0,0:0:0:0:
384,294,144006,5,12,0:0:0:0:
192,120,144456,1,0,0:0:0:0:
192,120,144606,2,0,P|136:128|104:112,1,80
264,56,145206,2,0,L|272:176,1,120,8|0,0:0|0:0,0:0:0:0:
280,248,145806,1,0,0:0:0:0:
192,120,146106,1,0,0:0:0:0:
280,248,146406,6,0,P|328:256|368:240,1,80,8|0,0:0|0:0,0:0:0:0:
416,200,146856,1,0,0:0:0:0:
432,272,147006,1,0,0:0:0:0:
376,24,147306,1,0,0:0:0:0:
376,24,147606,2,0,L|248:32,1,120,8|0,0:0|0:0,0:0:0:0:
152,16,148206,2,0,P|160:64|144:104,1,80
32,248,148806,5,8,0:0:0:0:
216,272,149256,1,0,0:0:0:0:
216,272,149406,2,0,L|136:264,1,80
192,184,150006,2,0,P|208:128|184:56,1,120,8|0,0:0|0:0,0:0:0:0:
193,69,150606,1,0,0:0:0:0:
368,24,150906,1,0,0:0:0:0:
192,64,151206,6,0,L|280:112,1,80,8|0,0:0|0:0,0:0:0:0:
328,136,151656,1,0,0:0:0:0:
400,112,151806,2,0,P|424:160|408:216,1,80
504,248,152406,2,0,L|368:264,1,120,8|0,0:0|0:0,0:0:0:0:
384,262,153006,1,0,0:0:0:0:
264,312,153306,2,0,L|256:328,7,15.0000005722046
240,240,153606,6,0,L|256:104,1,132.00000402832,8|0,0:0|0:0,0:0:0:0:
264,32,154206,1,0,0:0:0:0:
120,48,154506,1,0,0:0:0:0:
264,32,154806,2,0,P|320:24|368:40,1,88.000002685547,8|0,0:0|0:0,0:0:0:0:
416,64,155256,1,0,0:0:0:0:
480,104,155406,1,0,0:0:0:0:
320,144,155706,1,0,0:0:0:0:
488,200,156006,6,0,L|344:208,1,132.00000402832,8|0,0:0|0:0,0:0:0:0:
280,208,156606,2,0,P|288:256|272:312,2,88.000002685547,0|0|8,0:0|0:0|0:0,0:0:0:0:
224,64,157656,1,0,0:0:0:0:
224,64,157806,2,0,B|136:80|136:80|120:176,1,176.000005371094,0|8,0:0|0:0,0:0:0:0:
104,304,158856,5,0,0:0:0:0:
176,312,159006,1,0,0:0:0:0:
104,304,159306,1,0,0:0:0:0:
304,328,159606,1,8,0:0:0:0:
472,216,160056,1,0,0:0:0:0:
472,216,160206,2,0,P|400:232|272:200,1,176.000005371094,0|8,0:0|0:0,0:0:0:0:
40,168,161256,5,0,0:0:0:0:
40,168,161406,2,0,P|112:152|240:184,1,176.000005371094,0|8,0:0|0:0,0:0:0:0:
296,208,162606,1,0,0:0:0:0:
40,168,162906,1,0,0:0:0:0:
217,101,163206,6,0,B|273:93|313:117|313:117|289:173|297:221,1,192,12|2,0:0|0:0,0:0:0:0:
