osu file format v14

[General]
AudioFilename: audio.mp3
AudioLeadIn: 0
PreviewTime: -1
Countdown: 1
SampleSet: Normal
StackLeniency: 0.7
Mode: 0
LetterboxInBreaks: 0
WidescreenStoryboard: 0

[Editor]
DistanceSpacing: 1.5
BeatDivisor: 4
GridSize: 16
TimelineZoom: 1.3

[Metadata]
Title:Gravity (Nightstep remix)
TitleUnicode:Gravity (Nightstep remix)
Artist:Kevin Wild & Punk Party
ArtistUnicode:Kevin Wild & Punk Party
Creator:GothemCloud
Version:Attractive
Source:
Tags:DnB
BeatmapID:2048653
BeatmapSetID:978959

[Difficulty]
HPDrainRate:5
CircleSize:4.1
OverallDifficulty:8
ApproachRate:9.3
SliderMultiplier:1.4
SliderTickRate:1

[Events]
//Background and Video events
0,0,"gravity.png",0,0
//Break Periods
//Storyboard Layer 0 (Background)
//Storyboard Layer 1 (Fail)
//Storyboard Layer 2 (Pass)
//Storyboard Layer 3 (Foreground)
//Storyboard Sound Samples

[TimingPoints]
4175,397.450993377483,4,1,0,50,1,0
5665,-125,4,1,0,50,0,0
8050,-111.111111111111,4,1,0,50,0,0
10633,-100,4,1,0,50,0,0
12024,-125,4,1,0,50,0,0
14310,-111.111111111111,4,1,0,50,0,0
16992,-83.3333333333333,4,1,0,20,0,0
18383,-125,4,1,0,50,0,0
26332,-111.111111111111,4,1,0,50,0,0
26780,-104.166666666667,4,1,0,50,0,0
27177,-90.9090909090909,4,1,0,57,0,0
27574,-87.719298245614,4,1,0,65,0,0
27972,-84.0336134453781,4,1,0,69,0,0
28369,-80,4,1,0,75,0,0
30307,-100,4,1,0,70,0,0
32741,-83.3333333333333,4,1,0,70,0,0
33139,-100,4,1,0,70,0,0

[HitObjects]
94,235,4870,5,0,2:0:0:0:
166,159,5168,2,0,L|260:150,1,70,0|0,2:0|2:0,2:0:0:0:
338,178,5566,1,0,2:0:0:0:
421,106,5764,2,0,L|426:243,1,112,0|0,2:0|2:0,2:0:0:0:
366,268,6360,2,0,P|325:246|266:240,1,84,0|0,2:0|2:0,2:0:0:0:
234,299,6758,2,0,P|193:290|156:270,1,84,0|0,2:0|2:0,2:0:0:0:
140,188,7155,6,0,P|47:190|61:293,1,224,0|0,2:0|2:0,2:0:0:0:
149,349,8149,2,0,P|223:362|289:353,1,125.999996154785,0|0,2:0|2:0,2:0:0:0:
230,193,8944,2,0,P|285:191|356:207,1,125.999996154785,0|0,2:0|2:0,2:0:0:0:
416,353,9739,2,0,P|427:298|423:228,1,125.999996154785,0|0,2:0|2:0,2:0:0:0:
246,44,10534,5,4,2:0:0:0:
70,275,11329,2,0,P|41:335|42:358,1,70,0|0,2:0|2:0,2:0:0:0:
143,286,11726,2,0,P|122:222|106:206,1,70,0|0,2:0|2:0,2:0:0:0:
43,187,12124,2,0,P|21:75|29:-4,1,168,0|0,2:0|2:0,2:0:0:0:
276,10,13316,2,0,P|380:2|501:29,1,224,0|0,2:0|2:0,2:0:0:0:
403,297,14508,6,0,P|441:247|459:187,1,125.999996154785,0|0,2:0|2:0,2:0:0:0:
270,195,15303,2,0,P|294:252|336:299,1,125.999996154785,0|0,2:0|2:0,2:0:0:0:
426,132,16098,2,0,P|363:123|302:137,1,125.999996154785,0|0,2:0|2:0,2:0:0:0:
395,301,16893,6,4,L|440:305,3,31.4999990386963,4|4|4|4,2:0|2:0|2:0|2:0,2:0:0:0:
437,219,17290,2,0,L|383:219,3,41.9999987182618,0|0|0|0,2:0|2:0|2:0|2:0,2:0:0:0:
393,141,17688,2,0,L|439:136,3,41.9999987182618,0|0|0|0,2:0|2:0|2:0|2:0,2:0:0:0:
418,55,18085,2,0,L|367:62,3,41.9999987182618,0|0|0|0,2:0|2:0|2:0|2:0,2:0:0:0:
315,23,18483,2,0,L|139:7,1,168,0|0,2:0|2:0,2:0:0:0:
119,11,19178,1,0,2:0:0:0:
91,16,19277,1,0,2:0:0:0:
69,33,19376,1,0,2:0:0:0:
58,58,19476,1,0,2:0:0:0:
60,86,19575,1,0,2:0:0:0:
66,121,19675,6,0,B|112:228|8:229|77:350,1,224,0|0,2:0|2:0,2:0:0:0:
94,356,20569,1,0,2:0:0:0:
120,366,20668,1,0,2:0:0:0:
147,370,20767,1,0,2:0:0:0:
175,368,20867,1,0,2:0:0:0:
208,376,20967,1,0,2:0:0:0:
235,382,21066,1,0,2:0:0:0:
262,380,21165,1,0,2:0:0:0:
288,369,21265,1,0,2:0:0:0:
321,377,21364,1,0,2:0:0:0:
347,384,21463,1,0,2:0:0:0:
375,381,21562,1,0,2:0:0:0:
407,370,21662,6,0,L|451:373,5,28,0|0|0|0|0|0,2:0|2:0|2:0|2:0|2:0|2:0,2:0:0:0:
481,280,22259,1,0,2:0:0:0:
453,276,22358,1,0,2:0:0:0:
428,262,22457,1,0,2:0:0:0:
410,241,22557,1,0,2:0:0:0:
400,215,22656,1,0,2:0:0:0:
400,187,22755,1,0,2:0:0:0:
410,161,22855,1,0,2:0:0:0:
428,140,22954,1,0,2:0:0:0:
457,124,23053,1,0,2:0:0:0:
483,114,23152,1,0,2:0:0:0:
509,92,23252,6,0,L|514:46,3,28,0|0|0|0,2:0|2:0|2:0|2:0,2:0:0:0:
427,55,23650,2,0,L|424:22,3,28,0|0|0|0,2:0|2:0|2:0|2:0,2:0:0:0:
344,59,24047,2,0,P|267:54|211:38,1,112,4|0,2:0|2:0,2:0:0:0:
201,55,24544,1,0,2:0:0:0:
182,76,24643,1,0,2:0:0:0:
169,100,24742,1,0,2:0:0:0:
168,133,24842,6,0,P|223:134|335:161,1,168,4|0,2:0|2:0,2:0:0:0:
361,177,25537,1,0,0:0:0:0:
378,198,25636,1,0,0:0:0:0:
384,225,25735,1,0,0:0:0:0:
384,253,25835,1,0,0:0:0:0:
371,277,25934,1,0,0:0:0:0:
352,298,26034,2,0,L|348:333,3,28
235,282,26432,5,0,0:0:0:0:
204,289,26531,1,0,0:0:0:0:
173,286,26630,1,0,0:0:0:0:
144,273,26730,1,0,0:0:0:0:
132,241,26829,1,0,0:0:0:0:
99,230,26928,1,0,0:0:0:0:
84,200,27027,1,0,0:0:0:0:
85,167,27127,1,0,0:0:0:0:
101,132,27227,5,0,0:0:0:0:
91,96,27326,1,0,0:0:0:0:
105,61,27425,1,0,0:0:0:0:
136,40,27525,1,0,0:0:0:0:
176,47,27624,1,0,0:0:0:0:
212,64,27723,1,0,0:0:0:0:
251,73,27822,1,0,0:0:0:0:
291,75,27922,1,0,0:0:0:0:
331,64,28022,1,0,0:0:0:0:
363,38,28121,1,0,0:0:0:0:
403,30,28220,1,0,0:0:0:0:
442,43,28320,1,0,0:0:0:0:
465,81,28419,5,0,0:0:0:0:
479,122,28518,1,0,0:0:0:0:
486,165,28617,1,0,0:0:0:0:
487,209,28717,1,0,0:0:0:0:
480,252,28816,1,0,0:0:0:0:
294,281,29015,1,0,0:0:0:0:
491,332,29214,2,0,P|404:351|344:355,1,131.25
296,354,29611,6,0,L|244:357,3,43.75
210,305,30009,2,0,L|148:300,3,43.75
103,354,30406,1,0,0:0:0:0:
77,330,30505,1,0,0:0:0:0:
59,300,30604,1,0,0:0:0:0:
50,266,30704,1,0,0:0:0:0:
52,231,30803,1,0,0:0:0:0:
74,204,30903,1,0,0:0:0:0:
89,172,31002,1,0,0:0:0:0:
96,138,31102,1,0,0:0:0:0:
82,100,31201,6,0,L|47:102,3,35
36,37,31599,2,0,L|71:33,3,35
116,25,31996,1,0,0:0:0:0:
150,18,32095,1,0,0:0:0:0:
185,14,32194,1,0,0:0:0:0:
220,12,32294,1,0,0:0:0:0:
255,12,32393,1,0,0:0:0:0:
289,14,32492,1,0,0:0:0:0:
324,18,32592,1,0,0:0:0:0:
359,25,32691,1,0,0:0:0:0:
393,46,32791,5,0,0:0:0:0:
364,75,32890,1,0,0:0:0:0:
360,116,32990,1,0,0:0:0:0:
386,148,33089,1,0,0:0:0:0:
431,164,33188,2,0,L|435:109,3,35
373,239,33586,2,0,L|368:191,3,35
463,293,33983,5,0,0:0:0:0:
468,327,34082,1,0,0:0:0:0:
448,355,34181,1,0,0:0:0:0:
415,363,34281,1,0,0:0:0:0:
385,346,34380,1,0,0:0:0:0:
376,312,34480,1,0,0:0:0:0:
354,285,34579,1,0,0:0:0:0:
324,268,34679,1,0,0:0:0:0:
284,268,34778,1,0,0:0:0:0:
251,276,34877,1,0,0:0:0:0:
216,271,34976,1,0,0:0:0:0:
187,253,35076,1,0,0:0:0:0:
174,213,35176,6,0,L|208:215,3,35
273,180,35573,2,0,L|307:178,3,35
181,286,35971,1,0,0:0:0:0:
149,271,36070,1,0,0:0:0:0:
123,248,36169,1,0,0:0:0:0:
105,218,36269,1,0,0:0:0:0:
96,184,36368,1,0,0:0:0:0:
98,149,36467,1,0,0:0:0:0:
110,116,36567,1,0,0:0:0:0:
131,88,36666,1,0,0:0:0:0:
159,68,36765,1,0,0:0:0:0:
191,56,36865,1,0,0:0:0:0:
226,55,36964,1,0,0:0:0:0:
260,63,37063,1,0,0:0:0:0:
290,81,37163,5,0,0:0:0:0:
295,114,37262,1,0,0:0:0:0:
274,140,37361,1,0,0:0:0:0:
237,133,37461,1,0,0:0:0:0:
203,128,37561,1,0,0:0:0:0:
174,146,37660,1,0,0:0:0:0:
164,178,37759,1,0,0:0:0:0:
180,209,37859,1,0,0:0:0:0:
211,224,37958,1,0,0:0:0:0:
