osu file format v14

[General]
AudioFilename: Elite Beat Agents Stage 13 - The Anthem.mp3
AudioLeadIn: 0
PreviewTime: 48509
Countdown: 1
SampleSet: Normal
StackLeniency: 0.7
Mode: 0
LetterboxInBreaks: 0
WidescreenStoryboard: 0

[Editor]
DistanceSpacing: 0.8
BeatDivisor: 2
GridSize: 8
TimelineZoom: 1.9

[Metadata]
Title:The Anthem
TitleUnicode:The Anthem
Artist:Kevin Ridel
ArtistUnicode:Kevin Ridel
Creator:Nitroz
Version:Sweatin'
Source:Elite Beat Agents
Tags:eba ouendan inis nintendo good charlotte cover rock pop punk
BeatmapID:1531600
BeatmapSetID:725385

[Difficulty]
HPDrainRate:6
CircleSize:3
OverallDifficulty:7
ApproachRate:6
SliderMultiplier:1.8
SliderTickRate:2

[Events]
//Background and Video events
0,0,"bg.png",0,0
//Break Periods
2,37675,47547
2,59582,68611
2,113339,123042
//Storyboard Layer 0 (Background)
//Storyboard Layer 1 (Fail)
//Storyboard Layer 2 (Pass)
//Storyboard Layer 3 (Foreground)
//Storyboard Sound Samples

[TimingPoints]
65,337.031315826429,4,1,0,70,1,0
48593,-100,4,1,0,80,0,1
59546,-100,4,1,0,70,0,0
91729,-100,4,1,0,80,0,1
102682,-100,4,1,0,70,0,0
151042,-100,4,1,0,80,0,1
156434,-100,4,1,0,70,0,0

[Colours]
Combo1 : 255,192,0
Combo2 : 0,202,0
Combo3 : 18,124,255
Combo4 : 242,24,57

[HitObjects]
136,82,15905,53,2,0:0:0:0:
176,12,16073,1,8,0:0:0:0:
216,82,16242,1,0,0:0:0:0:
376,82,16579,1,0,0:0:0:0:
216,282,17253,1,2,0:0:0:0:
296,282,17422,1,8,0:0:0:0:
256,362,17590,2,0,P|16:288|-64:212,1,360
376,82,18601,5,2,0:0:0:0:
336,12,18770,1,8,0:0:0:0:
296,82,18938,1,10,0:0:0:0:
116,82,19275,1,0,0:0:0:0:
296,282,19949,1,10,0:0:0:0:
216,282,20118,1,8,0:0:0:0:
256,360,20286,2,0,P|424:328|504:272,1,270
256,2,21635,5,2,0:0:0:0:
251,7,21803,1,0,0:0:0:0:
176,92,22140,1,0,0:0:0:0:
336,92,22477,1,0,0:0:0:0:
416,182,22814,1,0,0:0:0:0:
256,182,23151,1,0,0:0:0:0:
336,272,23488,1,0,0:0:0:0:
86,272,23994,1,0,0:0:0:0:
86,352,24162,1,8,0:0:0:0:
166,352,24331,6,8,B|352:352,6,180
176,12,26690,5,2,0:0:0:0:
136,82,26858,1,8,0:0:0:0:
216,82,27027,1,0,0:0:0:0:
376,82,27364,1,0,0:0:0:0:
256,212,27870,1,10,0:0:0:0:
216,282,28038,1,2,0:0:0:0:
296,282,28207,1,8,0:0:0:0:
256,362,28375,2,0,P|496:288|576:212,1,360
336,12,29386,5,2,0:0:0:0:
376,82,29555,1,8,0:0:0:0:
296,82,29723,1,10,0:0:0:0:
136,82,30060,1,0,0:0:0:0:
256,202,30566,1,2,0:0:0:0:
216,282,30734,1,10,0:0:0:0:
296,282,30903,1,8,0:0:0:0:
256,360,31071,2,0,P|88:328|8:272,1,270
16,82,32251,5,2,0:0:0:0:
11,87,32420,1,2,0:0:0:0:
176,82,32757,1,2,0:0:0:0:
336,82,33094,1,0,0:0:0:0:
496,82,33431,1,10,0:0:0:0:
416,202,33768,1,0,0:0:0:0:
296,272,34105,1,8,0:0:0:0:
216,272,34273,1,8,0:0:0:0:
96,202,34610,1,0,0:0:0:0:
86,352,34947,1,0,0:0:0:0:
166,352,35116,6,12,B|352:352,7,180
168,32,48597,6,12,P|256:16|344:32,4,180
0,162,50451,1,8,0:0:0:0:
56,222,50619,1,0,0:0:0:0:
116,162,50788,1,8,0:0:0:0:
176,222,50956,1,0,0:0:0:0:
256,72,51293,5,0,0:0:0:0:
256,212,51630,1,0,0:0:0:0:
256,352,51967,1,6,0:0:0:0:
512,262,52810,21,2,0:0:0:0:
456,322,52978,1,0,0:0:0:0:
396,262,53147,1,8,0:0:0:0:
456,202,53315,1,0,0:0:0:0:
456,122,53484,1,8,0:0:0:0:
386,162,53652,1,12,0:0:0:0:
306,92,53990,37,2,0:0:0:0:
196,92,54242,1,0,0:0:0:0:
196,202,54411,1,8,0:0:0:0:
306,202,54664,1,0,0:0:0:0:
296,342,55001,1,0,0:0:0:0:
216,342,55169,1,0,0:0:0:0:
76,322,55506,2,8,P|48:280|40:152,1,180,0|8,0:0|0:0,0:0:0:0:
176,122,56012,1,0,0:0:0:0:
336,122,56349,1,12,0:0:0:0:
344,32,56686,6,12,P|256:16|168:32,4,180
216,102,58539,1,8,0:0:0:0:
276,162,58708,1,0,0:0:0:0:
196,182,58876,1,8,0:0:0:0:
256,242,59045,1,8,0:0:0:0:
256,362,59382,1,12,0:0:0:0:
356,262,69661,5,0,0:0:0:0:
436,342,69830,1,2,0:0:0:0:
436,262,69998,1,8,0:0:0:0:
512,262,70167,1,0,0:0:0:0:
476,122,70504,1,0,0:0:0:0:
256,182,71010,1,8,0:0:0:0:
251,187,71178,1,10,0:0:0:0:
376,104,71515,2,0,P|256:48|136:104,1,270
66,302,72526,5,2,0:0:0:0:
0,342,72695,1,8,0:0:0:0:
0,262,72863,1,0,0:0:0:0:
36,122,73200,1,0,0:0:0:0:
256,182,73706,1,8,0:0:0:0:
251,187,73874,1,10,0:0:0:0:
136,256,74211,2,0,P|256:312|376:256,1,270
256,2,75560,5,2,0:0:0:0:
251,7,75728,1,0,0:0:0:0:
176,92,76065,1,0,0:0:0:0:
96,182,76402,1,0,0:0:0:0:
256,182,76739,1,8,0:0:0:0:
336,92,77076,1,0,0:0:0:0:
416,182,77413,1,0,0:0:0:0:
336,272,77750,1,0,0:0:0:0:
176,272,78087,1,2,0:0:0:0:
166,352,78256,6,12,B|352:352,7,180
156,2,80952,5,0,0:0:0:0:
56,62,81289,1,0,0:0:0:0:
0,162,81626,2,8,P|0:208|64:328,1,180
136,302,82132,1,0,0:0:0:0:
256,242,82469,1,0,0:0:0:0:
376,182,82806,1,6,0:0:0:0:
256,2,83311,1,10,0:0:0:0:
356,2,83648,5,0,0:0:0:0:
456,62,83985,1,0,0:0:0:0:
512,162,84322,2,8,P|512:208|448:328,1,180
376,302,84828,1,0,0:0:0:0:
256,242,85165,1,0,0:0:0:0:
136,182,85502,1,6,0:0:0:0:
256,2,86345,5,0,0:0:0:0:
251,7,86513,1,8,0:0:0:0:
246,12,86682,1,0,0:0:0:0:
256,142,87019,1,10,0:0:0:0:
216,262,87356,1,0,0:0:0:0:
128,272,87524,2,12,P|256:378|384:272,1,360
512,42,89041,5,0,0:0:0:0:
416,142,89378,1,10,0:0:0:0:
316,242,89715,1,0,0:0:0:0:
311,247,89883,1,2,0:0:0:0:
0,42,90389,1,0,0:0:0:0:
96,142,90726,1,10,0:0:0:0:
196,242,91063,1,0,0:0:0:0:
191,247,91231,1,2,0:0:0:0:
186,252,91400,1,12,0:0:0:0:
344,24,91737,6,12,P|256:8|168:24,4,180
512,162,93591,1,8,0:0:0:0:
456,222,93759,1,0,0:0:0:0:
396,162,93928,1,8,0:0:0:0:
336,222,94096,1,0,0:0:0:0:
256,72,94433,5,0,0:0:0:0:
256,212,94770,1,0,0:0:0:0:
256,352,95107,1,6,0:0:0:0:
0,262,95950,21,2,0:0:0:0:
56,322,96118,1,0,0:0:0:0:
116,262,96287,1,8,0:0:0:0:
56,202,96455,1,0,0:0:0:0:
56,122,96624,1,8,0:0:0:0:
126,162,96792,1,12,0:0:0:0:
206,92,97130,37,2,0:0:0:0:
316,92,97382,1,0,0:0:0:0:
316,202,97635,1,8,0:0:0:0:
206,202,97804,1,0,0:0:0:0:
216,342,98141,1,0,0:0:0:0:
296,342,98309,1,0,0:0:0:0:
436,322,98646,2,8,P|464:280|472:152,1,180,0|8,0:0|0:0,0:0:0:0:
336,122,99152,1,0,0:0:0:0:
176,122,99489,1,12,0:0:0:0:
168,24,99826,6,2,P|256:8|344:24,4,180
296,102,101679,1,8,0:0:0:0:
236,162,101848,1,0,0:0:0:0:
316,182,102016,1,8,0:0:0:0:
256,242,102185,1,8,0:0:0:0:
256,362,102522,1,12,0:0:0:0:
436,42,103196,5,2,0:0:0:0:
431,47,103365,1,10,0:0:0:0:
296,102,103702,1,0,0:0:0:0:
156,42,104039,1,0,0:0:0:0:
16,22,104376,2,8,P|0:192|176:322,1,405
76,102,105892,5,2,0:0:0:0:
71,107,106061,1,10,0:0:0:0:
216,162,106398,1,0,0:0:0:0:
376,102,106735,1,0,0:0:0:0:
512,102,107072,1,0,0:0:0:0:
512,282,107409,2,12,P|456:328|256:368,1,270,0|12,0:0|0:0,0:0:0:0:
416,162,108589,5,2,0:0:0:0:
411,167,108757,1,10,0:0:0:0:
256,202,109094,1,0,0:0:0:0:
76,142,109431,2,8,P|104:232|256:296,1,270
256,122,110274,5,10,0:0:0:0:
116,42,110611,1,0,0:0:0:0:
111,47,110779,1,2,0:0:0:0:
256,2,111116,1,0,0:0:0:0:
396,42,111453,1,0,0:0:0:0:
391,47,111622,1,0,0:0:0:0:
512,142,111959,2,12,P|432:312|276:352,1,360,0|12,0:0|0:0,0:0:0:0:
256,162,112970,1,2,0:0:0:0:
251,167,113139,1,12,0:0:0:0:
0,216,124092,6,8,P|256:5|512:216,1,720
512,342,125946,1,8,0:0:0:0:
464,288,126114,1,0,0:0:0:0:
416,232,126283,1,8,0:0:0:0:
368,176,126451,1,10,0:0:0:0:
256,72,126788,1,0,0:0:0:0:
256,212,127125,1,0,0:0:0:0:
256,352,127462,1,8,0:0:0:0:
256,72,128473,5,12,0:0:0:0:
256,212,128810,1,0,0:0:0:0:
216,282,128979,1,0,0:0:0:0:
296,282,129147,1,12,0:0:0:0:
186,0,129485,6,8,P|48:40|-14:232,1,360,0|8,0:0|0:0,0:0:0:0:
116,192,130496,1,8,0:0:0:0:
116,272,130664,1,10,0:0:0:0:
256,362,131001,1,0,0:0:0:0:
396,272,131338,1,8,0:0:0:0:
396,192,131507,1,8,0:0:0:0:
256,102,131844,1,8,0:0:0:0:
326,0,132181,6,8,P|464:40|526:232,1,360,0|8,0:0|0:0,0:0:0:0:
396,192,133192,1,2,0:0:0:0:
396,272,133360,1,10,0:0:0:0:
256,362,133697,1,0,0:0:0:0:
116,272,134034,1,2,0:0:0:0:
116,192,134203,1,8,0:0:0:0:
256,102,134540,1,8,0:0:0:0:
512,216,134877,6,8,P|256:5|0:216,1,720
0,342,136731,1,8,0:0:0:0:
48,288,136899,1,0,0:0:0:0:
96,232,137068,1,8,0:0:0:0:
144,176,137236,1,10,0:0:0:0:
256,72,137573,1,0,0:0:0:0:
256,212,137910,1,0,0:0:0:0:
256,352,138247,1,8,0:0:0:0:
256,72,138921,5,0,0:0:0:0:
256,212,139258,1,2,0:0:0:0:
256,352,139595,1,8,0:0:0:0:
366,32,140270,6,8,P|464:72|526:122,2,180,0|8|8,0:0|0:0|0:0,0:0:0:0:
396,192,141281,1,8,0:0:0:0:
396,272,141449,1,0,0:0:0:0:
256,362,141786,1,0,0:0:0:0:
116,272,142123,1,8,0:0:0:0:
116,192,142292,1,0,0:0:0:0:
256,102,142629,1,0,0:0:0:0:
146,32,142966,6,8,P|48:72|-14:122,2,180,0|8|8,0:0|0:0|0:0,0:0:0:0:
116,192,143977,1,2,0:0:0:0:
116,272,144145,1,0,0:0:0:0:
256,362,144482,1,0,0:0:0:0:
396,272,144819,1,2,0:0:0:0:
396,192,144988,1,8,0:0:0:0:
256,102,145325,1,12,0:0:0:0:
56,122,145662,5,0,0:0:0:0:
176,22,145999,1,0,0:0:0:0:
336,22,146336,1,2,0:0:0:0:
456,122,146673,1,8,0:0:0:0:
256,182,147347,1,0,0:0:0:0:
256,322,147684,1,12,0:0:0:0:
456,122,148358,5,0,0:0:0:0:
336,22,148695,1,0,0:0:0:0:
176,22,149032,1,2,0:0:0:0:
56,122,149369,1,8,0:0:0:0:
176,262,150043,1,0,0:0:0:0:
336,262,150380,1,12,0:0:0:0:
176,22,151055,5,0,0:0:0:0:
336,182,151392,1,8,0:0:0:0:
336,22,151729,1,0,0:0:0:0:
176,182,152066,1,8,0:0:0:0:
336,342,152403,1,0,0:0:0:0:
176,342,152740,1,8,0:0:0:0:
336,182,153077,1,0,0:0:0:0:
176,22,153414,1,12,0:0:0:0:
256,192,153751,8,12,156279,0:0:0:0:
